#VERSION:0.83;
#TITLE:さくらんぼキッス;
#SUBTITLE:〜爆発だも〜ん〜;
#ARTIST:KOTOKO;
#TITLETRANSLIT:SAKURANBO KISS;
#SUBTITLETRANSLIT:~BAKUHATSU DA MO~N~;
#ARTISTTRANSLIT:;
#GENRE:;
#ORIGIN:;
#CREDIT:DigiMindAxel;
#BANNER:SAKURANBO KISS ~BAKUHATSU DA MO~N~.png;
#BACKGROUND:SAKURANBO KISS ~BAKUHATSU DA MO~N~-bg.png;
#PREVIEWVID:;
#JACKET:SAKURANBO KISS ~BAKUHATSU DA MO~N~-jacket.png;
#CDIMAGE:;
#DISCIMAGE:;
#LYRICSPATH:SAKURANBO KISS ~BAKUHATSU DA MO~N~.lrc;
#CDTITLE:DigiMindAxel original simfile.png;
#MUSIC:SAKURANBO KISS ~BAKUHATSU DA MO~N~.ogg;
#OFFSET:-0.091000;
#SAMPLESTART:66.897003;
#SAMPLELENGTH:12.000000;
#SELECTABLE:YES;
#BPMS:0.000=140.000;
#STOPS:;
#DELAYS:;
#WARPS:;
#TIMESIGNATURES:0.000=4=4;
#TICKCOUNTS:0.000=4;
#COMBOS:0.000=1;
#SPEEDS:0.000=1.000=0.000=0;
#SCROLLS:0.000=1.000;
#FAKES:;
#LABELS:0.000=Song Start;
#BGCHANGES:-0.250=SAKURANBO KISS ~BAKUHATSU DA MO~N~.avi=1.000=1=0=0=StretchNoLoop==CrossFade==,
99999=-nosongbg-=1.000=0=0=0 // don't automatically add -songbackground-
;
#KEYSOUNDS:;
#ATTACKS:
;

//---------------dance-single - ----------------
#NOTEDATA:;
#CHARTNAME:;
#STEPSTYPE:dance-single;
#DESCRIPTION:;
#CHARTSTYLE:;
#DIFFICULTY:Hard;
#METER:11;
#RADARVALUES:0.426190,0.481875,0.466667,0.183333,0.008333,358.000000,302.000000,56.000000,22.000000,0.000000,0.000000,0.000000,0.000000,0.000000,0.426190,0.481875,0.466667,0.183333,0.008333,358.000000,302.000000,56.000000,22.000000,0.000000,0.000000,0.000000,0.000000,0.000000;
#CREDIT:;
#NOTES:
// measure 0
0000
0000
0000
0000
,  // measure 1
0000
0000
0000
0000
,  // measure 2
0000
0000
0000
0000
,  // measure 3
0000
0000
0000
0000
,  // measure 4
1100
0000
1100
0000
0001
1000
0001
0000
,  // measure 5
0100
0001
0010
0100
1000
0000
0000
0001
,  // measure 6
1000
0100
1000
0010
0100
0001
0010
0100
,  // measure 7
2000
0000
0000
0010
0020
0000
3030
0000
,  // measure 8
1001
0000
0001
0100
0001
0000
1000
0100
,  // measure 9
0010
0100
1000
0001
0100
0001
1000
0000
,  // measure 10
1001
0000
0000
2002
0000
0000
3003
0000
,  // measure 11
0020
0000
0000
0100
0200
0000
0330
0000
,  // measure 12
0001
0010
0100
1000
0010
0100
0000
0001
,  // measure 13
0000
0001
0010
0100
1000
0010
0000
1000
,  // measure 14
0000
1000
0100
0001
0100
1000
0000
0010
,  // measure 15
0000
0010
0100
0001
0010
0100
1001
0000
,  // measure 16
1000
0100
0010
0001
1000
0010
0000
1000
,  // measure 17
0000
1000
0010
0001
0010
1000
0000
0001
,  // measure 18
0000
0001
0100
1000
0100
0001
0000
0010
,  // measure 19
0000
0010
0100
1000
0100
0010
0011
0000
,  // measure 20
1001
1001
1001
0000
,  // measure 21
1100
0110
1100
0000
,  // measure 22
1001
0000
1001
0000
1000
0100
0010
0002
,  // measure 23
0000
0000
0000
0100
0103
0000
0000
0000
,  // measure 24
1001
1001
1001
0000
,  // measure 25
0101
0110
0101
0000
,  // measure 26
1001
0000
0011
0000
1000
0100
0000
2000
,  // measure 27
0000
0001
3001
0100
,  // measure 28
1001
0101
0110
1010
,  // measure 29
1001
0011
1100
0011
,  // measure 30
1001
1010
0110
0101
,  // measure 31
1001
0011
1100
0011
,  // measure 32
1001
0011
0110
1100
,  // measure 33
1001
0101
1010
0101
,  // measure 34
1001
0000
1100
0000
0010
0001
1000
0000
,  // measure 35
0010
0000
0000
0010
0000
0000
0010
0000
0100
0000
0000
0100
0000
0000
0100
0000
,  // measure 36
0002
1000
1000
1000
,  // measure 37
0100
0100
0100
0103
,  // measure 38
0010
1000
0100
0011
,  // measure 39
0001
1000
0001
0000
0010
1000
0010
0001
,  // measure 40
0010
0100
1000
0010
1000
0000
0000
0001
,  // measure 41
1000
0010
0001
0010
1000
0100
0010
0001
,  // measure 42
2000
0000
0000
0010
0020
0000
3030
0000
,  // measure 43
1000
0001
1000
0000
0100
0001
0100
1000
,  // measure 44
0010
0100
0010
1000
0100
0010
0001
0000
,  // measure 45
1001
0000
0000
2002
0000
0000
3003
0000
,  // measure 46
0020
0000
0000
0100
0200
0000
0330
0000
,  // measure 47
0001
1000
0001
0000
0010
1000
0010
0001
,  // measure 48
0010
0100
1000
0001
0100
0000
0000
0010
,  // measure 49
1000
0100
0001
0100
1000
0100
0010
0100
,  // measure 50
2000
0000
0000
0010
0020
0000
3030
0000
,  // measure 51
1000
0001
1000
0000
0010
0001
0010
1000
,  // measure 52
0100
0010
0100
1000
0001
0100
0010
0000
,  // measure 53
1001
0000
0000
2002
0000
0000
3003
0000
,  // measure 54
0020
0000
0000
0100
0200
0000
0330
0000
,  // measure 55
0001
0010
0100
1000
0001
0100
0000
0001
,  // measure 56
0000
0001
0010
0100
1000
0010
0000
0100
,  // measure 57
0000
0100
0001
0010
0100
1000
0000
0001
,  // measure 58
0000
0001
0010
1000
0010
0001
1001
0000
,  // measure 59
1000
0010
0100
0001
1000
0100
0000
0010
,  // measure 60
0000
0010
0001
0100
0010
1000
0000
0100
,  // measure 61
0000
0100
1000
0010
0100
0001
0000
1000
,  // measure 62
0000
1000
0100
0001
0100
1000
1001
0000
,  // measure 63
0200
0000
0000
0000
,  // measure 64
0000
0300
0000
0000
;

//---------------dance-single - ----------------
#NOTEDATA:;
#CHARTNAME:;
#STEPSTYPE:dance-single;
#DESCRIPTION:;
#CHARTSTYLE:;
#DIFFICULTY:Easy;
#METER:5;
#RADARVALUES:0.205952,0.269792,0.108333,0.158333,0.000000,173.000000,160.000000,13.000000,19.000000,0.000000,0.000000,0.000000,0.000000,0.000000,0.205952,0.269792,0.108333,0.158333,0.000000,173.000000,160.000000,13.000000,19.000000,0.000000,0.000000,0.000000,0.000000,0.000000;
#CREDIT:;
#NOTES:
0000
0000
0000
0000
,
0000
0000
0000
0000
,
0000
0000
0000
0000
,
0000
0000
0000
0000
,
1001
0000
0001
0000
,
1000
0000
0010
0000
,
1000
0000
0100
0000
,
1000
0020
0000
0000
,
0000
0130
0001
0000
,
0010
0000
0001
0000
,
0100
0020
0000
0000
,
0000
1030
0000
0000
,
1001
0000
0010
0000
,
0100
0000
0010
0000
,
1000
0000
0010
0000
,
1000
0000
0001
0000
,
0010
0000
0001
0000
,
0100
0000
0010
0000
,
0100
0000
0010
0000
,
1001
0100
0010
0100
,
0110
0000
1000
0000
,
0001
0000
0010
0000
,
0001
0000
1000
0000
,
0100
0000
1000
0000
,
0010
0000
0100
0000
,
0010
0000
0100
0000
,
0001
0010
0100
1000
,
0010
0200
0000
0000
,
0000
0301
0001
1000
,
1000
0010
0010
0100
,
0100
0010
0010
1000
,
1000
0002
0000
0103
,
0000
0001
0010
0100
,
1000
0100
0010
0001
,
0100
0020
0000
2030
,
0000
3001
0000
0100
,
0000
0010
2000
0000
,
0000
3002
0000
0000
,
0000
2003
0000
0000
,
3010
0100
0010
0100
,
0010
1000
0001
1000
,
0000
0001
0010
0100
,
1000
0002
0000
2003
,
0000
3010
0100
0010
,
1000
0001
1000
0010
,
0100
0000
1001
0000
0000
1001
0000
0000
,
0000
0020
0000
0230
,
0000
0310
0010
0100
,
0100
0001
0010
0100
,
1000
0100
1000
0010
,
0100
0002
0000
0023
,
0000
0031
0010
0100
,
1000
0010
0100
0001
,
1000
0000
1001
0000
0000
1001
0000
0000
,
0000
0220
0000
0330
,
1001
0100
0010
0100
,
0000
0001
1000
0001
,
0000
1000
0100
1000
,
0000
0001
0010
0001
,
0100
1001
0010
0100
,
0000
0001
1000
0001
,
0000
1000
0010
1000
,
0000
0001
0100
0001
,
1001
0220
0000
0000
,
0000
0000
0000
0330
;

//---------------dance-single - ----------------
#NOTEDATA:;
#CHARTNAME:;
#STEPSTYPE:dance-single;
#DESCRIPTION:;
#CHARTSTYLE:;
#DIFFICULTY:Challenge;
#METER:13;
#RADARVALUES:0.602381,0.615729,0.325000,0.250000,0.337500,506.000000,467.000000,39.000000,30.000000,0.000000,0.000000,0.000000,0.000000,0.000000,0.602381,0.615729,0.325000,0.250000,0.337500,506.000000,467.000000,39.000000,30.000000,0.000000,0.000000,0.000000,0.000000,0.000000;
#CREDIT:;
#NOTES:
// measure 0
0000
0000
0000
0000
,  // measure 1
0000
0000
0000
0000
,  // measure 2
0002
0023
0230
2300
,  // measure 3
3001
0000
0001
0000
1000
0001
1000
0001
0010
0000
0100
0000
1001
0000
0000
0000
,  // measure 4
1100
0000
0100
0000
0100
0000
1000
0100
0010
0001
0000
0100
0000
0100
0010
0000
,  // measure 5
1000
0000
0010
0000
0100
0001
0000
0002
0000
0000
0000
0000
0003
0000
0100
0010
,  // measure 6
1000
0100
0001
0100
1000
0100
0010
0001
,  // measure 7
0200
0000
0000
0000
0301
0000
1000
0100
0020
0000
0000
0000
0130
0000
0000
0000
,  // measure 8
1001
0000
0001
0000
0001
0000
0100
0010
1000
0100
0000
0010
0000
0010
0100
0000
,  // measure 9
1000
0000
0100
0000
0010
0001
0000
0002
0000
0000
1003
0000
0100
0000
0010
0000
,  // measure 10
0002
1000
1003
1002
0000
0013
0100
1000
,  // measure 11
0001
0001
0100
0100
0001
0001
0100
0100
,  // measure 12
1001
0000
0001
0000
1000
0000
1000
0010
0100
0000
0100
0000
0000
0000
0010
0000
,  // measure 13
1000
0000
1000
0000
0001
0000
0001
0010
0100
0000
0100
0000
0000
0000
0010
0000
,  // measure 14
0001
0000
0001
0000
1000
0000
1000
0010
0100
0000
0100
0000
0000
0000
0010
0000
,  // measure 15
1000
0000
1000
0000
0001
0000
0001
0010
0100
0000
1001
0000
1001
0000
0000
0000
,  // measure 16
0001
0000
0001
0000
1000
0000
1000
0100
0010
0000
0010
0000
0000
0000
0100
0000
,  // measure 17
1000
0000
1000
0000
0001
0000
0001
0100
0010
0000
0010
0000
0000
0000
0100
0000
,  // measure 18
0001
0000
0001
0000
1000
0000
1000
0100
0010
0000
0010
0000
0000
0000
0100
0000
,  // measure 19
1000
0000
1000
0000
0001
0000
0001
0100
0010
0000
1001
0000
1001
0000
0000
0000
,  // measure 20
0001
0000
1000
0100
1000
0000
0001
0010
0001
0000
1001
0000
0000
0000
0001
0000
,  // measure 21
1000
0000
0100
0000
0010
0000
0001
1000
0001
0000
1001
0000
0000
0000
0000
0000
,  // measure 22
1000
0000
0100
0000
0010
0000
0001
0100
0001
0000
1000
0000
0020
0000
0200
0000
,  // measure 23
0000
0000
0330
2000
0002
0000
3003
0000
,  // measure 24
0001
0000
1000
0010
1000
0000
0001
0100
0001
0000
1001
0000
0000
0000
1000
0000
,  // measure 25
0001
0000
0010
0000
0100
0000
1000
0010
1000
0000
1001
0000
0000
0000
0000
0000
,  // measure 26
0001
0000
0010
0000
0100
0000
1000
0001
1000
0000
0001
0000
0100
0000
0010
0000
,  // measure 27
0100
0000
0100
0000
1000
0100
0010
0000
0001
0010
0001
0000
1000
0000
0000
0000
,  // measure 28
1001
1100
0011
1001
,  // measure 29
0001
0100
1000
0100
0001
0010
0100
1000
,  // measure 30
0001
0001
0100
0100
0010
1000
0100
0010
,  // measure 31
1002
0000
0000
0000
0000
0000
1003
0010
1000
0000
0001
0000
1000
0001
1000
0001
,  // measure 32
1000
1001
0101
1010
,  // measure 33
1000
0000
0100
0000
0001
0000
0100
0000
1000
0000
0001
0000
0010
0000
0100
0010
,  // measure 34
0200
0000
2300
0000
3001
0100
0010
0000
,  // measure 35
1002
0000
0000
0100
0000
0000
0103
0000
0020
0000
0000
1000
0000
0000
1030
0000
,  // measure 36
0002
1000
0100
0010
,  // measure 37
0100
1000
0100
0013
,  // measure 38
0001
0000
0100
0000
0010
0000
1000
0001
1000
0001
1000
0000
1001
0000
0000
0000
,  // measure 39
0011
0000
0010
0000
0010
0000
0001
0010
0100
1000
0000
0010
0000
0010
0100
0000
,  // measure 40
0010
0000
1000
0000
0001
0100
0000
0200
0000
0000
0000
0000
0310
0000
1000
0100
,  // measure 41
0010
0010
0001
0001
0100
0100
0010
1000
,  // measure 42
0200
0000
0000
0000
0000
0000
1300
0010
0100
0000
0010
0000
1000
0000
0000
0000
,  // measure 43
1010
0000
0010
0000
0010
0000
1000
0100
0010
0001
0000
0100
0000
0100
0010
0000
,  // measure 44
1000
0000
0100
0000
0010
0001
0000
0002
0000
0000
1003
0000
0100
0000
1000
0000
,  // measure 45
0002
1000
1003
1001
0000
0001
0100
0010
,  // measure 46
2000
0000
0000
0000
0000
0000
3100
0010
0100
0000
1000
0000
0001
0000
0000
0000
,  // measure 47
0101
0000
0100
0000
0100
0000
0001
0010
0100
1000
0000
0001
0000
0001
0100
0000
,  // measure 48
0010
0000
1000
0000
0100
0010
0000
0020
0000
0000
0000
0000
0031
0000
0100
0010
,  // measure 49
1000
0100
0001
0100
1000
0001
0010
0100
,  // measure 50
2000
0000
0000
0000
0000
0000
3001
0100
0010
0000
0100
0000
0001
0000
0000
0000
,  // measure 51
1001
0000
1000
0000
1000
0000
0100
0010
0001
1000
0000
0010
0000
0010
0100
0000
,  // measure 52
0001
0000
0010
0000
0100
1000
0000
2000
0000
0000
3001
0000
0100
0000
0010
0000
,  // measure 53
2000
0001
3001
1001
0000
1000
0100
0010
,  // measure 54
0001
0001
0100
0100
0001
0001
0100
0100
,  // measure 55
1001
0000
0001
0000
1000
0000
1000
0010
0100
0000
0100
0000
0000
0000
0001
0000
,  // measure 56
0100
0000
0100
0000
0010
0000
0010
1000
0100
0000
0100
0000
0000
0000
1000
0000
,  // measure 57
0001
0000
0001
0000
1000
0000
1000
0100
0010
0000
0010
0000
0000
0000
0100
0000
,  // measure 58
1000
0000
1000
0000
0001
0000
0001
0010
0100
0000
1001
0000
1001
0000
0000
0000
,  // measure 59
0001
0000
0010
0100
1000
0000
0100
0010
0001
0000
1001
0000
0000
0000
0100
0000
,  // measure 60
0010
0000
1000
0010
0100
0000
0010
0100
0001
0000
1001
0000
0000
0000
0010
0000
,  // measure 61
0100
0000
0001
0010
0100
0000
1000
0100
0010
0000
1001
0000
0000
0000
0010
0000
,  // measure 62
0100
1001
1001
0100
0010
1001
1001
0000
,  // measure 63
0200
0000
0000
0000
,  // measure 64
0000
0300
0000
0000
;

//---------------dance-single - ----------------
#NOTEDATA:;
#CHARTNAME:;
#STEPSTYPE:dance-single;
#DESCRIPTION:;
#CHARTSTYLE:;
#DIFFICULTY:Medium;
#METER:8;
#RADARVALUES:0.307143,0.376250,0.091667,0.141667,0.000000,258.000000,247.000000,11.000000,17.000000,0.000000,0.000000,0.000000,0.000000,0.000000,0.307143,0.376250,0.091667,0.141667,0.000000,258.000000,247.000000,11.000000,17.000000,0.000000,0.000000,0.000000,0.000000,0.000000;
#CREDIT:;
#NOTES:
0000
0000
0000
0000
,
0000
0000
0000
0000
,
0000
0000
0000
0000
,
0000
0000
0000
0000
,
0010
0000
0100
0000
0001
1000
0001
0000
,
1000
0010
0100
0001
,
1001
0000
1000
0000
0010
0000
0100
0010
,
2000
0000
3001
0000
,
0100
0000
0010
0000
1000
0001
1000
0000
,
0001
0000
0100
0000
0010
0000
1000
0001
,
2000
0000
0000
3002
0000
0000
0000
0000
,
0203
0000
0000
0000
,
0301
0000
0001
0000
0001
0000
0000
1000
,
0000
0000
0001
0000
1000
0000
0000
0010
,
0000
0000
0100
0000
0010
0000
0000
1000
,
0000
0000
0001
0000
1000
0001
1000
0000
,
0100
0000
0100
0000
0100
0000
0000
1000
,
0000
0000
0001
0000
0100
0000
0000
0010
,
0000
0000
1000
0000
0001
0000
0000
0010
,
0000
0001
1000
1001
,
0010
0100
0010
0000
1000
0000
0001
0000
,
1000
0000
0001
1000
0001
0000
0100
0000
,
0010
0000
1000
0010
1000
0000
0001
0000
,
0020
0000
0031
0000
,
0100
0000
1000
0001
1000
0001
0100
0000
,
0010
1000
0010
1000
0001
0000
1000
0000
,
0110
0001
0010
0100
,
2002
0000
0000
3003
,
1000
0001
1000
0000
0010
0100
0001
0000
,
0011
1100
0001
1000
,
0001
1000
0001
1000
0001
1000
0010
0000
,
0100
0010
1000
0001
,
1001
0000
0010
0000
0100
0001
1000
0000
,
0100
0000
0010
0000
0100
0000
1000
0001
,
1000
0000
0001
0000
0100
0010
0100
0000
,
0002
0000
2003
0000
,
3001
0100
1000
0100
,
0001
0010
0100
1000
,
0010
0000
0000
1001
,
0010
0000
0100
0000
0001
1000
0001
0000
,
0100
0000
0010
0000
1000
0010
1000
0000
,
0010
0000
0100
0000
0001
0100
0001
0000
,
0010
0000
0100
0000
1000
0001
1000
0000
,
0010
0000
0100
0000
0001
0100
0001
0000
,
1000
0000
0010
0000
0100
0010
1000
0001
,
2000
0000
0000
3020
0000
0000
0000
0000
,
0230
0000
0000
0300
,
0010
0100
0001
0000
1000
0000
0100
0000
,
0010
0100
1000
0000
0010
0000
0100
0000
,
0001
1000
0100
0000
0010
0100
0010
0100
,
0020
0000
0130
0000
,
0001
0100
0010
1000
,
0001
1000
0001
1000
0100
0000
0010
0000
,
0002
0000
0000
0203
0000
0000
0000
0000
,
0320
0000
0000
0030
,
0100
0000
0010
0000
1000
0001
1000
0000
,
0100
0000
0010
0000
0001
0010
0001
0000
,
0100
0000
0010
0000
1000
0100
1000
0000
,
0100
0000
0010
0000
0001
1000
0001
0000
,
1000
0000
1100
0000
0011
0000
0000
1001
,
0000
0001
0100
0001
0100
0001
0000
1000
,
0000
0100
1000
0100
1000
0100
0000
0010
,
0000
0001
0100
0001
0100
0001
1000
0000
,
0200
0000
0000
0000
,
0000
0000
0300
0000
;

//---------------dance-single - ----------------
#NOTEDATA:;
#CHARTNAME:;
#STEPSTYPE:dance-single;
#DESCRIPTION:;
#CHARTSTYLE:;
#DIFFICULTY:Beginner;
#METER:2;
#RADARVALUES:0.101190,0.183021,0.083333,0.000000,0.000000,85.000000,75.000000,10.000000,0.000000,0.000000,0.000000,0.000000,0.000000,0.000000,0.101190,0.183021,0.083333,0.000000,0.000000,85.000000,75.000000,10.000000,0.000000,0.000000,0.000000,0.000000,0.000000,0.000000;
#CREDIT:;
#NOTES:
0000
0000
0000
0000
,
0000
0000
0000
0000
,
0000
0000
0000
0000
,
0000
0000
0000
0000
,
1001
0000
0000
0000
,
1000
0000
0000
0000
,
0010
0000
0000
0000
,
0100
0000
0000
0000
,
0010
0000
0000
0000
,
1000
0000
0000
0000
,
1001
0000
0000
0000
,
0000
0000
0000
0000
,
0001
0000
0000
0000
,
0010
0000
0000
0000
,
0001
0000
0000
0000
,
0100
0000
0000
0000
,
0010
0000
0000
0000
,
1000
0000
0000
0000
,
0100
0000
0000
0000
,
1000
0000
0000
0000
,
1001
0000
0000
0000
,
0000
0000
0000
0000
,
0001
0000
0000
0000
,
0000
0000
0000
0000
,
1001
0000
0000
0000
,
0000
0000
0000
0000
,
1000
0000
0000
0000
,
0000
0000
0000
0000
,
0010
0000
0010
0000
,
0100
0000
0100
0000
,
0010
0000
0010
0000
,
0100
0000
0100
0000
,
0001
0000
0001
0000
,
1000
0000
1000
0000
,
0001
0000
0001
0000
,
1001
0000
0000
0000
,
1000
0000
0000
0000
,
0000
0000
0000
0000
,
0001
0000
0000
1001
,
1000
0000
0000
0000
,
0010
0000
0000
0000
,
0100
0000
0000
0000
,
0010
0000
0000
0000
,
1001
0000
0001
0000
,
1000
0000
0001
0000
,
1001
0000
0000
0000
,
0000
0000
0000
0000
,
0100
0000
0010
0000
,
0100
0000
0000
0000
,
0010
0000
0100
0000
,
0010
0000
0000
0000
,
1000
0000
0001
0000
,
1000
0000
0000
0000
,
1001
0000
0001
0000
,
1000
0000
0000
0000
,
0010
0000
0100
0000
,
0010
0000
1000
0000
,
0001
0000
1000
0000
,
0001
0000
0010
0000
,
0001
0000
1000
0000
,
0100
0000
1000
0000
,
0001
0000
1000
0000
,
0001
0000
1000
1001
;
