#TITLE:Rock to Infinity;
#SUBTITLE:;
#ARTIST:千本松 仁;
#TITLETRANSLIT:;
#SUBTITLETRANSLIT:;
#ARTISTTRANSLIT:JIN SENBONMATSU;
#CREDIT:DigiMindAxel;
#BANNER:Rock to Infinity.png;
#BACKGROUND:Rock to Infinity-bg.png;
#LYRICSPATH:;
#CDTITLE:GUITARFREAKS & drummania.png;
#MUSIC:Rock to Infinity.ogg;
#METERTYPE:DDR X;
#OFFSET:-0.347;
#SAMPLESTART:40.841;
#SAMPLELENGTH:12.000;
#SELECTABLE:YES;
#BPMS:0.000=154.000;
#STOPS:;
#BGCHANGES:-1.000=Rock to Infinity.avi=1.000=1=1=0,
99999=-nosongbg-=1.000=0=0=0 // don't automatically add -songbackground-
;

//---------------dance-single - ----------------
#NOTES:
     dance-single:
     :
     Easy:
     6:
     0.268,0.304,0.132,0.189,0.004:
0000
0000
0000
0000
,
0000
0000
0000
0000
,
0000
0000
0000
0000
,
0000
0000
0000
0000
,
2002
0000
0000
3003
,
0001
1000
0001
1000
,
0010
1000
0010
1000
,
0100
0010
0100
0010
,
0001
0001
0001
0000
,
0020
0000
0230
0000
,
0320
0000
0030
0000
,
0001
0000
1000
0000
,
0100
1000
0100
0010
,
0001
0000
0100
0000
,
0010
0100
0010
0100
,
0001
0010
0100
1000
,
0001
0010
0100
1000
,
0001
0001
1000
1000
,
0200
0000
0000
0000
,
1300
0000
0000
1001
,
0000
0000
0001
0000
,
0000
1001
0000
0000
,
2000
0000
0000
3002
,
0000
0000
0203
0000
,
0000
0320
0000
0130
,
0100
0110
0000
0000
,
0001
1000
0100
1000
,
0001
1000
0100
1000
,
0010
0100
0010
1000
,
0010
0100
0010
0000
,
1000
0001
1000
0100
,
1000
0001
1000
0100
,
1000
0010
0100
0010
,
1000
1000
1000
0000
,
0001
0010
0100
1000
,
0001
0010
0100
1000
,
0001
0100
0010
1000
,
0001
0100
0010
1000
,
0002
0000
2003
0000
,
3200
0000
0310
0000
,
0001
0100
0010
1000
,
0001
0010
0100
1000
,
0002
0000
0203
0000
,
0310
0010
0110
0000
,
1000
0100
0010
0001
,
1000
0010
0100
0001
,
2000
0000
0000
3001
,
0000
0000
0000
0000
,
1000
0000
1001
0000
,
0001
0100
0001
0100
,
0010
0000
0110
0000
,
1000
0100
1000
0100
,
0010
0000
0001
0000
,
0100
0000
0010
0100
,
0001
0000
0010
0000
,
0200
0000
0000
0000
,
1300
0001
1000
0001
,
0010
0001
0010
0001
,
0200
0000
0000
0310
,
1000
0010
0100
0000
,
0001
0010
0100
0010
,
0001
1000
0010
0100
,
0001
0010
0100
0010
,
0001
0001
0001
0000
,
1001
0000
0110
0000
,
1001
0000
0110
0000
,
1001
0000
0110
0000
,
1001
0000
1001
0000
,
0002
0000
0203
0000
,
0320
0000
0000
0000
0000
0000
1030
0000
0000
0000
2002
0000
,
0000
0000
0000
0000
,
0000
0000
0000
0000
,
0000
0000
0000
0000
,
0000
0000
0000
0000
,
3003
0000
0000
0000
;

//---------------dance-single - ----------------
#NOTES:
     dance-single:
     :
     Medium:
     11:
     0.529,0.609,0.148,0.255,0.115:
0000
0000
0000
0000
,
0000
0000
0000
0000
,
0000
0000
0000
0000
,
0000
0000
0000
0000
,
1000
0000
0001
0000
1000
0000
0001
0000
1000
0000
0001
0000
,
1000
0100
1000
0000
0001
0010
0001
0000
,
0100
0010
0100
0000
0001
0100
0001
0000
,
1000
0010
1000
0000
0001
0010
0001
0000
,
0110
1000
0110
0001
,
1000
0000
1000
0001
0000
0001
0100
0000
0100
0010
0000
0010
,
2000
0000
0000
0000
0001
0001
0001
3001
,
1000
0010
1000
0010
0100
0000
0001
1000
,
0001
0010
0001
0010
0100
0000
1000
0001
,
1000
0100
1000
0100
0010
0001
0010
0001
,
1000
0010
1000
0010
0100
0001
1000
0100
,
0020
0001
0031
0200
0010
0310
2000
0100
,
3100
0020
0001
0031
0200
0010
0310
0000
,
1000
0010
0001
0010
1000
0100
0001
0100
,
2000
0000
0000
0000
3001
1000
0010
1000
,
0001
0000
0000
0001
0010
0001
1000
0000
,
0000
1000
0100
1000
0001
0000
0000
0001
,
0010
0001
1000
0000
0000
1000
0100
1000
,
0001
1001
0110
1001
,
1000
0010
0100
0100
0001
0000
1000
0100
,
0010
0000
0000
0010
0000
0000
0200
0000
0000
0000
0000
0000
0000
0000
0000
0000
0000
0000
1300
0000
0000
0000
1000
0000
,
0001
0000
0001
2000
0000
0000
0000
0000
0000
0000
0000
0000
,
3010
0100
0010
0100
0001
0010
0100
0010
,
0002
0100
0100
0103
,
0010
1000
0010
1000
0001
0010
0100
0010
,
0002
0000
0000
0000
0100
0000
0000
0000
0103
0000
0000
0100
0000
0000
0100
0000
,
0001
1000
0001
1000
0100
0010
0001
1000
,
0020
0100
0100
0130
,
0001
0010
0100
0010
0001
1000
0010
1000
,
0001
0001
0001
0001
0100
0000
0000
0000
,
0001
0010
0100
1000
0001
0010
0100
1000
,
0010
1010
0110
0101
,
0001
0100
0010
1000
0001
0100
0010
1000
,
0001
1001
1100
0011
,
0001
0000
0001
1000
0000
0000
0100
0000
0100
1000
0000
0000
,
0010
0000
0000
0010
0100
0010
0100
0000
0000
0000
0000
0000
,
0001
0010
0100
1000
0001
0010
0100
1000
,
0001
1001
1010
0101
,
0010
0000
0010
0100
0000
0100
0001
0000
0001
1000
0000
1000
,
0100
1100
1001
0000
,
1000
0010
0100
0001
1000
0010
0100
0001
,
1000
0100
0010
0001
1000
0100
0010
0001
,
0200
0000
0001
0302
0000
1000
2003
0000
,
0000
0000
0000
0000
0000
3000
0000
0000
,
0001
0100
0001
0100
0010
1000
0000
0002
,
0000
1003
0010
0100
0010
0100
0010
1000
,
0000
0001
0010
0100
0010
0001
0000
2000
,
0000
3001
1000
0100
1000
0001
1000
0100
,
0000
1000
0001
1000
0001
0100
0001
0100
,
0010
1000
0010
1000
0002
0000
0023
0000
,
0130
1000
0001
1000
0001
0100
0001
0100
,
0001
2000
0000
0000
3001
0000
0000
0000
,
1000
0100
0010
0100
1000
0001
0100
0001
,
1000
0100
0010
0100
1000
0001
0100
0001
,
2000
0000
0000
3001
,
0100
0000
0000
0000
0010
0000
0000
0000
1000
0000
0000
1000
0000
0000
1000
0000
,
0001
0010
0100
0010
0001
1000
0000
0010
,
0100
0001
1000
0100
0001
0100
1000
0001
,
0100
0010
0100
0001
1000
0010
0001
0010
,
1000
1000
1000
1000
0010
0000
0000
0000
,
1002
0000
0103
0001
2000
0000
3100
0010
,
0002
0000
0103
0010
2000
0000
3100
0010
,
0002
0000
1003
0010
0200
0000
0301
1000
,
0020
0000
0130
0001
2000
0000
3100
0010
,
0001
0000
0001
0000
0001
0000
1000
0000
1000
0000
1000
0000
,
0010
0000
0010
0000
0010
0000
0100
0000
0001
0000
0220
0000
,
0000
0000
0000
0000
,
0000
0000
0000
0000
,
0000
0000
0000
0000
,
0000
0000
0000
0000
,
0330
0000
0000
0000
;

//---------------dance-single - ----------------
#NOTES:
     dance-single:
     :
     Hard:
     15:
     0.770,0.944,0.181,0.239,0.757: // measure 1
0000
0000
0000
0000
,  // measure 2
0000
0000
0000
0000
,  // measure 3
0000
0000
0000
0000
,  // measure 4
0000
0000
0000
0000
,  // measure 5
1100
0000
0100
0000
0110
0000
0010
0000
0011
0000
0001
0000
,  // measure 6
1001
0000
0001
0100
0001
0000
1000
0000
0100
0000
0010
0000
0001
0000
0100
0000
,  // measure 7
0001
0000
1000
0100
1000
0000
0001
0000
0010
0000
0100
0000
0010
0000
0001
0000
,  // measure 8
0100
0000
0010
0100
0010
0000
0100
0000
0001
0000
1000
0000
0100
0000
0010
0000
,  // measure 9
0101
0000
0000
0000
0110
0000
0000
0010
1000
0000
0001
0000
1001
0000
0000
0000
,  // measure 10
1000
0100
1000
0001
0100
1000
0100
0001
1000
0001
0010
0001
,  // measure 11
2000
0000
0000
0000
0010
0010
0010
3010
,  // measure 12
0100
0001
0010
1000
0010
0001
0010
0100
,  // measure 13
1000
0001
0100
1000
0100
0001
0010
0200
,  // measure 14
1000
1300
0002
0010
0013
0200
1000
1300
,  // measure 15
0020
0000
0100
0000
0130
0000
0001
0000
1000
0001
1000
0001
1000
0001
1000
0000
,  // measure 16
0001
0100
0001
0000
1000
0000
0010
0100
0010
0000
1000
0000
0001
0100
0001
0000
,  // measure 17
1000
0000
0010
0100
0010
0000
1000
0000
0001
0010
0001
0000
1000
0000
0100
0010
,  // measure 18
0100
0010
0100
0000
1000
0010
1000
0000
0001
0100
0001
0000
1000
0010
1000
0000
,  // measure 19
0001
0000
0010
0000
0100
0000
1000
0000
0001
1000
0001
1000
0001
1000
0001
0000
,  // measure 20
0100
0000
0000
0100
0000
0000
0100
0000
0001
0000
0010
0000
0100
0000
0000
0100
,  // measure 21
0000
0000
0100
0000
1000
0000
0010
0000
0100
0000
0000
0100
0000
0000
0100
0000
,  // measure 22
0001
0000
0010
0000
0100
0000
0000
0100
0000
0000
0100
0000
1000
0000
0010
0000
,  // measure 23
0100
0000
0000
0000
0001
0000
0000
0000
0100
0000
0000
0000
0002
0000
0000
0000
0000
0000
0000
0000
0000
0000
0000
0000
1003
0000
0000
0000
0100
0000
0000
0000
0010
0000
0000
0000
0001
0000
0000
0000
0000
0000
0000
0000
0000
1000
0000
0000
,  // measure 24
0010
0000
0000
1000
0000
0000
0001
0000
0000
0010
0000
0000
0100
0000
1000
0000
0100
0000
1000
0000
0010
0000
0100
0000
,  // measure 25
0001
0100
0001
0020
0000
0000
0000
0000
0000
0031
0010
0100
,  // measure 26
1000
0001
0100
0020
0000
0000
0000
0000
0000
0000
0000
0000
,  // measure 27
1030
0001
0100
1000
0100
0010
1000
0010
,  // measure 28
1000
0001
0010
0001
1000
0001
0010
0001
,  // measure 29
1000
0010
0001
0010
0100
0001
1000
0001
,  // measure 30
0100
0000
0010
0000
0100
0000
0001
0000
1000
0001
0000
1000
0001
0000
1000
0000
,  // measure 31
0100
0000
0010
0000
0001
0100
0001
0000
1000
0010
1000
0000
0100
0000
0010
0000
,  // measure 32
0001
0000
1000
0000
0100
1000
0100
0000
0010
0001
0010
0000
0001
0000
1001
0000
,  // measure 33
0010
0000
0100
0000
0010
1000
0010
0000
0100
0001
0100
0000
0001
0000
0010
0000
,  // measure 34
1001
1000
1000
1000
1001
0000
0011
0000
,  // measure 35
0100
1000
0100
0000
0010
0100
0010
0000
0001
0010
0001
0000
1000
0001
1000
0000
,  // measure 36
0001
0100
0001
0000
0100
0010
0100
0000
0010
1000
0010
0000
1000
0001
1000
0000
,  // measure 37
0100
1000
0100
0000
0010
0100
0010
0000
0001
0010
0001
0000
1000
0001
1000
0000
,  // measure 38
0010
1000
0010
0000
0100
0010
0100
0000
0001
0100
0001
0000
1000
0001
1000
0000
,  // measure 39
0100
1000
0100
1000
0010
0100
0001
0010
0001
0010
0100
1000
,  // measure 40
0001
0000
0000
0100
0010
1000
0002
0000
0000
0000
0000
0000
,  // measure 41
0103
0010
0100
0000
0001
0010
0001
0000
1000
0100
1000
0000
0010
0100
0010
0000
,  // measure 42
1000
0010
1000
0000
0001
1000
0001
0000
0100
0001
0100
0000
0001
1000
0001
0000
,  // measure 43
0010
0001
0010
0001
0100
0010
1000
0010
0100
0010
1000
0010
,  // measure 44
1000
0100
0010
0001
1000
0100
0020
0000
0000
0000
0000
0000
,  // measure 45
0031
1000
0001
1000
0001
1000
0001
1000
0010
1000
0010
1000
0010
1000
0010
0000
,  // measure 46
1000
0001
1000
0001
1000
0001
1000
0001
0010
0001
0010
0001
0010
0001
0010
0000
,  // measure 47
0100
0000
1000
0010
0100
0000
0010
0000
0100
0001
0010
0000
2002
0000
0000
0000
,  // measure 48
0000
0000
0000
0000
0000
3003
0000
0000
,  // measure 49
0001
0010
0001
0010
0001
0010
0001
0000
0100
0000
0010
0000
0000
0000
2001
0000
,  // measure 50
0000
3001
0100
1000
0100
0001
0010
0200
,  // measure 51
0000
0000
1300
0010
1000
0010
1000
0000
0010
0000
0100
0000
0000
0000
1002
0000
,  // measure 52
0000
1003
0010
0001
0010
1000
0001
1001
,  // measure 53
0000
1000
0100
0010
0100
1000
0010
0100
,  // measure 54
0001
0010
1000
0010
0001
0100
0010
1000
,  // measure 55
0001
0010
0100
0010
0001
1000
0100
0010
,  // measure 56
0001
0100
0001
0100
0001
0100
0001
0100
0002
0000
0000
0000
0000
0000
0000
0000
,  // measure 57
1003
0000
0001
0010
0001
0000
1000
0000
0010
0100
0010
0100
0001
0010
0100
0000
,  // measure 58
1000
0001
1000
0000
0010
0000
0100
0000
0001
1000
0001
1000
0001
0100
0010
0000
,  // measure 59
2000
0000
0000
0000
0010
0000
0000
0000
3010
0000
0000
1000
0000
0000
0100
0000
,  // measure 60
0020
0000
0000
0000
0001
0000
0000
0000
0031
1000
0000
0001
1000
0000
1000
0000
,  // measure 61
0100
1000
0100
1000
0100
1000
0010
0100
0010
0000
0100
0000
0001
0000
2000
0000
,  // measure 62
0000
0000
3001
0100
0001
0100
0010
0100
0010
0000
1000
0000
0001
0000
1001
0000
,  // measure 63
1000
0010
1000
0010
0100
0001
0010
0000
0100
1000
0100
1000
0010
0100
0001
0000
,  // measure 64
1001
1000
1000
1000
1001
0000
0000
0000
,  // measure 65
0021
0000
0000
0000
0031
0010
0100
1000
0002
0000
0000
0000
1003
0100
0010
0001
,  // measure 66
2000
0000
0000
0000
3010
0100
0001
1000
0200
0000
0000
0000
1300
0001
0010
0100
,  // measure 67
2000
0000
0000
0000
3010
0100
0001
0010
0200
0000
0000
0000
0310
0001
1000
0100
,  // measure 68
0020
0000
0000
0000
0130
1000
0001
0010
0200
0000
0000
0000
1300
0010
0100
0001
,  // measure 69
0010
0100
0010
0100
0010
0100
1000
0010
1000
0010
1000
0010
,  // measure 70
1000
0001
1000
0001
1000
0001
0011
0000
1100
0000
2002
0000
,  // measure 71
0000
0000
0000
0000
,  // measure 72
0000
0000
0000
0000
,  // measure 73
0000
0000
0000
0000
,  // measure 74
0000
0000
0000
0000
,  // measure 75
3003
0000
0000
0000
;

//---------------dance-single - ----------------
#NOTES:
     dance-single:
     :
     Challenge:
     18:
     0.970,1.000,0.485,0.156,1.000:
0000
0000
0000
0000
,
0000
0000
0000
0000
,
0000
0000
0000
0000
,
0000
0000
0000
0000
,
0011
0000
0110
0000
1100
0000
0011
0000
0110
0000
1100
0000
,
1000
0001
0010
0001
0010
0000
0100
1000
0100
1000
0001
0000
0011
0000
0100
0000
,
1000
0010
0100
0010
1000
0000
0001
0100
0010
0100
0001
0000
0101
0000
0010
0000
,
0100
1000
0100
1000
0001
0000
0010
0001
0010
0001
1000
0000
1010
0000
0100
0000
,
0011
0000
0100
0000
1001
0000
0010
0100
1000
0100
1000
0000
0010
0100
0001
0000
,
1000
0010
0001
0010
0100
0001
1000
0100
0001
0100
0010
0001
,
1000
0001
1000
0001
1000
0001
1000
0000
1001
0000
1001
0000
1001
0000
1001
0000
,
0001
0100
0010
0000
0100
0000
0001
0010
0100
0000
0010
0000
0001
1000
0010
0000
,
1000
0000
0100
0010
0001
0000
0100
0000
0010
1000
0100
0000
1000
0000
0010
0000
,
1000
0100
0001
0000
0100
0000
1000
0010
0001
0000
0010
0000
1000
0100
0010
0000
,
0001
0100
1000
0000
0100
0000
0001
0000
1000
0100
1000
0100
0010
0001
0010
0000
,
0001
0100
0010
0100
0001
0100
0010
1000
0100
0010
0100
1000
0010
0001
0010
1000
,
0100
0010
0001
0010
0100
1000
0001
0100
0010
0100
0001
1000
0100
0010
0001
0100
,
1000
0100
0001
0010
1000
0010
0001
1000
0010
0001
0010
1000
0100
0001
0100
1000
,
0100
0010
0100
0010
0100
0010
0100
0010
0001
0100
0001
0100
0010
1000
0010
0000
,
1001
0000
1000
0001
0000
1000
0001
0000
0011
0000
0100
0000
1000
0000
0001
1000
,
0000
0001
1000
0000
1100
0000
0010
0000
0001
0000
0100
0010
0000
0100
0010
0000
,
1001
0000
0000
0000
0000
0000
1001
0000
0000
0000
0000
0000
0011
0000
0000
0000
0000
0000
0100
0000
0000
1000
0000
0000
0000
0000
0000
0100
0000
0000
1000
0000
0000
0000
0000
0000
0100
0000
0000
0000
0010
0000
0000
0000
0001
0000
0000
0000
,
1000
0000
0000
0000
0010
0000
0000
0000
0100
0000
0000
0000
0010
0000
0000
0000
1000
0000
0000
0000
0010
0000
0000
0000
0100
0000
0000
0000
0100
0000
0000
0000
0100
0000
0000
0000
0001
0000
0000
0000
0000
0000
1000
0000
0000
0100
0000
0000
,
0010
0000
0000
0001
0000
0000
0110
0000
0000
0110
0000
0000
1000
0000
0100
0000
0001
0000
0100
0000
1000
0000
0001
0000
,
0010
0000
0000
0000
1000
0000
0000
0000
0010
0000
0000
0000
0001
0000
0000
1000
0000
0000
0001
0000
0000
1000
0000
0000
0001
0000
0000
1000
0000
0000
0001
0000
0000
1000
0000
0000
0001
0000
0000
0000
0100
0000
0000
0000
1000
0000
0000
0000
,
0100
0000
0000
0000
0010
0000
0000
0000
1000
0000
0000
0000
1002
0000
0000
0000
0000
0000
0000
0000
0000
0000
0000
0000
1003
0000
0000
0010
0000
0000
1000
0000
0000
0010
0000
0000
0100
0000
0000
0001
0000
0000
0100
0000
0000
0001
0000
0000
,
1000
0000
0100
0000
1000
0000
0001
0100
0010
0000
1000
0000
0100
0000
1000
0000
,
0020
0000
0100
0000
0130
0000
0001
0010
0200
0000
1000
0000
1300
0000
0001
1000
,
0001
0000
0010
0000
0001
0000
1000
0010
0100
0000
0001
0000
0100
0000
0001
0000
,
1000
0000
0100
0000
1000
0000
0010
0100
0001
0010
0000
0100
1000
0000
1000
0000
,
0001
0000
0100
0000
0010
1000
0100
0000
0100
1000
0010
0000
1001
0000
0100
0000
,
0010
0000
0001
0000
1000
0001
0010
0000
0010
0001
1000
0000
0110
0000
0110
0000
,
1001
0000
0010
0000
0100
0010
0001
0000
0001
0010
0100
0000
1010
0000
0100
0000
,
0011
0000
0011
0000
0011
0000
0011
0000
0010
0001
1000
0000
0100
0010
0001
0000
,
1000
0010
1000
0010
0100
0001
0100
0001
1000
0100
1000
0100
0010
0001
0010
0001
,
0100
0010
1000
0010
0100
0010
1000
0001
0010
0100
0010
0001
0100
0010
0100
0000
,
0001
0100
0001
0100
0010
1000
0010
1000
0001
0010
0001
0010
0100
1000
0100
1000
,
0001
0100
0010
0100
0001
1000
0100
0010
0100
1000
0010
0100
0001
0010
0100
0000
,
1000
0100
0001
0100
1000
0001
1000
0100
0001
1000
0010
0001
,
1000
0000
0000
0010
0100
0001
1000
1000
0001
0001
1000
1000
,
0001
0010
0001
0010
0100
1000
0100
1000
0010
0100
0010
0100
0001
1000
0001
1000
,
0001
0100
0010
0100
0001
0100
0010
1000
0100
0010
0100
1000
0001
0100
0010
0000
,
1000
0010
0001
0010
1000
0001
1000
0100
0001
1000
0010
0001
,
1001
0100
0010
1001
0010
0100
2001
0000
0000
0000
0000
0000
,
3001
0100
0001
0100
1000
0100
1000
0100
0001
0010
0001
0010
1000
0010
1000
0010
,
0001
0100
1000
0100
0001
0100
1000
0100
0001
0010
1000
0010
0001
0010
1000
0010
,
0002
0000
0013
0100
1000
0000
0002
0000
0103
0010
1000
0000
2002
0000
0000
0000
,
0000
0000
0000
0000
0000
3003
0000
0000
,
0001
1000
0100
1000
0001
1000
0100
0000
1100
0000
1001
0000
0000
0000
0020
1000
,
0000
1030
1000
0100
0100
0010
0010
0002
,
0000
0000
1003
0010
0100
0010
1000
0000
1010
0000
1001
0000
0000
0000
0020
0001
,
0000
0000
0031
0000
0001
0000
0100
0000
0100
0000
0010
1000
0010
0000
1001
0000
,
0010
0100
1000
0100
0001
0100
1000
0010
,
0001
0010
1000
0100
1000
1000
0001
0001
,
1000
0010
0001
0010
1000
0100
0001
0100
,
1000
0001
1000
0001
0010
0001
0010
0001
2000
0000
0000
0000
3002
0000
0000
0000
,
0103
0001
1000
0001
0100
0001
1000
0100
0001
0100
1000
0001
0100
1000
0100
0001
,
1000
0100
0001
0100
1000
0010
0100
0001
1000
0100
0001
0100
1000
0010
0100
0001
,
2000
0000
0000
0000
0001
0000
0000
0000
3002
0000
0000
0103
0010
0000
1000
0000
,
2000
0000
0000
0000
0001
0000
0000
0000
3001
0010
0000
0100
1000
0000
1000
0000
,
0001
0100
1000
0100
0001
0010
0100
0010
0001
0000
0010
0001
1000
0000
0020
0000
,
0000
0000
0130
0001
0010
0001
0100
0010
1000
0000
0100
0000
1001
0000
1001
0000
,
0001
0100
1000
0100
0001
0010
0100
1000
0001
0010
1000
0010
0001
1000
0100
0000
,
1001
0000
1001
0000
1001
0000
1001
0000
1000
0010
0000
0100
0001
0000
0001
0000
,
1100
0000
1000
0000
0100
0010
0001
1000
0010
0000
1010
0000
0100
0001
0010
0100
,
1000
0000
1100
0000
0010
0001
1000
0010
0100
0000
0101
0000
0010
1000
0100
0010
,
0001
0000
0011
0000
0100
1000
0010
0100
0001
0000
0101
0000
1000
0100
0001
0100
,
1000
0000
0100
0010
0001
0010
1000
0010
0001
0000
0010
0100
1000
0001
0100
0010
,
1000
0100
1000
0001
0010
0001
1001
0100
0010
0001
0100
0001
,
1100
0010
0001
0100
0010
1000
1001
0010
0011
0100
2200
0000
,
0000
0000
0000
0000
,
0000
0000
0000
0000
,
0000
0000
0000
0000
,
0000
0000
0000
0000
,
3300
0000
0000
0000
;

//---------------dance-single - ----------------
#NOTES:
     dance-single:
     :
     Beginner:
     4:
     0.129,0.287,0.132,0.000,0.004:
0000
0000
0000
0000
,
0000
0000
0000
0000
,
0000
0000
0000
0000
,
0000
0000
0000
0000
,
1001
0000
0000
0000
,
0001
0000
0001
0000
,
0001
0000
0001
0000
,
0001
0000
0001
0000
,
0001
0000
0000
0000
,
0100
0000
0010
0000
,
1000
0000
0000
0000
,
0100
0000
0000
0000
,
0010
0000
0000
0000
,
0001
0000
0000
0000
,
0100
0000
0000
0000
,
0010
0000
0010
0000
,
0010
0000
0010
0000
,
0100
0000
0100
0000
,
0100
0000
0000
0000
,
1001
0000
0000
1001
,
0000
0000
1001
0000
,
0000
1001
0000
0000
,
0000
0000
0000
0110
,
0000
0000
0110
0000
,
0000
0110
0000
0000
,
0000
0000
0000
0000
,
0010
0000
0100
0000
,
0010
0000
0000
0000
,
1000
0000
0010
0000
,
1000
0000
0000
0000
,
0001
0000
0100
0000
,
0001
0000
0000
0000
,
1000
0000
0001
0000
,
1000
0000
0000
0000
,
0001
0000
0001
0000
,
1000
0000
1000
0000
,
0100
0000
0100
0000
,
0010
0000
0010
0000
,
0001
0000
0000
0000
,
0100
0000
0000
0000
,
0010
0000
0010
0000
,
0100
0000
0100
0000
,
0010
0000
0000
0000
,
1000
0000
0000
0000
,
0001
0000
0001
0000
,
1000
0000
1000
0000
,
0100
0000
0000
0000
,
0000
0000
0000
0000
,
1000
0000
0000
0000
,
0000
0000
0000
0000
,
0010
0000
0000
0000
,
0000
0000
0000
0000
,
0100
0000
0000
0000
,
0001
0000
0000
0000
,
0100
0000
0000
0000
,
0010
0000
0000
0000
,
1000
0000
0001
0000
,
1000
0000
0001
0000
,
0010
0000
0000
0000
,
0100
0000
0000
0000
,
1000
0000
0010
0000
,
0100
0000
0001
0000
,
1000
0000
0010
0000
,
0100
0000
0000
0000
,
1001
0000
1001
0000
,
1001
0000
1001
0000
,
0110
0000
0110
0000
,
0110
0000
0110
0000
,
0001
0000
0100
0000
,
0010
0000
0000
0000
0000
0000
1000
0000
0000
0000
0001
0000
;
