#TITLE:Red Rocket Rising;
#SUBTITLE:;
#ARTIST:BeForU;
#TITLETRANSLIT:;
#SUBTITLETRANSLIT:;
#ARTISTTRANSLIT:;
#CREDIT:DigiMindAxel;
#BANNER:Red Rocket Rising.png;
#BACKGROUND:Red Rocket Rising-bg.png;
#LYRICSPATH:Red Rocket Rising.lrc;
#CDTITLE:DigiMindAxel original simfile.png;
#MUSIC:Red Rocket Rising.ogg;
#METERTYPE:DDR X;
#OFFSET:-1.196;
#SAMPLESTART:34.430;
#SAMPLELENGTH:12.000;
#SELECTABLE:YES;
#BPMS:0.000=155.000,170.000=77.500,186.000=155.000;
#STOPS:;
#BGCHANGES:-2.000=Red Rocket Rising.avi=1.000=1=1=0,
99999=-nosongbg-=1.000=0=0=0 // don't automatically add -songbackground-
;

//---------------dance-single - ----------------
#NOTES:
     dance-single:
     :
     Easy:
     5:
     0.221,0.285,0.073,0.065,0.000:
0000
0000
0000
0000
,
0000
0000
0000
0000
,
2000
0000
3002
0000
,
2003
0000
0000
0000
,
3001
0000
0001
0000
,
0001
0000
1000
0000
,
0100
0000
0100
0000
,
1000
0000
1000
0000
,
0001
0000
1000
0000
,
0001
0000
0100
0000
,
0010
0000
1000
0000
,
0100
0000
0000
0000
,
1000
0000
0001
0000
,
1000
0000
0001
0000
,
0010
0000
0001
0000
,
0100
0000
0001
0000
,
1000
0000
1000
0000
,
0001
0000
0001
0000
,
0100
0000
0010
0000
,
1000
0001
1000
0001
,
0200
0000
0000
0000
,
0310
0000
0000
0000
,
1000
0100
1000
1000
,
0001
0010
0001
0000
,
1000
0001
1000
1000
,
0001
1000
0001
0100
,
0100
0000
0010
0000
,
0100
0010
1000
0100
,
1000
1000
0001
0010
,
0001
0000
1000
0001
,
1000
1000
0010
0010
,
0100
0001
0010
0000
,
0001
0001
0100
0100
,
0010
1000
0100
1000
,
1001
0000
0010
0000
,
0100
0001
0010
0001
,
1000
0000
0001
0000
,
1000
0000
0000
0000
,
0000
0001
0000
1000
,
0000
0001
0000
1000
,
0010
0000
0100
0000
,
0010
0000
0000
0000
,
0000
0000
1001
0000
,
0100
0000
0010
0000
,
0100
0000
0001
0000
,
1001
0000
1000
0000
,
1001
0000
0002
0000
,
0000
0000
2003
0000
,
0000
0000
3001
0001
,
0010
0010
0100
0100
,
1000
1000
0100
0100
,
0010
0010
0001
0001
,
0000
0000
1000
0001
,
1000
0000
0010
0100
,
0010
1000
0100
1000
,
0001
0010
0001
0000
,
0000
0000
1000
1000
,
0100
0100
0010
0010
,
0001
0000
0001
0001
,
0010
0010
0100
0100
,
1000
0000
0100
0000
,
1000
0000
0100
1000
,
0100
0010
0001
0010
,
0001
0010
0001
0000
,
0000
1000
1001
0000
,
0010
0100
0010
0000
,
0100
0010
0100
0000
,
0001
1000
1001
0000
,
0010
0000
1001
0000
,
1001
0000
0000
2002
0000
0000
0000
0000
,
3003
0000
0000
0000
;

//---------------dance-single - ----------------
#NOTES:
     dance-single:
     :
     Hard:
     12:
     0.543,0.599,0.277,0.049,0.371:
0000
0000
0000
0000
,
0000
0000
0000
0000
,
0001
0010
0100
1000
0100
1000
0010
0100
,
0011
0000
0000
0011
0000
0000
0001
0000
0100
0010
0000
0010
0000
0000
1000
0000
,
0100
0000
0010
0000
0001
0000
0010
0000
0001
0000
0000
0001
0000
0000
0010
0000
,
0100
0000
0000
0100
0000
0000
1000
0000
0010
0000
0000
0000
0100
0000
0000
0000
,
0001
0000
0010
0000
0100
0000
1000
0000
0100
0000
0000
0100
0000
0000
1000
0000
,
0001
0000
0000
0001
0000
0000
0010
0000
0100
0000
0000
0000
1000
0000
0000
0000
,
0100
0000
0010
0000
0001
0000
0100
0000
0010
0000
0000
0010
0000
0000
0100
0000
,
0001
0000
0000
0001
0000
0000
1000
0000
0100
0000
0000
0000
0010
0000
0000
0000
,
0011
0000
0000
0000
0011
0000
0000
0000
1100
0000
0000
0100
0000
0000
0100
0000
,
1000
0000
0100
0000
0010
0000
0001
0000
0100
0010
0000
0100
0000
0010
1000
0000
,
1001
0000
1001
0000
1000
0100
0010
0001
,
0100
0000
0000
0100
0000
0000
0010
0000
0100
0000
0000
0000
0001
0000
0000
0000
,
1001
0000
1001
0000
0001
0010
0100
1000
,
0010
0000
0000
0010
0000
0000
0100
0000
0001
0000
0000
0000
1000
0000
0000
0000
,
0001
0010
1000
0010
0001
0000
1001
0000
,
1000
0100
0001
0100
1000
0000
1001
0000
,
1000
0100
1000
0010
1000
0100
0010
0001
,
1000
0000
0000
0100
0000
0000
0010
0000
0001
0000
0000
0010
0000
0000
0100
0000
,
1000
0000
0010
0000
0100
0000
1000
0000
0100
0000
0000
0010
0000
0000
1000
0000
,
0001
0100
0001
0000
1000
0100
0001
0100
,
1000
0000
0000
0010
0000
0000
0100
0000
0001
0000
0000
0010
0000
0000
0001
0000
,
1000
0000
0000
0100
0000
0000
0010
0000
0001
0000
0000
0000
1001
0000
0000
0000
,
1000
0000
0000
0100
0000
0000
0010
0000
0001
0000
0000
0100
0000
0000
0010
0000
,
1000
0000
0000
0100
0000
0000
1000
0000
0010
0000
0000
0000
1001
0000
0000
0000
,
0001
0010
1000
0010
0001
0000
0100
0000
,
0010
0000
0000
0100
0000
0000
0001
0000
1000
0000
0000
0100
0000
0000
0010
0000
,
0001
0000
0000
0100
0000
0000
0010
0000
0100
0000
0000
0001
0000
0000
1000
0000
,
0001
0010
0100
1000
0001
0100
1000
0100
,
0001
0000
0000
0100
0000
0000
0010
0000
1000
0000
0000
0010
0000
0000
0100
0000
,
0001
0000
0000
1000
0000
0000
0100
0000
1000
0000
0000
0000
1001
0000
0000
0000
,
0001
0000
0000
0100
0000
0000
0010
0000
1000
0000
0000
0100
0000
0000
0010
0000
,
0001
0000
0000
0100
0000
0000
0010
0000
0100
0000
0000
0000
1001
0000
0000
0000
,
0001
0100
1000
0100
0001
0000
1001
0000
,
0001
0000
0000
0010
0000
0000
0001
0000
1000
0000
0000
0010
0000
0000
0100
0000
,
0001
0000
0000
0011
0000
0000
0010
0000
0100
0000
0000
1100
0000
0000
1000
0000
,
0001
0000
0000
0000
0000
0000
0000
0000
1100
0000
0000
1100
0000
0000
0100
0000
,
1000
0010
0100
1000
0100
0000
0010
0000
,
1000
0010
0100
0001
0010
0100
0010
0000
,
0001
0010
0100
1000
0100
1000
0001
0100
,
0010
0000
0000
0010
0000
0000
0100
0000
0001
0000
0000
0001
0000
0000
2002
0000
,
0000
0000
0000
0000
0000
0000
3003
0000
1000
0000
0100
0000
0010
0000
0001
1000
,
0001
0000
0000
0100
0000
0000
0010
0000
1000
0000
0000
0000
0000
0000
0000
0000
0001
0000
0000
0010
0000
0000
0001
0000
1000
0000
0000
0100
0000
0000
1000
0000
,
0010
0000
0000
0100
0000
0000
0001
0000
2000
0000
0000
0000
0000
0000
0000
0000
3001
0000
0000
0000
0010
0000
0000
0000
0100
0000
0000
0000
1000
0000
0001
0000
,
1000
0000
0000
0001
0000
0000
0100
0000
0010
0000
0000
0000
0000
0000
0000
0000
1000
0000
0000
0100
0000
0000
0010
0000
0001
0000
0000
0100
0000
0000
0010
0000
,
1000
0000
0000
0001
0000
0000
0010
0000
0001
0000
0000
1000
0000
0000
0100
0000
1000
0000
0000
0000
0100
0000
0000
0000
0010
0000
0000
0000
0001
0000
0000
0000
,
0100
0000
0000
0010
0000
0000
1000
0000
0000
0100
0000
0000
1000
0000
0100
0000
0010
0000
0002
0000
0000
0000
0000
0000
,
1003
0000
0001
0000
0010
0000
0100
0000
1010
0000
0000
0010
0000
0000
0100
0000
,
0001
0000
0000
0100
0000
0000
0010
0000
1000
0000
0000
0010
0000
0000
0100
0000
,
0001
0000
0000
0010
0000
0000
0100
0000
1000
0000
0000
0100
0000
0000
0010
0000
,
0001
0000
0000
0010
0000
0000
0100
0000
1000
0000
0000
0100
0000
0000
0010
0000
,
0001
0000
1001
0000
0001
0010
1000
0010
,
0001
0000
0000
0000
1001
0000
0000
0000
0001
0000
0000
0010
0000
0000
0001
0000
,
1000
0000
0000
0100
0000
0000
0010
0000
0001
0000
0000
0100
0000
0000
0010
0000
,
0100
0000
0000
0001
0000
0000
1000
0000
0100
0000
0000
1000
0000
0000
0010
0000
,
1000
0000
0010
0000
0001
0000
0010
0000
1000
0000
0000
0010
0000
0000
0100
0000
,
0001
0000
0000
0010
0000
0000
0001
0000
0010
0000
0000
0100
0000
0000
1000
0000
,
0010
0000
0000
0000
1001
0000
0000
0000
1000
0000
0000
0100
0000
0000
0010
0000
,
0001
0000
0000
0100
0000
0000
0010
0000
0100
0000
0000
0010
0000
0000
1000
0000
,
1100
0000
0011
0000
1000
0100
0001
0100
,
1000
0000
0000
0000
1001
0000
0000
0000
0001
0000
0000
0010
0000
0000
0100
0000
,
1000
0000
0000
0010
0000
0000
0100
0000
0001
0000
0000
0010
0000
0000
0001
0000
,
1000
0000
0000
0100
0000
0000
1000
0000
0001
0000
0010
0000
0100
0000
1000
0000
,
0010
0000
0101
0000
1010
0000
1000
0001
,
1000
0000
0000
0100
0000
0000
0010
0000
0001
0000
0000
0000
1000
0000
0100
0000
,
1000
0000
0000
0010
0000
0000
0100
0000
0010
0000
1000
0000
0100
0000
0010
0000
,
0001
0100
0010
1000
0100
0000
0000
0000
,
1100
0000
0000
1100
0000
0000
0100
0000
1000
0000
0000
1100
0000
0000
0001
0000
,
0010
0000
0000
0011
0000
0000
0002
2000
0000
0000
0000
0000
0000
0000
0000
0000
,
3003
0000
0000
0000
;

//---------------dance-single - ----------------
#NOTES:
     dance-single:
     :
     Medium:
     8:
     0.427,0.428,0.195,0.155,0.008:
0000
0000
0000
0000
,
0000
0000
0000
0000
,
1000
0100
1000
0100
0010
0001
0010
0001
,
2000
0000
0000
3000
,
0010
0100
0010
0000
1000
0001
1000
0000
,
0010
0000
0100
0010
0100
0000
0000
0000
,
0001
1000
0001
0000
0010
0001
0010
0001
,
1000
0001
1000
0010
,
1000
0001
1000
0000
0010
0000
0100
0000
,
0010
0000
1000
0001
1000
0000
0000
0000
,
0010
0010
0100
0100
,
0002
0000
1003
0000
,
0001
0000
0010
0000
0100
1000
0100
0000
,
1000
0001
1000
0001
1000
0000
0000
0000
,
0010
0000
0100
0000
0001
1000
0001
0000
,
1000
0100
1000
0100
1000
0000
0000
0000
,
0010
0100
0001
0010
,
0001
1000
0001
1000
0100
0000
1000
0000
,
1001
0000
0001
0000
0100
0001
0010
0001
,
0200
0000
0000
0000
0000
0000
0000
0301
,
2000
0000
0000
0000
,
3001
0000
1000
1000
,
1001
0000
0010
0100
1000
0000
0100
0010
,
0001
0010
0001
0000
1001
0000
0000
0000
,
0100
1000
0100
0000
0010
0001
0010
0000
,
0001
1000
0001
1000
0001
0000
0100
0000
,
0110
0000
0010
1000
0010
0000
0100
0000
,
0001
1000
0001
0010
0100
0000
1000
0010
,
0100
0000
0001
0100
0010
0000
1000
0100
,
0020
0000
0000
0000
0031
0010
0100
1000
,
0001
0100
0010
0000
1000
0010
0100
0000
,
0001
0010
0100
1000
0001
0000
1000
0000
,
0001
0100
0010
0000
1000
0010
0100
0000
,
0001
0010
0100
1000
0001
0000
1000
0000
,
1002
0000
0000
0010
0013
0000
0100
0000
,
1000
0010
1000
0000
0001
1000
0001
0000
,
0011
0110
0100
1001
,
0010
0000
0110
0110
,
1001
0000
0001
0000
0010
1000
0010
0000
,
0001
0000
1000
0000
0100
0001
0100
0000
,
2001
0000
3020
0000
,
0230
0000
0000
0000
0302
0000
0000
2000
,
0000
3003
1001
0010
,
0100
0001
0010
0000
0001
0000
1000
0000
,
0010
1000
0100
0000
1000
0000
1001
0000
,
0010
0100
0001
0000
0010
0001
0010
0100
,
1000
0100
0010
0001
2000
0000
0000
0000
,
0000
0000
3002
0000
,
0000
0000
1003
1100
,
1000
1100
0001
0011
,
0001
0011
1000
1010
,
0001
0101
0010
0010
,
1001
0000
0000
0100
0020
0000
0000
0100
,
0130
0000
0001
0000
0010
0100
1000
0000
,
0010
0100
0001
0100
0001
0000
0100
0010
,
1000
0100
1000
0000
0100
0000
0010
0000
,
0001
0010
0100
1000
0100
0000
1000
0010
,
0100
0000
0000
0000
0100
0000
0010
0000
1000
0000
0000
1000
0000
0000
1000
0000
,
0001
0000
0100
0000
0001
0000
1000
0100
,
0010
0000
0000
0000
0010
0000
0100
0000
1000
0000
0000
1000
0000
0000
1000
0000
,
0010
0000
0100
0000
2001
0000
0000
0010
,
3010
0000
0100
0000
0001
0010
0001
0000
,
1000
0100
1000
0100
0010
0000
0001
0100
,
0001
0000
1000
0010
1000
0000
0100
0000
,
0010
0000
0001
0000
1001
0000
1000
0001
,
0100
0001
1000
0100
0010
0000
0001
1000
,
0010
1000
0001
0010
0100
0000
1000
0100
,
1000
0001
0100
0001
1000
0000
1001
0000
,
2000
0000
0001
0000
3002
0000
0000
0100
,
0203
0000
0000
0020
0000
0000
0000
0000
,
0330
0000
0000
0000
;

//---------------dance-single - ----------------
#NOTES:
     dance-single:
     :
     Beginner:
     2:
     0.114,0.169,0.098,0.000,0.000:
0000
0000
0000
0000
,
0000
0000
0000
0000
,
0000
0000
0000
0000
,
0000
0000
0000
0000
,
1000
0000
1000
0000
,
1000
0000
0000
0000
,
0001
0000
0001
0000
,
0001
0000
0000
0000
,
1000
0000
0001
0000
,
1000
0000
0000
0000
,
0001
0000
1000
0000
,
0001
0000
0000
0000
,
0000
1000
0000
1000
,
0000
1000
0000
0000
,
0000
0001
0000
0001
,
0000
0001
0000
0000
,
1000
0000
0000
0000
,
0001
0000
0000
0000
,
1000
0000
0100
0000
,
1000
0000
0000
0000
,
0001
0000
0000
0000
,
1001
0000
0000
0000
,
0001
0000
0010
0000
,
0001
0000
0000
0000
,
1000
0000
0001
0000
,
1000
0000
0000
0000
,
0001
0000
0000
0000
,
1000
0000
0000
0000
,
0001
0000
0000
0000
,
1000
0000
0000
0000
,
0001
0000
1000
0000
,
0001
0000
0000
0000
,
1000
0000
0100
0000
,
1000
0000
0000
0000
,
0001
0000
0000
0000
,
1000
0000
0000
0000
,
0001
0000
0000
0000
,
1001
0000
0000
0000
,
1000
0000
0000
0000
,
0001
0000
0000
0000
,
1000
0000
0000
0000
,
0001
0000
0000
0000
,
0000
0000
1000
0000
,
0000
0000
1000
0000
,
0000
0000
1001
0000
,
0000
0000
0001
0000
,
0001
0000
1000
0000
,
0000
0000
0000
0000
,
0000
0000
1001
0000
,
0000
0000
1001
0000
,
0000
0000
1001
0000
,
0000
0000
1001
0000
,
0000
0000
1000
0000
,
0000
0000
0001
0000
,
0001
0000
0001
0000
,
0000
0000
0000
0000
,
1000
0000
1000
0000
,
1000
0000
1000
0000
,
0000
0000
0001
0000
,
0001
0000
0001
0000
,
0000
0000
1000
0000
,
0001
0000
1000
0000
,
0000
0000
0001
0000
,
1000
0000
0001
0000
,
0000
0000
1001
0000
,
0000
0001
0000
1000
,
0000
0001
1001
0000
,
1000
0000
1001
0000
,
0000
0000
1001
0000
,
1001
0000
0000
0001
0000
0000
0000
0000
;

//---------------dance-single - ----------------
#NOTES:
     dance-single:
     :
     Challenge:
     14:
     0.691,0.713,0.261,0.163,0.590: // measure 1
0000
0000
0000
0000
,  // measure 2
0000
0000
0000
0000
,  // measure 3
1000
0001
1000
0000
0100
0000
0010
0000
0001
0100
0001
0000
1000
0000
0100
0000
,  // measure 4
0010
0000
0001
0100
0000
0001
1000
0000
0010
0100
0000
0100
0000
0000
0010
0100
,  // measure 5
0001
0000
1000
0000
0100
0000
1000
0000
0001
0000
0000
0011
0000
0000
0010
0000
,  // measure 6
0100
0000
0000
1100
0000
0000
1000
0000
0001
0000
0100
0000
0001
0000
0000
0000
,  // measure 7
0010
0000
0100
0000
1000
0000
0010
0000
0100
0000
0000
0101
0000
0000
0001
0000
,  // measure 8
1000
0000
0000
1010
0000
0000
0010
0000
0100
0000
0001
0000
0010
0000
0000
0000
,  // measure 9
0001
0000
0010
0000
0100
0000
0010
0000
0001
0000
0000
0011
0000
0000
0010
0000
,  // measure 10
0100
0000
0000
1100
0000
0000
1000
0000
0001
0000
0100
0000
0001
0000
0000
0000
,  // measure 11
0100
0000
0000
0100
0001
0000
0000
0000
0001
0000
0000
0001
1000
0000
0100
0000
,  // measure 12
0010
0100
0010
0000
0001
0000
0000
0000
0100
0010
0000
0010
0000
0010
1000
0000
,  // measure 13
0001
1000
0100
0001
0100
1000
0001
0010
,  // measure 14
0100
0000
0000
1100
0000
0000
1000
0000
0001
0000
0100
0000
0001
0000
0000
0000
,  // measure 15
0010
0100
1000
0010
0001
0010
1000
0100
,  // measure 16
0010
0000
0000
0011
0000
0000
0001
0000
1000
0000
0100
0000
0010
0000
0000
0000
,  // measure 17
0101
0001
0010
0100
1000
0010
0110
0000
,  // measure 18
0100
0001
0010
0100
1000
0001
0101
0000
,  // measure 19
1001
1000
0100
0010
0100
1000
0001
0010
,  // measure 20
0100
0000
1000
0010
0000
1000
0001
0000
0010
0001
0000
1000
0010
0000
0100
0000
,  // measure 21
0001
1000
0001
1000
0001
1000
0001
1000
0001
0000
0000
0101
0000
0000
0110
0000
,  // measure 22
0010
0000
1000
0100
0010
0100
1000
0000
0001
0000
0100
0010
0000
0010
1000
0000
,  // measure 23
0001
0000
0000
0001
0100
0000
0010
0000
0100
0000
0000
0100
0001
0000
0010
0000
,  // measure 24
0200
0000
0000
1000
0000
0000
1300
0000
0110
0000
0000
0000
1001
0000
0000
0000
,  // measure 25
1000
0000
0000
1000
0100
0000
0010
0000
0100
0000
0000
0100
1000
0000
0001
0000
,  // measure 26
0200
0000
0000
0010
0000
0000
0310
0000
1010
0000
0000
0000
1001
0000
0000
0000
,  // measure 27
0001
0100
1000
0100
0001
0010
0100
0000
,  // measure 28
0010
0000
0000
0010
0001
0000
0010
0000
0100
0000
0000
0100
1000
0000
0010
0000
,  // measure 29
0100
0000
0000
0100
0001
0000
0010
0000
0100
0000
0000
0100
1000
0000
0001
0000
,  // measure 30
0010
0100
0010
0000
0001
0000
0100
0000
0010
0100
0010
0000
1000
0010
1000
0000
,  // measure 31
0001
0000
0000
0001
0100
0000
0010
0000
0100
0000
0000
0100
0001
0000
0010
0000
,  // measure 32
0200
0000
0000
1000
0000
0000
1300
0000
0110
0000
0000
0000
1001
0000
0000
0000
,  // measure 33
0001
0000
0000
0001
1000
0000
0100
0000
1000
0000
0000
1000
0010
0000
0100
0000
,  // measure 34
0001
0000
0000
0001
0010
0000
0100
0000
0010
0000
0000
0000
1001
0000
0000
0000
,  // measure 35
1000
0010
0001
0010
1000
0100
0010
0000
,  // measure 36
0100
0000
0000
0100
1000
0000
0010
0000
0100
0000
0000
0100
0001
0000
0010
0000
,  // measure 37
0100
0010
0100
0010
0100
0010
0100
0010
0001
1000
0001
1000
0001
1000
0001
1000
,  // measure 38
0001
0000
0000
0000
0000
0000
0000
0000
0100
0010
0000
0010
0000
0010
0100
0000
,  // measure 39
0001
0010
1000
0010
0001
1000
0010
1000
,  // measure 40
0001
0100
1000
0100
0001
1000
0100
1000
,  // measure 41
0001
0010
0100
0000
1000
0000
0010
0000
0100
0001
0010
0000
0001
0000
0100
0000
,  // measure 42
0010
1000
0000
1000
0000
0000
0100
0010
0001
0100
0000
0100
0000
0000
2002
0000
,  // measure 43
0000
0000
0000
0000
0000
0000
3003
0000
1000
0000
0100
0000
0001
0000
0100
1000
,  // measure 44
0020
0000
0000
0100
0000
0000
0100
0000
0130
0000
0000
0000
0000
0000
0000
0000
0001
0000
0000
0100
0000
0000
1000
0000
0100
0000
0000
0001
0000
0000
0010
0000
,  // measure 45
0200
0000
0000
1000
0000
0000
1000
0000
1300
0000
0000
0000
0000
0000
0000
0000
0001
0000
0000
0000
0100
0000
0000
0000
1000
0000
0000
0000
0100
0000
0001
0000
,  // measure 46
2000
0000
0000
0100
0000
0000
0100
0000
3100
0000
0000
0000
0000
0000
0000
0000
1000
0000
0000
0100
0000
0000
0001
0000
0100
0000
0000
1000
0000
0000
0001
0000
,  // measure 47
0010
0000
0000
1000
0000
0000
0010
0000
0002
0000
0000
1000
0000
0000
1000
0000
1003
0000
0010
0000
1000
0000
0010
0000
1000
0000
0010
0000
1000
0000
0010
0000
,  // measure 48
2000
0000
0000
0000
0000
0000
3001
0010
0100
0020
0000
0000
,  // measure 49
0031
0000
0100
0001
0000
1000
0100
0000
1002
0000
0000
0100
0000
0000
0103
0000
,  // measure 50
0020
0000
0000
0100
0000
0000
0130
0000
0002
0000
0000
0100
0000
0000
0103
0000
,  // measure 51
0020
0000
0000
0100
0000
0000
0130
0000
1002
0000
0000
1000
0000
0000
1003
0000
,  // measure 52
1200
0000
0000
1000
0000
0000
1300
0000
1002
0000
0000
1000
0000
0000
1003
0000
,  // measure 53
1100
0000
1001
0000
0001
0010
1000
0010
,  // measure 54
0001
0000
0100
0000
0010
0000
0000
0000
0100
0000
0000
0100
0001
0000
0010
0000
,  // measure 55
0100
0000
0000
0100
1000
0000
0001
0000
0100
0000
0000
0100
0010
0000
1000
0000
,  // measure 56
0100
0000
0000
0100
0010
0000
0001
0000
1000
0010
1000
0000
0001
0000
0010
0000
,  // measure 57
0100
0010
0100
0000
1000
0010
1000
0000
0001
0000
0000
0001
0010
0000
0100
0000
,  // measure 58
0010
0000
0000
0010
0001
0000
0100
0000
0010
0000
0000
0010
1000
0000
0100
0000
,  // measure 59
0010
0000
0000
0000
0011
0000
0000
0000
0001
0000
0000
0001
0100
0000
0010
0000
,  // measure 60
0100
0000
0000
0100
0001
0000
0010
0000
0100
0000
0000
0100
1000
0000
0010
0000
,  // measure 61
0110
0000
1001
0000
1000
0100
0001
0100
,  // measure 62
1000
0000
0010
0000
0100
0000
0010
0000
1000
0000
0000
1000
0001
0000
0010
0000
,  // measure 63
0001
0000
0000
0001
1000
0000
0010
0000
0100
0000
0000
0100
0001
0000
1000
0000
,  // measure 64
0010
0000
0000
0010
0100
0000
0001
0000
1000
0100
1000
0000
0001
0000
0100
0010
,  // measure 65
0100
0001
0010
0100
1001
0000
1000
0010
,  // measure 66
1000
0000
0001
0010
0001
0000
0100
0000
0010
0000
0000
0000
0100
0000
0001
0000
,  // measure 67
0010
0000
0100
0010
0100
0000
1000
0000
0001
0100
0001
0100
0001
0100
0001
0100
,  // measure 68
0001
1000
0001
1000
0001
1000
0001
1000
0001
0000
0000
0000
0000
0000
0000
0000
,  // measure 69
0100
0010
0000
0010
0000
0010
1000
0000
0100
0000
0010
0100
0000
1000
0010
0000
,  // measure 70
0100
0001
0000
0010
0100
0000
2000
0002
0000
0000
0000
0000
0000
0000
0000
0000
,  // measure 71
3003
0000
0000
0000
;
