#TITLE:Recoil;
#SUBTITLE:;
#ARTIST:lapix;
#TITLETRANSLIT:;
#SUBTITLETRANSLIT:;
#ARTISTTRANSLIT:;
#CREDIT:DigiMindAxel;
#BANNER:Recoil.png;
#BACKGROUND:Recoil-bg.png;
#LYRICSPATH:;
#CDTITLE:DigiMindAxel original simfile.png;
#MUSIC:Recoil.ogg;
#METERTYPE:DDR X;
#OFFSET:-12.804;
#SAMPLESTART:25.552;
#SAMPLELENGTH:12.000;
#SELECTABLE:YES;
#BPMS:0.000=150.000,158.000=149.626,159.000=147.541,160.000=147.059,161.000=145.823,162.000=145.234,163.000=144.303,164.000=142.815,165.000=141.656,166.000=139.785,167.000=140.105,168.000=138.388,169.000=136.331,170.000=135.205,171.000=134.996,172.000=133.599,173.000=130.856,174.000=129.625,175.000=126.616,176.000=125.643,177.000=122.616,178.000=120.805,179.000=117.393,180.000=114.549,181.000=110.837,182.000=108.630,183.000=105.140,184.000=102.157,185.000=100.000;
#STOPS:92.000=1.200
;
#BGCHANGES:;

//---------------dance-single - ----------------
#NOTES:
     dance-single:
     :
     Easy:
     6:
     0.270,0.262,0.066,0.287,0.000: // measure 1
0001
1000
0200
0000
,  // measure 2
1300
0001
0020
0000
,  // measure 3
0031
0010
0200
0000
,  // measure 4
0310
0001
0200
0000
,  // measure 5
0310
1000
0010
1000
,  // measure 6
0001
0010
0100
1000
,  // measure 7
0001
0001
1000
1000
,  // measure 8
0200
0000
0000
0300
,  // measure 9
0020
0000
0032
0000
,  // measure 10
0103
0010
0100
0001
,  // measure 11
2000
0000
3200
0000
,  // measure 12
1300
0010
0100
0001
,  // measure 13
0020
0000
0230
0000
,  // measure 14
0320
0000
0032
0000
,  // measure 15
1003
0100
0010
0001
,  // measure 16
1000
0010
0100
0000
,  // measure 17
0001
1000
0200
0000
,  // measure 18
1300
0100
0010
0001
,  // measure 19
0200
0000
0320
0000
,  // measure 20
0130
0001
0010
0100
,  // measure 21
2000
0000
3002
0000
,  // measure 22
0023
0000
0230
0000
,  // measure 23
1300
0001
0010
0100
,  // measure 24
0010
1002
0000
2003
,  // measure 25
0000
3001
0010
0010
,  // measure 26
0010
0001
0100
0100
,  // measure 27
0100
0001
1000
0001
,  // measure 28
1000
0200
0000
0320
,  // measure 29
0000
0032
0000
2003
,  // measure 30
0000
3001
0010
0001
,  // measure 31
0100
0010
0000
0000
,  // measure 32
0000
2001
0000
3002
,  // measure 33
0000
2003
0000
3002
,  // measure 34
0000
0023
0000
0032
,  // measure 35
0000
0203
0000
0320
,  // measure 36
0000
1030
0001
0001
,  // measure 37
0001
0100
0010
0010
,  // measure 38
0010
1000
0100
0010
,  // measure 39
0001
2000
0000
3002
,  // measure 40
0000
1003
0100
0010
,  // measure 41
0010
0001
0010
0100
,  // measure 42
0100
0010
0001
0100
,  // measure 43
0100
0010
1000
0100
,  // measure 44
0100
0110
0001
1001
,  // measure 45
1000
1001
0001
0010
,  // measure 46
0100
2000
0000
0000
,  // measure 47
0000
3001
0000
0000
,  // measure 48
0000
0100
0010
1000
,  // measure 49
0100
0010
0001
1000
,  // measure 50
0001
0100
0010
0100
,  // measure 51
0001
0000
0010
0000
0100
0000
1000
1000
,  // measure 52
1000
0001
0100
0001
,  // measure 53
1000
0100
0010
0100
,  // measure 54
1000
0010
0100
0010
,  // measure 55
1000
0000
0001
0001
0001
0000
1001
0000
,  // measure 56
0000
1000
0100
1000
,  // measure 57
0001
1000
0100
0010
,  // measure 58
0001
0100
0010
0100
,  // measure 59
0001
0000
1000
0000
0100
0000
0010
0010
,  // measure 60
0010
0001
0100
0001
,  // measure 61
1000
0100
0010
0001
,  // measure 62
0100
0010
0100
0001
,  // measure 63
1000
0000
0100
0100
0100
0000
1001
0000
,  // measure 64
0110
2002
0000
0000
,  // measure 65
0000
0000
0000
3003
;

//---------------dance-single - ----------------
#NOTES:
     dance-single:
     :
     Medium:
     10:
     0.445,0.476,0.382,0.228,0.040: // measure 1
0010
0100
0010
0000
1000
0000
1001
0000
,  // measure 2
0010
0100
0010
0000
1000
0000
1001
0000
,  // measure 3
0100
0010
0100
0000
0001
0000
1001
0000
,  // measure 4
0100
0010
0100
0000
0001
0000
1001
0000
,  // measure 5
1100
1100
1001
1001
,  // measure 6
0011
0011
0110
0110
,  // measure 7
1000
0001
1000
0001
0100
0010
1000
0001
,  // measure 8
2002
0000
0000
3003
,  // measure 9
0201
0000
0000
0000
0310
0000
1000
1000
,  // measure 10
0001
0010
0100
0000
0010
0100
1000
0000
,  // measure 11
1002
1000
2003
0000
,  // measure 12
3020
0000
0100
0000
0130
0001
1000
0000
,  // measure 13
1200
0000
0320
0000
,  // measure 14
0031
1000
0100
0010
0001
1000
0001
0000
,  // measure 15
0100
0010
0100
0000
0001
1000
0001
0000
,  // measure 16
0210
0000
0320
0000
,  // measure 17
1030
0000
0001
0010
0100
1000
0000
0100
,  // measure 18
1000
1001
0011
1100
,  // measure 19
1002
0000
0103
0001
0100
0001
0100
0000
,  // measure 20
2001
0000
3001
0010
0001
0010
0001
0000
,  // measure 21
0100
0010
0100
0000
0002
0000
0000
0000
,  // measure 22
2003
0000
0000
0000
3001
0100
0010
0000
,  // measure 23
0100
0010
0100
0010
1000
0100
0010
0000
,  // measure 24
0101
0000
1002
0000
0000
0000
0103
0010
,  // measure 25
0100
0010
0100
0000
0001
1000
0100
0000
,  // measure 26
1100
0000
1001
0000
1000
0001
0010
0000
,  // measure 27
0011
0000
1001
0000
1000
0100
0010
0000
,  // measure 28
0100
0010
0002
0000
0103
0000
0010
1000
,  // measure 29
0000
0001
0020
0000
0000
0000
0031
1000
,  // measure 30
0000
0100
0010
0000
0001
0000
0100
0000
,  // measure 31
0010
2002
0000
0000
,  // measure 32
3003
0000
0201
0000
0000
0000
0310
1000
,  // measure 33
1000
1000
0010
1000
1000
1000
0002
0000
,  // measure 34
0000
0000
1003
0000
0100
1000
0100
1000
,  // measure 35
0100
0000
1001
0000
0010
0001
0010
0001
,  // measure 36
0010
0100
1100
1100
,  // measure 37
1100
1001
0011
0011
,  // measure 38
0011
0000
1001
0000
0001
0000
1000
0100
,  // measure 39
0010
0001
0200
0000
0000
0000
0320
0000
,  // measure 40
0000
0000
0130
0000
0101
0000
0001
1000
,  // measure 41
0010
0000
0100
0000
0101
0000
0001
1000
,  // measure 42
0010
0000
1000
0000
1001
0000
0001
0010
,  // measure 43
0100
0000
1000
0000
1001
0000
0001
0010
,  // measure 44
0100
1001
1001
0110
,  // measure 45
0110
0000
1000
0100
0010
0001
1000
0100
,  // measure 46
0010
0001
0200
0000
0000
0000
0000
0000
,  // measure 47
0000
0310
0000
0000
,  // measure 48
0000
0000
1000
0001
0100
1000
0100
0001
,  // measure 49
1000
0200
0000
1300
0010
0001
0010
1000
,  // measure 50
0001
0100
0000
0001
1000
0100
0001
1000
,  // measure 51
0100
0020
0000
1030
0001
0010
0100
0100
,  // measure 52
0100
0100
0010
0001
0100
1000
0100
0001
,  // measure 53
1000
0020
0000
1030
0100
0001
0100
1000
,  // measure 54
0001
0010
0000
0001
1000
0010
0001
0010
,  // measure 55
0100
0001
0010
0010
0010
0010
0110
0000
,  // measure 56
1001
0000
1000
0001
0100
1000
0100
0010
,  // measure 57
1000
0002
0000
1003
0010
0001
0010
0100
,  // measure 58
0001
1000
0000
0100
1000
0010
0001
0010
,  // measure 59
1000
0200
0000
1300
0010
0100
0001
0001
,  // measure 60
0001
0000
0001
0000
0100
0000
0010
1000
0010
0000
1000
0010
1000
0000
0010
1000
,  // measure 61
0010
0000
0100
0000
0000
0000
0001
1000
0001
1000
0001
1000
0001
0000
1000
0000
,  // measure 62
0001
0000
0010
0000
0000
0000
0100
1000
0000
0100
0010
0001
1000
0000
0001
0100
,  // measure 63
0000
0010
0100
0000
0010
0000
0010
0000
0010
0000
0010
0000
0110
0000
0000
0000
,  // measure 64
0101
2020
0000
0000
,  // measure 65
0000
0000
0000
3030
;

//---------------dance-single - ----------------
#NOTES:
     dance-single:
     :
     Hard:
     13:
     0.600,0.643,0.272,0.397,0.441: // measure 1
1000
0000
0100
0000
0010
0000
0001
0000
1000
0010
0000
0000
1010
0000
0000
0000
,  // measure 2
1000
0000
0100
0000
0010
0000
0001
0000
0100
0010
0000
0000
0110
0000
0000
0000
,  // measure 3
1000
0000
0100
0000
0010
0000
0001
0000
1000
0010
0000
0000
1010
0000
0000
0000
,  // measure 4
1000
0000
0100
0000
0010
0000
0001
0000
0100
0010
0000
0100
0000
0010
0000
0000
,  // measure 5
0102
2003
3200
0302
,  // measure 6
0203
2300
3002
2003
,  // measure 7
3001
0010
1000
0010
0001
1000
0100
0010
,  // measure 8
0102
0000
0000
0000
0000
0000
0000
0000
0103
0010
0100
0010
0000
1000
0001
0000
,  // measure 9
0201
0000
0302
0000
2003
0000
3010
0010
,  // measure 10
0100
0001
0000
0100
0001
0000
1000
0000
0100
0000
0010
0000
0100
0000
0000
0000
,  // measure 11
2001
3020
0230
0000
,  // measure 12
0301
1000
0000
0100
0000
1000
0000
0000
0001
0000
0010
0000
0100
0000
1000
0000
,  // measure 13
1020
0000
0230
0000
,  // measure 14
0301
0000
0100
0000
0001
0000
1000
0100
0000
1000
0000
0010
0000
0100
0000
0000
,  // measure 15
0001
1000
0001
1000
0010
0100
0010
0100
,  // measure 16
1002
0000
2003
0000
,  // measure 17
3010
0000
0100
0100
0001
2000
0000
3001
,  // measure 18
0100
0010
0100
0000
0001
0100
0001
0000
1000
0000
0100
0000
0010
0000
0000
0000
,  // measure 19
0102
0000
0000
0000
1003
0100
1000
0000
0001
1000
0001
0000
1000
0100
1000
0000
,  // measure 20
1002
0000
0000
0000
1003
0010
1000
0000
0001
1000
0001
0000
1000
0010
1000
0000
,  // measure 21
0001
0000
0010
0000
0100
0000
1000
0000
0010
0000
0000
0010
0000
0000
0010
0000
,  // measure 22
0200
0000
0000
0000
0000
0000
0000
0000
0301
0000
0000
1000
0000
0100
1000
0000
,  // measure 23
0001
0010
1000
0010
0001
1000
0100
0000
,  // measure 24
0011
0000
2001
0000
0000
0000
3100
0010
,  // measure 25
0100
0010
0001
1000
0010
0010
0100
0100
,  // measure 26
1001
0000
0001
0100
0010
0010
0100
0100
,  // measure 27
1001
0000
1000
0100
0010
0010
0100
0100
,  // measure 28
0010
0001
0200
0000
0302
0000
1003
0200
,  // measure 29
0000
0310
0002
0000
2003
0000
3010
0200
,  // measure 30
0000
0301
2000
0000
3100
0010
0001
1000
,  // measure 31
0010
2000
0002
0000
0000
0000
0000
0000
,  // measure 32
3003
0000
0000
0000
0102
0000
0000
0000
0000
0000
0000
0000
1003
0000
0010
0100
,  // measure 33
0010
0100
0010
0000
0100
0010
0100
0010
0100
0000
0001
0000
0010
0000
0200
0000
,  // measure 34
0000
0000
0000
0000
0310
0000
0000
0000
0001
0000
1000
0000
0001
0000
0100
0001
,  // measure 35
0000
0100
0001
0000
2001
0000
0000
0000
3001
0000
0010
0000
0001
0000
0010
0100
,  // measure 36
0000
0010
0100
0000
2000
0000
0000
0000
3010
0000
0010
0000
0100
0000
0100
0000
,  // measure 37
0002
0000
2003
0000
3100
0100
0010
0010
,  // measure 38
0002
0000
0000
0000
1003
0000
0100
0000
0010
0000
0001
0000
0100
0001
0100
0001
,  // measure 39
1000
0020
0000
0230
,  // measure 40
0000
0000
0000
0000
0301
0000
0010
0000
0100
0000
1000
0000
0001
0100
0000
0000
,  // measure 41
0101
0000
0000
0000
0001
0000
0010
0000
0100
0000
1000
0000
0010
0100
0000
0000
,  // measure 42
0110
0000
0000
0000
0001
0000
0010
0000
0100
0000
1000
0000
0001
0100
0000
0000
,  // measure 43
0101
0000
0000
0000
0001
0000
0010
0000
0100
0000
1000
0000
0010
0100
0000
0010
,  // measure 44
0000
0100
0000
0000
0001
1000
0000
0100
0000
1000
0000
0000
0010
0100
0000
0010
,  // measure 45
0000
0100
0000
0000
0001
1000
0000
0100
0000
1000
0000
0000
0010
0100
0000
0010
,  // measure 46
0000
0100
0000
0000
0001
0000
0010
0000
0100
0000
1000
0000
0001
0000
0100
0000
,  // measure 47
0010
1000
2002
0000
0000
3000
1003
0100
,  // measure 48
0011
0000
0000
0000
1001
0000
1000
0100
0010
0000
0100
0010
0001
0000
0100
0010
,  // measure 49
0100
0000
1002
0000
0000
0000
0103
0001
0010
0000
0100
1000
0010
0000
0100
0010
,  // measure 50
0100
0010
0100
0000
0000
0000
0001
1000
0000
0100
1000
0100
0000
0010
0001
0010
,  // measure 51
0100
0000
2001
0000
0000
0000
3100
0010
0001
0010
0100
0000
1000
0010
1000
0010
,  // measure 52
1000
0010
1000
0000
1001
0000
0001
0100
0010
0000
0100
0010
1000
0000
0001
0010
,  // measure 53
0100
0000
2010
0000
0000
0000
3010
0100
0001
0000
1000
0100
0020
0000
0001
0000
,  // measure 54
0001
0000
0031
0000
0000
0000
0010
0001
0000
0010
0100
1000
0010
0000
1000
0010
,  // measure 55
0000
0100
0001
0000
1000
0100
1000
0100
1000
0100
1000
0100
1000
0000
0000
0000
,  // measure 56
1001
0000
0000
0000
0011
0000
0100
1000
0001
0000
0100
0001
1000
0000
0100
0010
,  // measure 57
0001
0000
0201
0000
0000
0000
0310
1000
0100
0000
0010
0001
0100
0000
0010
0100
,  // measure 58
0010
0100
0010
0000
0000
0000
0100
0001
0000
1000
0100
1000
0000
0001
0100
0001
,  // measure 59
1000
0000
0000
0000
0000
0000
1002
0000
0000
0000
0000
0000
0000
0000
0000
0000
0000
0000
0103
0000
0000
0001
0000
0000
1000
0000
0000
0001
0000
0000
0100
0000
0000
0000
0000
0000
0010
0000
0000
0000
1000
0000
0010
0000
0000
0000
1000
0000
,  // measure 60
0010
0000
0000
0000
1000
0000
0010
0000
0000
0000
0000
0000
1001
0000
0000
0000
0000
0000
0001
0000
0000
0010
0000
0000
0100
0000
0000
0000
0000
0000
0010
0000
0000
0100
0000
0000
1000
0000
0000
0000
0000
0000
0001
0000
0000
0100
0000
0000
,  // measure 61
0010
0000
2001
0000
0000
0000
3010
0100
0001
0010
0001
0010
0002
0000
1000
0000
,  // measure 62
1000
0000
1003
0000
0000
0000
0001
0010
0100
1000
0100
1000
0010
0100
0001
1000
,  // measure 63
0010
0100
0001
0000
1000
0100
1000
0100
1000
0100
1000
0000
1001
0000
0000
0000
,  // measure 64
0011
0110
2200
0000
0000
0000
0000
0000
,  // measure 65
0000
0000
0000
3300
;

//---------------dance-single - ----------------
#NOTES:
     dance-single:
     :
     Challenge:
     16:
     0.878,0.881,0.500,0.397,1.000: // measure 1
0011
0000
0001
0000
1000
0100
0010
0000
0001
0100
0000
0100
0010
0000
0000
0000
,  // measure 2
0101
0000
0001
0000
1000
0100
0010
0000
0100
1000
0000
1000
0010
0000
0000
0000
,  // measure 3
0110
0000
0100
0000
0001
0010
0100
0000
1000
0010
0000
0010
0100
0000
0000
0000
,  // measure 4
1001
0000
0001
0000
1000
0010
0100
0000
0001
1000
0000
0100
0000
1000
0010
0000
,  // measure 5
0100
0001
0000
0010
0000
0100
0010
0000
0001
1000
0000
0100
0000
0010
0100
0000
,  // measure 6
1000
0001
0000
0100
0000
1000
0100
0000
0001
1000
0000
0010
0000
0001
0010
0000
,  // measure 7
1000
0010
1000
0010
0100
0001
0100
0001
0010
0100
0010
0100
1000
0001
0100
0010
,  // measure 8
2000
0000
0000
0000
0000
0000
0000
0000
3001
0100
0010
0100
0000
0001
1000
0000
,  // measure 9
1200
0000
0320
0001
0032
0100
1000
1003
,  // measure 10
0001
0010
0000
0010
0001
1000
0010
0100
0000
0001
2000
0000
0100
0000
3100
0000
,  // measure 11
0010
0001
0100
0010
1000
0000
1010
0000
2001
0000
3001
0100
0010
1000
0001
0100
,  // measure 12
0020
0000
0000
1000
0000
0000
0000
0000
0000
1000
0000
0000
0000
0000
0000
1030
0000
0000
0001
0000
0000
0000
0000
0000
0010
0000
0000
0100
0000
0000
1000
0000
0001
0000
1000
0000
0001
0000
0000
0000
0000
0000
0100
0000
0000
0010
0000
0000
,  // measure 13
2000
0000
0000
3100
0022
0000
0000
0033
,  // measure 14
0100
0000
0100
0000
1100
0000
0010
0001
0000
0100
0010
1000
0000
0001
0000
0100
,  // measure 15
0001
0000
1000
0100
0000
0100
0010
0000
0001
0100
0000
0100
0010
0000
1000
0001
,  // measure 16
0100
0010
1000
0100
0010
0001
1000
0100
0020
0000
0000
0100
0000
0000
0130
0000
,  // measure 17
1000
0100
0010
0001
0110
1020
0000
1030
,  // measure 18
0001
0100
0010
0000
1000
0010
0100
0000
1001
0000
0001
0000
1000
0000
0100
0000
,  // measure 19
0021
0000
0000
0000
0031
0010
0100
0000
0010
0100
1000
0000
0001
0100
0010
0100
,  // measure 20
0002
0000
0000
0000
0000
0000
0000
0000
0000
0000
0000
0000
1003
0000
0000
0010
0000
0000
0100
0000
0000
0000
0000
0000
0010
0000
0000
0100
0000
0000
0001
0000
1000
0000
0001
0000
1000
0000
0000
0010
0000
0000
0100
0000
0000
0000
0000
0000
,  // measure 21
0001
0000
0010
0000
0100
0000
1000
0000
0110
0000
0000
0101
0000
0000
0110
0000
,  // measure 22
1020
0000
0200
0000
0000
0000
0330
0000
0201
0000
0000
0010
0000
0310
1000
0000
,  // measure 23
0001
0000
0000
0010
0000
0000
0100
0000
0000
0000
0000
0000
1000
0000
0000
0010
0000
0000
0100
0000
0000
0001
0000
0000
1000
0000
0100
0000
1000
0000
0100
0000
0010
0000
0001
0000
0100
0000
0000
0000
0000
0000
0010
0000
0000
1000
0000
0000
,  // measure 24
1001
0000
0021
0000
0230
0000
2300
0010
,  // measure 25
3020
0000
0100
0000
0130
0000
0001
0000
1000
0010
1000
0000
0001
0100
0001
0000
,  // measure 26
1001
0000
1100
0000
1001
0000
0001
0000
1000
0100
1000
0000
0001
0010
0001
0000
,  // measure 27
0110
0000
0000
0000
0000
0000
1010
0000
0000
0000
0000
0000
1001
0000
0000
0000
0000
0000
0001
0000
0000
0000
0000
0000
1000
0000
0000
0010
0000
0000
1000
0000
0000
0000
0000
0000
0001
0000
0000
0100
0000
0000
0001
0000
1000
0000
0001
0000
,  // measure 28
1000
0100
0010
0001
2000
0000
0000
0000
3020
0000
0000
0000
0130
0000
0102
0000
,  // measure 29
0000
0000
0103
0000
1010
0000
1010
0000
1001
0000
0001
1000
0010
0000
0100
0001
,  // measure 30
0000
1000
0100
0010
0001
0000
1000
0010
0000
0010
1000
0000
0001
0010
0000
0100
,  // measure 31
0000
1000
0001
0000
0100
0000
0100
0000
0010
0100
0010
0000
1000
0000
0100
0010
,  // measure 32
0100
0010
0001
1000
0020
0000
0000
0000
2030
0000
0000
0000
3001
1000
0001
0100
,  // measure 33
1000
0100
0001
0000
1000
0001
1000
0100
0001
0100
1000
0000
1100
0000
0110
0000
,  // measure 34
0012
0000
0000
0000
1003
0000
0000
0000
0001
1000
0100
0000
0010
0001
1000
0100
,  // measure 35
0000
0000
0000
0100
0000
0000
0010
0000
0000
0001
0000
0000
2000
0000
0000
0000
0000
0000
0000
0000
0000
0000
0000
0000
3010
0000
0000
1000
0000
0000
0100
0000
0000
0000
0000
0000
0010
0000
0000
0001
0000
0000
1000
0000
0010
0000
1000
0000
,  // measure 36
0010
0100
0001
0000
2001
0000
0000
0000
3100
1000
0100
0000
0010
0100
0010
0000
,  // measure 37
0002
0000
0100
0000
0203
0000
0000
0000
0301
1000
0001
0000
1000
0010
1000
0001
,  // measure 38
0010
0000
0000
0100
0000
0000
1000
0000
0000
0000
0000
0000
0001
0000
0000
0010
0000
0000
0100
0000
0000
0000
0000
0000
1000
0000
0000
0100
0000
0000
0010
0000
0000
0001
0000
0000
0100
0000
0001
0000
0100
0000
0001
0000
1000
0000
0100
0000
,  // measure 39
0010
0000
0001
0000
1001
0000
0001
1000
0000
1000
0100
0000
0010
0001
0000
0001
,  // measure 40
0100
0000
0000
0000
0001
1000
0100
1000
0001
0000
0100
0000
0010
1000
0000
1000
,  // measure 41
0100
0000
0000
0000
0010
0100
1000
0001
0100
0000
0010
0000
1000
0100
0000
0100
,  // measure 42
0010
0001
0100
0000
0010
1000
0001
0010
0001
0000
1000
0000
0010
0100
0000
0100
,  // measure 43
0001
0000
0000
0000
0010
0100
1000
0001
0010
0000
0100
0000
0010
0001
0000
1000
,  // measure 44
0000
0010
1000
0000
0001
0100
0001
1000
0001
0100
0001
0000
1000
0100
1000
0001
,  // measure 45
1000
0100
1000
0000
0001
0100
1000
0100
0001
0010
0100
1000
0001
0100
1000
0100
,  // measure 46
0001
0100
0010
1000
0100
0010
0001
1000
0010
0100
0001
1000
0010
0001
0010
1000
,  // measure 47
0100
0010
0001
1000
0010
0010
0010
0010
0010
0010
0010
0010
0110
0000
0100
0010
,  // measure 48
1001
0000
0000
0000
1001
0000
0000
0000
1100
0000
0000
0000
1000
0000
0100
0000
0001
0000
1000
0000
0010
0000
0001
0000
1000
0100
1000
0000
0001
0000
0100
0000
,  // measure 49
0010
0000
0000
0000
2020
0000
0000
0000
0000
0000
3030
0000
1000
0000
0100
0000
0001
0000
1000
0000
0010
0000
0001
0000
1000
0100
1000
0000
0100
0010
0100
0000
,  // measure 50
0010
0001
0010
0000
2002
0000
0000
0000
0000
0000
3003
0000
0002
0000
0100
0000
0000
0000
0103
0000
0010
0000
2000
0000
0000
0000
3100
0000
0010
0000
0001
0000
,  // measure 51
1000
0000
2020
0000
0000
3030
0010
0100
0001
0010
0100
1000
0010
0010
0010
0010
,  // measure 52
0010
0000
0010
0000
0010
0000
0010
0000
0110
0000
0000
0000
1000
0000
0100
0000
0001
0000
1000
0000
0010
0000
0001
0000
1000
0100
1000
0000
0001
0000
0010
0000
,  // measure 53
0100
0000
0000
0000
0022
0000
0000
0000
0000
0000
0033
0000
0001
0000
0100
0000
1000
0000
0001
0000
0010
0000
1000
0000
0001
0010
0001
0000
0100
0010
0100
0000
,  // measure 54
0010
1000
0010
0000
2001
0000
0000
0000
3010
0000
0000
0000
0200
0000
0001
0000
0000
0000
0301
0000
1000
0000
0100
0000
0010
0100
0010
0000
0001
0000
1000
0100
,  // measure 55
1000
0000
0001
0000
0100
0010
0100
0000
0010
0000
0010
0000
0010
0000
0010
0000
0010
0000
0010
0000
0010
0000
0010
0000
0110
0000
0000
0000
0100
0000
0010
0000
,  // measure 56
1001
0000
1001
0000
0011
0000
0100
1000
1010
0000
0100
0001
0011
0000
0100
1000
,  // measure 57
1001
0000
0220
0000
0000
0330
1000
0100
0001
0100
1000
0010
0110
0000
1010
0010
,  // measure 58
0010
0010
0220
0000
0330
0000
0002
0010
0000
0013
0100
2000
0000
3010
0100
0001
,  // measure 59
1000
0000
0000
0000
0000
0000
2002
0000
0000
0000
0000
0000
0000
0000
0000
3003
0000
0000
0001
0000
0000
0010
0000
0000
1000
0000
0000
0010
0000
0000
0001
0000
0000
1000
0000
0000
0010
0000
0100
0000
0010
0000
1000
0000
0010
0000
0100
0000
,  // measure 60
0001
0000
0010
0000
0001
0000
1000
0000
0001
0000
0010
0000
0001
0000
0000
0000
0000
0000
0010
0000
0000
0100
0000
0000
1100
0000
0000
0000
0000
0000
0010
0000
0000
0001
0000
0000
0101
0000
0000
0000
0000
0000
0010
0000
0000
1000
0000
0000
,  // measure 61
1001
0000
0110
0000
0000
0000
1000
0001
0010
1000
0010
0001
0011
0000
0110
0000
,  // measure 62
1100
0000
1000
0000
0020
0000
0000
0000
0030
0000
0000
0000
0100
0000
0001
0000
0010
0000
1000
0000
0010
0000
0001
0000
1000
0010
0100
0000
0010
0000
1000
0100
,  // measure 63
0010
0000
0001
0000
0010
0100
1000
0000
0010
0000
0010
0000
0010
0000
0010
0000
0010
0000
0010
0000
0010
0000
0010
0000
0110
0000
0000
0000
0100
0000
0010
0000
,  // measure 64
1001
0000
1100
0100
2002
0000
0000
0000
0000
0000
0000
0000
0000
0000
0000
0000
,  // measure 65
0000
0000
0000
3003
;

//---------------dance-single - ----------------
#NOTES:
     dance-single:
     :
     Beginner:
     3:
     0.092,0.140,0.029,0.000,0.000: // measure 1
0001
0000
0000
0000
,  // measure 2
0010
0000
0000
0000
,  // measure 3
0001
0000
0000
0000
,  // measure 4
0010
0000
0000
0000
,  // measure 5
0100
0000
0100
0000
,  // measure 6
0100
0000
0100
0000
,  // measure 7
0100
0000
0000
0000
,  // measure 8
1001
0000
0000
0000
,  // measure 9
1000
0000
0000
0000
,  // measure 10
0010
0000
0000
0000
,  // measure 11
1000
0000
0000
0000
,  // measure 12
0001
0000
0000
0000
,  // measure 13
0010
0000
0000
0000
,  // measure 14
0001
0000
0000
0000
,  // measure 15
0010
0000
0000
0000
,  // measure 16
0100
0000
0000
0000
,  // measure 17
0010
0000
0000
0000
,  // measure 18
0001
0000
0000
0000
,  // measure 19
0100
0000
0000
0000
,  // measure 20
0010
0000
0000
0000
,  // measure 21
0100
0000
0000
0000
,  // measure 22
0010
0000
0000
0000
,  // measure 23
1000
0000
0000
0000
,  // measure 24
0100
1000
0000
0000
,  // measure 25
0000
0001
0000
0000
,  // measure 26
0000
1000
0000
0000
,  // measure 27
0000
0100
0000
0000
,  // measure 28
0000
0010
0000
0000
,  // measure 29
0000
0001
0000
0000
,  // measure 30
0000
0100
0000
0000
,  // measure 31
0000
0010
0000
0000
,  // measure 32
0000
0100
0000
0000
,  // measure 33
0000
0100
0000
0000
,  // measure 34
0000
0100
0000
0000
,  // measure 35
0000
0010
0000
0000
,  // measure 36
0000
0010
0000
0000
,  // measure 37
0000
1000
0000
0000
,  // measure 38
0000
0001
0000
0000
,  // measure 39
0000
1000
0000
0000
,  // measure 40
0000
1001
0000
0000
,  // measure 41
0000
0001
0000
0000
,  // measure 42
0000
0010
0000
0000
,  // measure 43
0000
0001
0000
0000
,  // measure 44
0000
0100
0000
0100
,  // measure 45
0000
0100
0000
0100
,  // measure 46
0000
0100
0000
0000
,  // measure 47
0000
0110
0000
0000
,  // measure 48
0000
0001
0000
0000
,  // measure 49
0000
0010
0000
0000
,  // measure 50
0000
0100
0000
0000
,  // measure 51
0000
1000
0000
0001
,  // measure 52
0001
0001
0000
0000
,  // measure 53
0000
0010
0000
0000
,  // measure 54
0000
0100
0000
0000
,  // measure 55
0000
1000
1000
1000
,  // measure 56
0000
0010
0000
0100
,  // measure 57
0000
0010
0000
0100
,  // measure 58
0000
0001
0000
0010
,  // measure 59
0000
0001
0000
0010
,  // measure 60
0000
0100
0000
1000
,  // measure 61
0000
0001
0000
0100
,  // measure 62
0100
0010
0000
0100
,  // measure 63
0000
0001
0001
0001
,  // measure 64
1000
0110
0000
0000
;
