#TITLE:Rebellio;
#SUBTITLE:;
#ARTIST:MAX MAXIMIZER VS DJ TOTTO;
#TITLETRANSLIT:;
#SUBTITLETRANSLIT:;
#ARTISTTRANSLIT:;
#CREDIT:DigiMindAxel;
#BANNER:Rebellio.png;
#BACKGROUND:Rebellio-bg.png;
#LYRICSPATH:;
#CDTITLE:REFLEC BEAT.png;
#MUSIC:Rebellio.ogg;
#METERTYPE:DDR X;
#OFFSET:-4.245;
#SAMPLESTART:40.133;
#SAMPLELENGTH:12.000;
#SELECTABLE:YES;
#BPMS:0.000=234.000,4.000=117.000,24.000=234.000,184.000=117.000,224.000=234.000;
#STOPS:;
#BGCHANGES:;

//---------------dance-single - ----------------
#NOTES:
     dance-single:
     :
     Easy:
     10:
     0.409,0.540,0.252,0.130,0.000:
0000
0000
0000
0000
,
2002
0000
0000
0000
,
0000
0000
0000
3003
,
0220
0000
0000
0000
,
0000
0000
0000
0330
,
2002
0000
0000
0000
0000
0000
0000
3003
,
0001
0000
0000
0001
0000
0000
0000
1001
,
0000
0000
0000
0000
,
0100
0000
0000
0100
0000
0000
0000
0110
,
0000
0000
1000
0001
,
1000
0000
0000
1000
0000
0000
0000
1001
,
0000
0000
0000
0000
,
1001
0000
1001
0000
,
0010
0100
2000
0000
,
3010
0100
0010
0100
,
0010
0100
0010
0100
,
0001
1000
0001
1000
,
0001
1000
0001
1000
,
0100
1000
0100
1000
,
0100
1000
0100
1000
,
0010
0100
0010
0100
,
0001
0010
0100
0000
,
0010
0001
0010
0001
,
0010
0001
0010
0001
,
0100
0010
0100
0010
,
0100
0010
0100
0010
,
1000
0100
1000
0100
,
1000
0100
1000
0100
,
1000
0001
1000
0001
,
1000
0001
0200
0000
,
0310
1000
0010
1000
,
0010
0100
0001
0100
,
0010
1000
0010
1000
,
0100
0010
0001
0010
,
0100
1000
0100
1000
,
0100
1000
0010
0100
,
0001
1000
0001
1000
,
0001
0010
0100
0000
,
0010
0001
0010
0001
,
0100
0010
0100
0010
,
1000
0100
0010
0001
,
1000
0100
1000
0000
,
0010
0100
0010
0100
,
0001
1000
0001
1000
,
0010
0100
0001
0100
,
0010
1000
0100
0000
,
1002
0000
0013
0000
,
2001
0000
3100
0000
,
1002
0000
0103
0000
,
2001
0000
3010
0000
,
0110
1001
0010
0100
,
1001
0110
1000
0100
,
0110
1001
0100
0010
,
0110
1001
0001
0010
,
0200
0000
0000
0000
,
0000
0000
0300
0000
,
1000
0001
1000
0001
,
0100
0010
1000
0010
,
0200
0001
0001
0301
,
0010
0100
1000
0100
,
0010
0001
1001
0000
,
0100
0010
0110
0000
,
0010
1000
0100
0010
,
0001
1000
0001
0000
,
0100
0010
0100
0001
,
1000
0100
1000
0100
,
0020
0001
0001
0031
,
0100
0001
0010
0100
,
1000
0010
0110
0000
,
0100
0001
1001
0000
,
0010
0100
1000
0001
,
0010
0100
1000
0010
,
0100
0100
0100
0100
,
0010
0010
0010
0010
,
0100
0001
0010
0100
,
1000
0001
1001
0000
,
1000
0100
0010
0001
,
1000
0100
1000
0100
,
1000
0001
0010
0100
,
1000
0001
1000
0001
,
0100
0010
1000
0010
,
0100
0001
0100
0001
,
0010
0100
1000
0100
,
0010
0001
1001
0000
,
0100
1000
0100
1000
,
0010
0100
0001
0100
,
0010
1000
0010
1000
,
0100
0010
0001
0000
,
1000
0100
1000
0100
,
1000
0010
0100
0001
,
0100
0010
0100
0010
,
1000
0100
0010
0001
,
1001
0000
0000
1000
0000
0000
0000
0000
,
0001
0100
0001
0000
,
1001
0000
0000
1000
0000
0000
0100
0000
,
1000
0001
0000
0000
,
1001
0000
0000
0001
0000
0000
0000
0000
,
1000
0100
1000
0000
,
1001
0000
0110
0000
,
1001
0100
0010
0100
,
2002
0000
0000
0000
,
3003
0000
0000
0000
;

//---------------dance-single - ----------------
#NOTES:
     dance-single:
     :
     Medium:
     15:
     0.665,0.655,0.321,0.229,0.011:
0000
0000
0000
0000
,
2001
0000
0000
0000
,
0200
0000
0000
0000
0000
0000
0000
3300
,
0021
0000
0000
0000
,
0200
0000
0000
0000
0000
0000
0000
0330
,
2002
0000
0000
0000
0000
0000
0000
3003
,
1000
0000
0000
1000
0000
0000
1000
0000
0000
0000
0001
0000
0010
0000
0100
0000
,
0000
0000
0000
0000
,
0010
0000
0000
0010
0000
0000
0010
0000
0000
0000
0001
0000
0100
0000
0010
0000
,
0000
0000
1001
1001
,
0100
0000
0000
0100
0000
0000
0100
0000
0000
0000
0010
0000
0001
0000
1000
0000
,
0000
0000
0000
0010
,
1001
0000
1100
0000
,
0011
0001
2000
0000
,
3001
0000
1000
0100
1000
0100
0010
0000
,
0002
1000
0100
1003
,
1001
0000
0001
0100
0001
0100
0010
0000
,
2000
0010
0100
3010
,
1001
0000
0001
1000
0001
1000
0100
0000
,
0020
0001
0100
0031
,
1001
0000
0001
1000
0010
1000
0010
0000
,
0200
0001
0010
0301
,
1001
0000
1100
0000
0010
0001
1000
0000
,
0001
1000
0001
1000
0100
0010
0100
0000
,
1001
0000
0011
0000
0100
1000
0001
0000
,
0100
0001
0100
0001
2000
0000
0000
3000
,
1001
0000
1100
0000
0010
0001
0100
0000
,
0010
1000
0100
0010
0001
1000
0001
0000
,
0101
0000
1001
0000
1000
0010
0100
0000
,
0010
1000
0100
0010
0002
0000
0000
0000
,
1003
0001
1000
0001
1000
0001
1000
0001
,
0100
0010
0100
0010
0100
0010
0100
0000
,
0001
1000
0001
1000
0001
1000
0001
1000
,
0100
1000
0100
1000
0100
1000
0100
0000
,
0010
0100
0010
0100
0010
0100
0010
0100
,
0010
0001
0010
0001
0010
0001
0010
0000
,
0001
1000
0001
1000
0001
1000
0001
1000
,
0001
0100
0001
0100
0001
0000
1001
0000
,
1000
0100
1000
0100
1000
0100
1000
0100
,
1000
0001
1000
0001
1000
0001
1000
0000
,
0010
0100
0010
0100
0010
0100
0010
0100
,
0001
0010
0001
0010
0002
0000
0000
0000
,
0103
0001
0100
0001
1000
0100
1000
0100
,
0010
0001
0010
0001
1000
0010
1000
0010
,
1000
0001
1000
0001
0100
0010
0100
0010
,
1000
0001
1000
0001
0010
0100
0010
0100
,
2000
0000
0001
0000
,
3020
0000
0100
0000
,
0230
0000
0001
0000
,
0302
0000
1000
0000
,
1003
0000
1100
0000
0000
0010
0110
0000
,
0100
0000
0101
0000
0000
0001
1001
0000
,
1000
0000
1100
0000
0000
0010
0110
0000
,
0100
0000
0101
0000
0000
0001
1001
0000
,
1000
0100
0010
0001
1000
0010
0100
0010
,
1000
0100
0010
0001
2000
0000
0000
0000
,
3001
1000
0010
0000
1000
0010
0000
1000
,
0001
0010
0100
1000
0000
0001
1000
0001
,
0100
0100
0000
0010
0010
0000
1000
0100
,
1000
0100
0010
0000
0001
1000
0010
0000
,
1000
0001
0010
0000
0200
0000
0000
0000
,
0310
0001
1000
0000
0020
0000
0000
0000
,
1030
0001
0000
0001
0100
0001
1000
0100
,
0020
0000
0032
0000
,
1003
0001
0010
0000
0100
1000
0000
0001
,
0100
0010
0100
0001
0000
1000
0001
1000
,
0010
0010
0000
1000
1000
0000
0100
0010
,
0100
0010
0001
1000
0000
0010
0100
0000
,
0010
1000
0100
0000
0020
0000
0000
0000
,
0031
1000
0010
0000
0200
0000
0000
0000
,
0301
1000
0001
1000
0100
0010
0001
1000
,
0000
1000
0001
1000
0100
0010
0001
0000
,
0100
0001
0100
0001
0100
0001
0100
0001
,
1000
0100
1000
0100
1000
0100
1000
0100
,
0010
0001
0010
0001
0010
0001
0010
0001
,
0100
0010
0100
0010
2000
0000
0000
0000
,
3001
0000
1001
0000
1000
0100
0010
0000
,
0100
1000
0100
1000
0010
0100
0001
0000
,
1001
0000
0011
0000
0100
1000
0001
0000
,
0010
0001
0010
0001
0100
0010
1000
0000
,
1001
0000
0101
0000
0010
1000
0001
0000
,
0010
0100
0010
0100
1000
0001
0100
0000
,
1001
0000
1010
0000
0100
0001
1000
0000
,
0100
0010
0001
1000
0010
1000
0000
0000
,
0001
1000
0001
1000
0010
0100
0010
0100
,
0001
0010
0001
0010
0100
1000
0001
0000
,
0100
0001
0100
0001
1000
0100
1000
0100
,
0010
0001
0010
0001
1000
0010
0100
0000
,
0001
1000
0001
1000
0100
0010
0100
0010
,
0001
0100
0010
0100
0001
0100
0010
0000
,
0100
0001
0100
0001
1000
0100
0010
0100
,
1000
0001
0100
0001
1000
0010
1010
0000
,
0100
0001
0000
0100
0001
0100
0000
0001
,
1000
1100
0012
0000
,
1003
0100
0000
0010
0001
0010
0000
0001
,
1000
1010
0102
0000
,
1003
0001
0000
0100
0010
0100
0000
0010
,
0100
1010
2001
0000
,
3100
1000
0000
0001
0010
0001
0000
1000
,
0001
0010
0100
1000
0001
0100
0010
0100
,
0002
0000
0000
0000
,
0003
0000
0000
0000
;

//---------------dance-single - ----------------
#NOTES:
     dance-single:
     :
     Hard:
     19:
     0.987,1.000,0.626,0.153,0.492: // measure 1
0000
0000
0000
0000
,  // measure 2
2020
0000
0000
0000
0000
0000
0000
0030
,  // measure 3
0002
0000
0000
0000
0000
0000
0000
3003
,  // measure 4
0011
0000
0001
0000
0000
0100
0110
0000
,  // measure 5
1010
1000
1000
0000
1001
0001
0001
0000
,  // measure 6
0202
0000
0000
0000
0000
0000
0000
0303
,  // measure 7
1001
0000
0000
1001
0000
0000
1001
0000
0000
0000
1000
0000
0100
0000
0010
0000
,  // measure 8
0001
0100
1000
0100
,  // measure 9
1001
0000
0000
1001
0000
0000
1001
0000
0000
0000
0001
0000
0010
0000
0100
0000
,  // measure 10
1000
0010
0101
0101
,  // measure 11
1001
0000
0000
1001
0000
0000
1001
0000
0000
0000
1000
0000
0010
0000
0100
0000
,  // measure 12
0001
0000
0000
0000
0010
0000
0000
0000
0100
0000
0000
0000
1000
0001
1000
0001
,  // measure 13
1000
0000
0000
0000
0100
1000
0100
1000
0100
0000
0000
0000
1000
0001
1000
0001
,  // measure 14
1000
0100
0010
0001
2000
0000
0000
0000
,  // measure 15
3010
0100
0001
0100
0010
0100
0001
1000
,  // measure 16
0100
0000
0001
0000
1000
0000
0010
0000
0001
0000
1000
0000
0100
1000
0100
1000
,  // measure 17
0100
1000
0001
1000
0100
1000
0001
1000
,  // measure 18
0100
0001
1000
0010
0001
1000
0001
0010
,  // measure 19
0100
1000
0001
0100
0001
1000
0001
1000
,  // measure 20
0100
0000
0001
0000
1000
0000
0010
0000
0001
0000
1000
0000
0010
0100
0010
0100
,  // measure 21
0010
0100
0001
1000
0100
1000
0001
1000
,  // measure 22
0001
0100
1000
0100
0001
0010
0100
0000
,  // measure 23
1010
1000
0001
0010
0001
1000
0001
0010
,  // measure 24
0001
0000
0100
0000
1000
0000
0100
0000
0001
0000
0010
0000
0100
0010
0100
0010
,  // measure 25
0100
1000
0010
0001
0010
1000
0100
0010
,  // measure 26
0001
0000
0100
0000
0010
0000
0100
0000
0101
0000
0000
0101
0000
0000
0101
0000
,  // measure 27
1001
1000
0100
1000
0001
0100
0010
0100
,  // measure 28
0001
0000
0010
0000
1000
0000
0010
0000
0001
0000
1000
0000
0010
0100
0010
0100
,  // measure 29
0010
0000
1000
0000
0100
0000
0001
0000
0100
0000
1000
0000
0001
0000
0100
0010
,  // measure 30
0100
0001
0010
0100
0020
0000
0000
0030
,  // measure 31
1001
1000
0100
0010
0001
0010
0100
1000
,  // measure 32
0001
0000
0001
0000
0100
0000
0100
0000
0010
0000
0010
0000
0100
0001
0100
0001
,  // measure 33
0100
0001
0010
0100
1000
0100
0010
0001
,  // measure 34
1000
1000
0010
0010
1000
1000
0001
0001
,  // measure 35
1001
1000
0010
0100
0001
0100
0010
1000
,  // measure 36
0001
0000
0001
0000
0010
0000
0010
0000
0001
0000
0001
0000
1000
0010
1000
0010
,  // measure 37
1000
0001
0100
0010
1000
0010
0100
0001
,  // measure 38
0010
0010
0100
0100
1001
0000
1001
0000
,  // measure 39
1100
1000
0100
0001
0100
1000
0001
0100
,  // measure 40
0001
0000
0001
0000
1000
0000
1000
0000
0100
0000
0100
0000
0010
0001
0010
0001
,  // measure 41
1000
0001
0010
1000
0010
0001
1000
0100
,  // measure 42
1000
0000
1000
0000
0010
0000
0100
0000
0101
0000
0000
0101
0000
0000
0101
0000
,  // measure 43
1001
1000
0010
0001
0010
1000
0100
0010
,  // measure 44
1001
0000
0001
0000
0100
0000
1000
0000
0100
0000
0001
0000
0010
0100
0010
0100
,  // measure 45
0010
0001
0100
0010
0001
0010
0100
0001
,  // measure 46
1001
0000
1000
0000
0100
0000
0010
0000
0001
0100
0001
0100
0010
0000
0100
0000
,  // measure 47
1001
0000
0000
1001
0000
0000
0000
0000
0200
0000
1000
0000
1000
0000
1300
0000
,  // measure 48
0020
0100
0100
0130
0002
0010
0010
0013
,  // measure 49
2001
0100
0100
0100
3200
0010
0010
0010
,  // measure 50
0320
0001
0001
0001
0032
1000
1000
1003
,  // measure 51
1001
0000
0000
0001
0100
0000
0000
0000
1010
0000
0100
0000
0011
0000
0000
0000
,  // measure 52
1001
0000
0000
1000
0100
0000
0000
0000
0011
0000
0100
0000
1010
0000
0000
0000
,  // measure 53
1001
0000
0000
0001
0100
0000
0000
0000
1010
0000
0100
0000
0011
0000
0000
0000
,  // measure 54
1001
0000
0000
1000
0100
0000
0000
0000
0011
0000
0100
0000
1010
0000
1000
0000
,  // measure 55
0100
0000
0000
0001
0000
0000
0100
0000
0000
1000
0000
0000
0001
0000
0000
0010
0000
0000
0000
0000
0000
0100
0000
0000
0010
0000
0000
0001
0000
0000
0100
0000
0000
0000
0100
0000
0010
0000
0000
0000
0010
0000
1000
0000
0000
0000
1000
0000
,  // measure 56
0001
0000
0000
0000
0010
0000
0000
0000
0100
0000
0000
0000
1000
0000
0000
0000
0010
0000
0000
0010
0000
0000
0010
0000
0100
0000
0001
0000
1000
0000
0000
0000
,  // measure 57
0100
1000
0100
0000
0010
0000
0001
0000
0100
0001
0100
0000
0010
0000
1000
0000
,  // measure 58
0100
0000
0010
0000
0001
0100
0002
0000
0000
0000
1003
0000
0100
0000
0010
0000
,  // measure 59
0001
1000
0001
0000
0100
0000
0001
1000
0001
0000
0100
0000
0010
0000
1000
0000
,  // measure 60
0100
0000
0001
0000
1000
0000
0010
0000
0001
0000
1000
0000
0100
1000
0100
1000
,  // measure 61
0100
0000
0010
0000
0001
0000
0100
0000
0110
0000
0000
0110
0000
0000
0110
0000
,  // measure 62
1010
0000
1000
0000
0100
0000
0010
0001
0100
0000
0000
0101
0000
0000
0101
0000
,  // measure 63
0001
1000
0001
0000
0010
0000
0001
1000
0001
0000
0010
0000
0100
0000
1000
0010
,  // measure 64
2000
0000
0000
0001
0000
0000
3001
0000
0010
0001
0010
0001
0010
0000
0000
0000
,  // measure 65
0100
0010
0100
0000
1000
0000
0010
0000
0100
0001
0100
0000
0010
0000
1000
0000
,  // measure 66
0100
0000
0010
0000
0001
0100
0002
0000
0000
0000
0013
0000
0100
0000
1000
0000
,  // measure 67
0001
0100
0001
0000
1000
0000
0001
0100
0001
0000
1000
0000
0100
0000
0001
0000
,  // measure 68
1000
0000
0010
0000
0001
0000
1000
0000
0100
1000
0100
1000
0100
0000
0000
0000
,  // measure 69
1000
0000
0010
0000
0100
0000
0001
0000
1001
0000
0000
1001
0000
0000
1001
0000
,  // measure 70
1100
0000
0010
0000
0001
0000
1000
0000
1010
0000
0000
1010
0000
0000
1010
0000
,  // measure 71
1001
0000
0001
0000
0010
0000
0100
0010
0001
0000
0100
0000
0010
0000
2000
0000
,  // measure 72
0000
0000
3100
0000
0010
0000
0100
0000
1000
0010
0100
0010
1000
0000
0001
0000
,  // measure 73
0010
0100
0100
0010
0010
0100
0100
0010
,  // measure 74
0010
0001
0001
1000
1000
0100
0100
1000
,  // measure 75
0001
0100
0001
0100
0001
0000
1000
0000
0100
1000
0100
1000
0100
0000
0010
0000
,  // measure 76
0001
1000
0001
0000
1000
0100
1000
0000
0002
0000
0000
0000
0000
0000
0000
0000
,  // measure 77
0103
0010
0100
0001
0100
0010
0100
0001
,  // measure 78
1000
0100
1000
0000
0001
0000
0010
0000
0100
0010
0100
0000
1000
0001
1000
0001
,  // measure 79
1000
0100
1000
0001
0010
0001
1000
0010
,  // measure 80
0100
0001
0100
0000
0001
0000
1000
0000
0010
1000
0010
0000
0100
0000
0001
0000
,  // measure 81
1001
1000
0100
1000
0001
0100
0010
0100
,  // measure 82
0001
1000
0001
0000
0010
0000
0100
0000
1000
0001
1000
0000
0100
0010
0100
0000
,  // measure 83
1000
0100
1000
0100
1000
0000
0000
0000
0001
0010
0001
0010
0001
0000
0000
0000
,  // measure 84
1000
0001
1000
0000
0001
0100
0001
0000
1000
0000
1001
0000
0000
0000
0000
0000
,  // measure 85
0100
1000
0100
0000
1000
0001
1000
0000
0001
0010
0001
0000
1000
0001
1000
0000
,  // measure 86
0100
0001
1000
0010
0001
0100
0010
0000
,  // measure 87
1000
0001
1000
0000
0001
0100
0001
0000
1000
0010
1000
0000
0100
0010
0100
0000
,  // measure 88
1000
0100
0001
1000
0010
0001
1000
0010
,  // measure 89
0100
0010
0100
0000
0001
1000
0001
0000
1000
0100
1000
0000
0100
0010
0100
0000
,  // measure 90
1000
1000
0010
0100
0001
1000
0100
0000
,  // measure 91
0010
0001
0010
0000
0100
0010
0100
0000
1000
0010
1000
0000
0001
1000
0001
0000
,  // measure 92
0100
0000
0100
0000
0001
0000
0010
0000
0100
1000
0100
1000
0001
0000
0000
0000
,  // measure 93
1001
0000
1001
0000
0000
0000
0010
1000
0010
0000
1010
0000
0000
0000
0100
0001
,  // measure 94
0100
0000
0100
0000
0010
0000
0010
0000
0110
0000
0000
0110
0000
0000
0110
0000
,  // measure 95
0000
0000
1001
0000
0000
0000
0001
0010
0001
0000
0011
0000
0000
0000
0100
0000
,  // measure 96
0100
0100
0010
0010
0000
0101
1001
0000
,  // measure 97
1100
0000
1100
0000
0000
0000
1000
0001
1000
0000
1001
0000
0000
0000
0100
1000
,  // measure 98
0100
0000
0100
0000
0010
0000
0010
0000
0011
0000
0000
0011
0000
0000
0011
0000
,  // measure 99
0000
0000
1001
0000
1001
0000
0000
0000
0100
0010
0100
0010
0100
0000
0000
0000
,  // measure 100
0001
0010
0001
0010
0100
0010
0100
0000
1000
0010
1000
0010
0100
0010
0100
0010
,  // measure 101
2000
0000
0000
0000
,  // measure 102
3000
0000
0000
0000
;

//---------------dance-single - ----------------
#NOTES:
     dance-single:
     :
     Challenge:
     19:
     1.000,1.000,1.000,0.252,1.000: // measure 1
0000
0000
0000
0000
,  // measure 2
2200
0000
0000
0000
0000
0000
0000
3000
,  // measure 3
0020
0000
0000
0000
0000
0000
0000
0330
,  // measure 4
0011
0000
1001
0000
0000
1100
0101
0000
,  // measure 5
1001
0000
0000
0000
0110
0000
0000
0000
1001
0000
0000
0000
0000
0000
0000
0000
1001
0000
0000
0000
0110
0000
0000
0000
1001
0000
0000
0000
0110
0001
0010
0001
,  // measure 6
2000
0000
0000
0000
0000
0000
0000
0000
0000
3001
0001
1000
1000
0001
0001
0100
,  // measure 7
0110
0000
0000
1010
0000
0000
1001
0000
0000
0000
0011
0000
0100
0000
1000
0000
,  // measure 8
0010
0000
0000
0000
0010
0000
0000
0000
0010
0000
0000
0000
0100
0010
0100
0000
,  // measure 9
0101
0000
0000
0110
0000
0000
1010
0000
0000
0000
1001
0000
0100
0000
0010
0000
,  // measure 10
0001
0001
1001
1001
,  // measure 11
0011
0000
0000
0110
0000
0000
1100
0000
0000
0000
1001
0000
0010
0000
0100
0000
,  // measure 12
2000
0000
0000
0000
0010
0000
0000
0000
3010
0000
0000
0000
0100
0010
0100
0010
,  // measure 13
1000
0000
0000
0000
0100
0010
0100
0010
0001
0000
0000
0000
0100
0010
0100
0010
,  // measure 14
1000
0000
0010
1000
0010
0000
0100
0001
0200
0000
0000
0000
0000
0000
0300
0000
,  // measure 15
1001
0001
0010
0001
1000
0001
0010
0100
,  // measure 16
2000
0000
0010
0000
3020
0000
0100
0000
0230
0000
0001
0000
0301
1000
0100
1000
,  // measure 17
0001
0000
0010
0001
0010
0000
0100
0000
1000
0001
1000
0000
0001
0000
0100
0000
,  // measure 18
0002
0000
0010
0000
0023
0000
0100
0000
0130
0000
1000
0010
0100
0000
0010
0000
,  // measure 19
1001
1000
0010
1000
0001
0010
0100
0010
,  // measure 20
0002
0000
0100
0000
0203
0000
0010
0000
0320
0000
1000
0000
1030
0100
0010
0100
,  // measure 21
1000
0000
0001
0010
0001
0000
1000
0000
0010
0100
0010
0000
1000
0000
0100
0000
,  // measure 22
0020
0100
0230
1000
2300
0001
3001
0000
,  // measure 23
1000
0010
1000
0010
1000
0000
0001
0000
0010
0001
0010
0001
0010
0000
0100
0000
,  // measure 24
2000
0000
0010
0000
3020
0000
0100
0000
0230
0000
0001
0000
0301
1000
0010
1000
,  // measure 25
0001
0000
1000
0100
1000
0000
0001
0000
0100
0000
0001
0000
1000
0000
0100
0000
,  // measure 26
0020
0000
0100
0000
0130
0000
1000
0010
0100
0000
0000
0101
0000
0000
0101
0000
,  // measure 27
0001
1000
0001
1000
0001
0000
1000
0000
0010
0100
0010
0100
0010
0000
0100
0000
,  // measure 28
0002
0000
1000
0000
2003
0000
0100
0000
3200
0000
0010
0000
0310
0001
1000
0001
,  // measure 29
1000
0000
0100
0010
0001
0000
1000
0000
0010
0000
0100
0001
0010
0000
0001
0010
,  // measure 30
0100
1000
0010
0200
0002
0000
0000
0303
,  // measure 31
1001
1000
1010
0010
0110
0100
0101
0001
,  // measure 32
0100
0001
0100
0000
0010
0100
0010
0000
0100
0001
0100
0000
0001
0010
0100
0010
,  // measure 33
0001
1000
1100
0100
0110
0010
0011
0001
,  // measure 34
1000
0100
1000
0000
0001
1000
0001
0000
1000
0100
1000
0000
0010
0100
0001
0000
,  // measure 35
1001
1000
1010
0010
0110
0100
0101
0001
,  // measure 36
0010
0001
0010
0000
0100
0010
0100
0000
1000
0010
1000
0000
0001
0100
0010
0100
,  // measure 37
0001
1000
1100
0100
0110
0010
0011
0100
,  // measure 38
1000
0001
1000
0000
0001
0100
0001
0000
1001
0000
0000
0000
1001
0000
0000
0000
,  // measure 39
0101
0100
0110
0010
1010
1000
1001
0001
,  // measure 40
0010
0001
0010
0000
0100
0010
0100
0000
1000
0010
1000
0000
0100
0010
0001
0010
,  // measure 41
0100
1000
1010
0010
0110
0100
0101
0001
,  // measure 42
1000
0100
1000
0000
0010
0000
0100
0001
0010
0000
0000
0011
0000
0000
0011
0000
,  // measure 43
1001
1000
1100
0100
0110
0010
0011
1001
,  // measure 44
1000
0000
1010
0000
0010
0000
0110
0000
0100
0000
0101
0000
0001
1000
0100
1000
,  // measure 45
0001
0100
0110
0010
1010
1000
1001
0001
,  // measure 46
0011
0000
0010
0000
0110
0000
0100
0000
1000
0001
0010
0001
1000
0000
0100
0000
,  // measure 47
1100
0010
0001
1000
0010
0100
0001
1000
0001
0100
1000
0000
0001
0010
1000
0000
,  // measure 48
0001
0010
0100
1000
0001
0100
0010
1000
0001
0100
1000
0000
0001
0010
1000
0000
,  // measure 49
0001
1000
0100
0010
0001
1000
0010
0100
0001
0100
1000
0000
0001
0010
1000
0000
,  // measure 50
0001
1000
0010
0100
0001
1000
0100
0010
0001
0100
1000
0000
0001
0010
1000
0000
,  // measure 51
1001
0001
0000
0010
0011
0000
0100
1000
1010
0000
0110
0000
1010
0000
0110
0000
,  // measure 52
1001
0001
0000
0010
0011
0000
0100
1000
1010
0000
0110
0000
1010
0000
0110
0000
,  // measure 53
1001
1000
0000
0010
1010
0000
0100
0001
0011
0000
0110
0000
0011
0000
0110
0000
,  // measure 54
1001
1000
0000
0010
1010
0000
0100
0001
0011
0000
0110
0000
0011
0000
0110
0000
,  // measure 55
0001
0000
0000
0100
0000
0000
1000
0000
0000
0100
0000
0000
0010
0000
0000
1000
0000
0000
0000
0000
0000
0001
0000
0000
1000
0000
0000
0010
0000
0000
0100
0000
0001
0000
0100
0000
0001
0000
1000
0000
0100
0000
0010
0000
0001
0000
0100
0000
,  // measure 56
0020
0000
0000
0000
0100
0000
0000
0000
0100
0000
0000
0000
0130
0000
0000
0000
1002
0000
0000
1000
0000
0000
1003
0000
0001
0010
0001
0000
1000
0010
1000
0000
,  // measure 57
0001
0100
0001
0100
0010
0000
0100
0000
0001
0010
0001
0000
1000
0100
1000
0000
,  // measure 58
0001
0000
1000
0100
0010
0001
0200
0000
0000
0000
0310
0000
1000
0100
0010
0000
,  // measure 59
0001
0100
0010
0100
0001
0000
0100
0001
0010
0001
0100
0000
0010
0000
1000
0000
,  // measure 60
1000
0000
0100
0000
0100
0000
0010
0000
0001
1000
0100
1000
0001
1000
0100
0000
,  // measure 61
1001
0000
0010
0100
0010
0000
1000
0000
1100
0000
0000
1100
0000
0000
1100
0000
,  // measure 62
1001
0000
0010
0100
0010
0000
1000
0010
0100
0000
0000
0101
0000
0000
0101
0000
,  // measure 63
0001
0010
0100
0010
0001
0000
0100
0010
0001
0010
0100
0000
0001
0010
0100
1000
,  // measure 64
0010
0000
0100
0001
0000
1000
0010
0000
1000
0010
0100
0010
1000
0010
0100
0000
,  // measure 65
0001
0100
0001
0100
0010
0000
1000
0000
0100
0010
0100
0010
0001
0000
0100
0000
,  // measure 66
0010
0000
1000
0100
0010
0001
0200
0000
0000
0000
0310
0000
1000
0000
1000
0000
,  // measure 67
0100
0010
0001
0010
0100
0000
1000
0100
0010
0100
1000
0000
0001
0000
0100
0000
,  // measure 68
0100
0000
0010
0000
0010
0000
0100
0000
0001
1000
0100
1000
0001
1000
0100
0000
,  // measure 69
1001
0000
1000
0010
1000
0000
0001
0010
0100
0000
0000
1100
0000
0000
1100
0000
,  // measure 70
1001
0000
0001
0100
0001
0000
1000
0100
0010
0000
0000
0011
0000
0000
0011
0000
,  // measure 71
0001
1000
0001
0010
0100
0000
1000
0000
0001
0100
0001
0010
0100
1000
0020
0000
,  // measure 72
0000
0000
0130
0000
0110
0000
0101
0000
0001
1000
0100
1000
0001
1000
0100
0000
,  // measure 73
1001
0001
0011
0010
0110
0100
1100
1000
,  // measure 74
1001
0001
0101
0100
0110
0010
1010
1000
,  // measure 75
0010
0100
0010
0100
0001
1000
0100
0000
0010
0001
0010
0001
1000
0010
1000
0000
,  // measure 76
0100
0010
0001
1000
0100
0010
0100
1000
0020
0000
0000
0000
0000
0000
0030
0000
,  // measure 77
1000
0001
1000
0000
0001
0010
0001
0000
1000
0010
1000
0000
0001
0000
0010
0000
,  // measure 78
0100
1000
0010
0000
0100
0001
0010
0000
0001
0010
0100
0000
1000
0010
0100
0010
,  // measure 79
1000
0100
1000
0000
0001
0010
0001
0000
1000
0001
1000
0000
0010
0000
0100
0000
,  // measure 80
0001
1000
0100
0000
1000
0100
0010
0000
0100
0010
0001
0000
0100
0000
0110
0000
,  // measure 81
0010
1000
0010
0000
0100
0010
0100
0000
0001
0100
0001
0000
1000
0000
0100
0000
,  // measure 82
0010
0100
1000
0000
0001
0100
0010
0000
0100
0001
0010
0000
0100
1000
0010
1000
,  // measure 83
0100
0010
0100
0010
0001
0100
0001
0100
0010
1000
0010
1000
0001
0010
1000
0010
,  // measure 84
0001
1000
0100
1000
0001
0100
1000
0100
0001
0000
0101
0000
0000
0000
0000
0000
,  // measure 85
0100
0001
0100
0001
1000
0100
1000
0100
0001
0100
1000
0001
0100
0010
0100
0000
,  // measure 86
0001
1000
0010
0000
0100
0001
1000
0000
0100
0010
0001
0000
1000
0100
0010
0000
,  // measure 87
0001
0100
0001
0100
0001
1000
0001
0100
1000
0100
0001
1000
0100
0010
0100
0000
,  // measure 88
1000
0001
0010
0000
0100
1000
0001
0000
1000
0100
0010
0000
0100
0010
0001
0000
,  // measure 89
0100
0001
0100
0001
1000
0100
1000
0100
0001
0100
1000
0001
0010
0001
1000
0000
,  // measure 90
0001
1000
0100
0000
0010
0100
1000
0000
0010
0100
0001
0000
0100
0001
0010
0000
,  // measure 91
0100
1000
0100
1000
0001
0100
0001
0100
1000
0100
0001
1000
0010
0100
0001
0100
,  // measure 92
0010
1000
0010
1000
0001
0010
1000
0010
0001
1000
0010
0100
0001
0000
0000
0000
,  // measure 93
1001
0000
1100
0000
0000
0000
0010
0001
0100
0000
0110
0000
0000
0000
0010
0100
,  // measure 94
1000
0000
0100
0010
0001
0010
0100
0000
1010
0000
0000
0110
0000
0000
0101
0000
,  // measure 95
0000
0000
1001
0000
1000
0000
0010
0100
0001
0000
0101
0000
0000
0000
0110
0000
,  // measure 96
0100
1000
0010
0000
0100
0001
0010
0100
1000
0000
1100
0000
1001
0000
0000
0000
,  // measure 97
0101
0000
1001
0000
0000
0000
1000
0100
0010
0000
0110
0000
0000
0000
0010
0100
,  // measure 98
0001
0000
0100
0001
0010
0001
0100
0000
1010
0000
0000
0110
0000
0000
0101
0000
,  // measure 99
0000
0000
0110
0000
1001
0000
0000
0000
1000
0100
0010
0001
0100
0000
0000
0000
,  // measure 100
0001
0010
0100
1000
0001
0100
0010
0100
0001
1000
0001
0100
1000
0100
0001
0010
,  // measure 101
0200
0000
0000
0000
,  // measure 102
0300
0000
0000
0000
;

//---------------dance-single - ----------------
#NOTES:
     dance-single:
     :
     Beginner:
     6:
     0.253,0.344,0.168,0.000,0.000:
0000
0000
0000
0000
,
1001
0000
0000
0000
,
0010
0000
0000
0000
,
1001
0000
0000
0000
,
0010
0000
0000
0000
,
1001
0000
0000
0000
,
1001
0000
0000
0000
,
0000
0000
0000
0000
,
0110
0000
0000
0000
,
0000
0000
0000
0000
,
1001
0000
0000
0000
,
0000
0000
0000
0000
,
0110
0000
0010
0000
,
0010
0000
0000
0000
,
1000
0000
0001
0000
,
1000
0000
0001
0000
,
1000
0000
0100
0000
,
1000
0000
0100
0000
,
0010
0000
0001
0000
,
0010
0000
0001
0000
,
0100
0000
0010
0000
,
0100
0000
0010
0000
,
1000
0000
0001
0000
,
1000
0000
0001
0000
,
0010
0000
0100
0000
,
0010
0000
0100
0000
,
1000
0000
0010
0000
,
1000
0000
0010
0000
,
0100
0000
0001
0000
,
0100
0000
0001
0000
,
1000
0000
0100
0000
,
0010
0000
0001
0000
,
1000
0000
1000
0000
,
0010
0000
0100
0000
,
0010
0000
0010
0000
,
0100
0000
0001
0000
,
1000
0000
1000
0000
,
0100
0000
0010
0000
,
0001
0000
0001
0000
,
0100
0000
0010
0000
,
1000
0000
1000
0000
,
0001
0000
0100
0000
,
0010
0000
0010
0000
,
0100
0000
0100
0000
,
0001
0000
0001
0000
,
1000
0000
1000
0000
,
1001
0000
0000
0000
,
0110
0000
0000
0000
,
1001
0000
0000
0000
,
0110
0000
0000
0000
,
1001
0001
0001
0000
,
1000
1000
1000
0000
,
0100
0100
0100
0000
,
0010
0010
0010
0000
,
0001
0000
0000
0000
,
0100
0000
0000
0000
,
1001
0000
0001
0000
,
0001
0000
1000
0000
,
0100
0000
0010
0000
,
0001
1000
0001
0000
,
1000
0000
1001
0000
,
0001
0000
1001
0000
,
1000
0000
0010
0100
,
0010
0000
1000
0000
,
0001
0000
1000
0000
,
0100
1000
0100
0000
,
0010
0000
0001
0000
,
0100
0010
0100
0000
,
0001
0000
1001
0000
,
1000
0000
1001
0000
,
0001
0000
0100
0010
,
0100
0000
0001
0000
,
1000
0000
0100
0000
,
0010
0000
0001
0000
,
1000
0001
1000
0000
,
0001
1000
0001
0000
,
0010
0000
0100
0000
,
1000
0010
1000
0000
,
0010
0000
0100
0000
,
0001
1000
0001
0000
,
0010
0000
0100
0000
,
1000
0010
1000
0000
,
0010
0000
0100
0000
,
0010
0100
0010
0000
,
1000
0001
1000
0001
,
1000
0001
1000
0000
,
0001
1000
0001
1000
,
0001
1000
0001
0000
,
0010
0001
0010
0001
,
0010
0001
0010
0000
,
0100
1000
0100
1000
,
0100
1000
0100
0000
,
1001
0000
0001
0000
,
0100
0010
0100
0000
,
1001
0000
1000
0000
,
0010
0100
0010
0000
,
1000
0000
1001
0000
,
0001
0100
0001
0000
,
1000
0000
1001
0000
,
0001
0010
0001
0010
,
1001
0000
0000
0000
;
