#TITLE:量子の海のリントヴルム;
#SUBTITLE:;
#ARTIST:黒猫ダンジョン;
#TITLETRANSLIT:RYOUSHI NO UMI NO LINDWURM;
#SUBTITLETRANSLIT:;
#ARTISTTRANSLIT:KURONEKO DUNGEON;
#CREDIT:DigiMindAxel;
#BANNER:RYOUSHI NO UMI NO LINDWURM.png;
#BACKGROUND:RYOUSHI NO UMI NO LINDWURM-bg.png;
#LYRICSPATH:;
#CDTITLE:jubeat.png;
#MUSIC:RYOUSHI NO UMI NO LINDWURM.ogg;
#METERTYPE:DDR X;
#OFFSET:-0.643;
#SAMPLESTART:32.337;
#SAMPLELENGTH:12.000;
#SELECTABLE:YES;
#BPMS:0.000=280.000;
#STOPS:;
#BGCHANGES:-6.000=RYOUSHI NO UMI NO LINDWURM.avi=1.000=1=1=0,
99999=-nosongbg-=1.000=0=0=0 // don't automatically add -songbackground-
;

//---------------dance-single - ----------------
#NOTES:
     dance-single:
     :
     Hard:
     15:
     0.850,0.822,0.292,0.265,0.000: // measure 1
0000
0000
0000
0000
,  // measure 2
0000
0000
0000
0000
,  // measure 3
0000
0000
0000
0000
,  // measure 4
0000
0000
0000
0000
,  // measure 5
0000
0000
0000
0000
,  // measure 6
0002
0000
0000
1003
0000
0100
0000
1000
,  // measure 7
0000
0010
0100
0000
0001
0000
1000
0001
,  // measure 8
0000
0100
0000
0100
0000
0001
1000
0100
,  // measure 9
0010
0001
1000
0100
1000
0000
0001
0100
,  // measure 10
0010
0100
0002
0000
0000
0000
1003
0100
,  // measure 11
0010
0100
2000
0000
0000
3001
0000
0010
,  // measure 12
0000
0001
0000
0100
0010
0000
1000
0000
,  // measure 13
0001
1000
0000
0100
0000
0100
0000
1000
,  // measure 14
0001
0010
0100
1000
0001
0010
0001
0000
,  // measure 15
1000
0100
0010
0100
2000
0000
0000
0000
,  // measure 16
3001
0100
0010
0100
0002
0000
0000
0103
,  // measure 17
0000
0010
0000
1000
0001
0000
1001
0000
,  // measure 18
0000
0000
2001
0000
0000
3010
0000
0100
,  // measure 19
0000
0001
1000
0000
1001
0000
0000
0000
,  // measure 20
1002
0000
0203
0000
,  // measure 21
0320
0000
2030
0000
,  // measure 22
3001
0010
0100
1000
,  // measure 23
0001
0100
0010
1000
,  // measure 24
1001
0000
1000
0001
0010
0100
1000
0001
,  // measure 25
0100
0000
0010
1000
0100
0010
0100
1000
,  // measure 26
0010
0000
0100
0001
0010
0100
1000
0001
,  // measure 27
0100
0010
0100
0010
0100
0010
0100
0000
,  // measure 28
1001
0000
0000
1000
0000
0010
1000
0000
,  // measure 29
0001
0010
0000
0001
1000
0100
0010
0001
,  // measure 30
0000
0100
0001
0000
1000
0100
0000
1000
,  // measure 31
0001
0010
0100
1000
0000
0001
0100
0000
,  // measure 32
0001
1000
0000
0100
1000
0100
0010
0001
,  // measure 33
0000
1000
0100
0000
1000
0001
0000
1000
,  // measure 34
0001
0100
0000
0100
0000
0110
0000
0000
,  // measure 35
1000
0001
0100
0010
0100
0001
0000
0000
,  // measure 36
1000
0100
0000
0100
0000
0110
0000
0000
,  // measure 37
0001
1000
0010
0100
0010
1000
0000
0000
,  // measure 38
0010
0100
0010
1000
0000
0010
1000
0000
,  // measure 39
0010
0100
0010
0000
1000
0000
0001
0200
,  // measure 40
0000
0000
0001
0000
0000
0301
0000
0100
,  // measure 41
0010
0000
1000
0100
0000
1000
0001
0000
,  // measure 42
0100
0010
0100
0001
0000
0100
0001
0000
,  // measure 43
0100
0010
0100
0000
0001
0000
1000
0020
,  // measure 44
0000
0000
1000
0000
0000
1030
0000
0010
,  // measure 45
0100
0001
0100
0001
0100
0010
1000
0010
,  // measure 46
1000
0001
0000
0001
0010
0000
0010
0100
,  // measure 47
0000
0100
1000
0000
1000
0001
0100
0000
,  // measure 48
0001
0100
0000
0100
0010
0000
1000
0100
,  // measure 49
0010
0001
0010
0200
0000
0000
1300
0000
,  // measure 50
0001
1000
0000
1000
0010
0000
0010
0100
,  // measure 51
0000
0100
0001
0000
0001
1000
0010
0000
,  // measure 52
1000
0010
0000
0010
0100
0000
0001
0010
,  // measure 53
0100
1000
0100
0020
0000
0000
0031
0000
,  // measure 54
0100
0010
0100
0001
0010
0000
0010
0000
,  // measure 55
0001
0010
0100
1000
0001
0000
1000
0000
,  // measure 56
0010
0100
0010
1000
0100
0000
0100
0000
,  // measure 57
1000
0100
0010
0002
0000
0000
1003
0000
,  // measure 58
0001
0100
0001
0000
1000
0100
0000
1000
,  // measure 59
0100
0000
0010
0001
0000
0100
0000
0010
,  // measure 60
0000
1000
1000
0001
,  // measure 61
0100
0001
0100
0001
1000
0010
0100
0010
,  // measure 62
1000
0100
0010
0002
0000
0000
1003
0000
,  // measure 63
0010
1000
0010
1000
0001
0010
0100
0010
,  // measure 64
0001
0010
0100
2000
0000
0000
3001
0000
,  // measure 65
1000
0010
1000
0000
0001
0010
0000
0001
,  // measure 66
0010
0000
0100
1000
0000
0010
0000
0100
,  // measure 67
0000
0001
0001
1000
,  // measure 68
1002
0000
0000
1003
,  // measure 69
0001
0010
0100
1000
0001
0000
0100
0001
,  // measure 70
0010
0100
1000
0000
0001
1000
0100
0010
,  // measure 71
0001
0000
0100
0001
0010
0100
1000
0000
,  // measure 72
0000
0000
0000
0000
,  // measure 73
0000
0001
0100
0010
1000
0000
0200
0000
,  // measure 74
0000
1000
0000
1300
0000
0010
0100
0000
,  // measure 75
0001
0100
0001
1000
0100
0010
0100
1000
,  // measure 76
0010
0000
0100
0001
0010
0100
1000
0001
,  // measure 77
0000
1001
0000
1000
0010
0100
0001
0010
,  // measure 78
0100
1000
0000
1001
0000
0001
0200
0000
,  // measure 79
0000
0001
0000
0301
0000
0100
0010
0000
,  // measure 80
1000
0010
1000
0001
0010
0100
0010
0001
,  // measure 81
0100
0000
0010
1000
0100
0010
0001
1000
,  // measure 82
0000
1001
0000
0001
0100
0010
1000
0100
,  // measure 83
0010
0001
1000
0100
1000
0010
0100
0000
,  // measure 84
0001
0010
0100
0000
0100
0000
1000
0100
,  // measure 85
0010
0001
0100
0010
1000
0000
0001
0000
,  // measure 86
0001
0000
1000
0000
1000
0000
0001
0010
,  // measure 87
0100
1000
0010
0100
0001
0000
0010
0100
,  // measure 88
0010
0001
0000
0001
0000
1000
0100
0010
,  // measure 89
0100
1000
0000
1000
0000
0001
0010
0001
,  // measure 90
1000
0010
1000
0010
1000
0100
0010
0001
,  // measure 91
1000
0010
0100
0010
1000
0000
0001
0000
,  // measure 92
0001
0010
0100
0000
0100
0000
1000
0100
,  // measure 93
0010
0001
0100
0010
1000
0000
1001
0000
,  // measure 94
0001
0000
1001
0000
1000
0000
0001
0010
,  // measure 95
0100
1000
0010
0100
0001
0000
0010
0100
,  // measure 96
0010
0001
0000
0001
0000
1000
0100
0010
,  // measure 97
0100
1000
0000
1000
0000
0001
0010
0001
,  // measure 98
1000
0010
1000
0001
0010
0100
1000
0010
,  // measure 99
0100
0010
1000
0100
0010
0000
0101
0000
,  // measure 100
0000
1100
0000
0000
2002
0000
0000
0000
,  // measure 101
0000
0000
0000
3003
0000
0000
0101
0000
,  // measure 102
0000
0110
0000
0000
0101
0000
0000
2002
,  // measure 103
0000
0000
0000
3003
0000
0000
1100
0000
,  // measure 104
0000
0101
0000
0000
2002
0000
0000
0000
,  // measure 105
0000
0000
0000
3003
0000
0000
1100
0000
,  // measure 106
0000
0110
0000
0000
1100
0000
0000
2002
,  // measure 107
0000
0000
0000
3003
0000
0000
0001
0100
,  // measure 108
0000
0010
0100
0010
1000
0000
1000
0100
,  // measure 109
1000
0000
0100
0000
0100
0010
0100
0000
,  // measure 110
0010
0000
0010
0001
0010
0000
0001
0010
,  // measure 111
0001
0010
0100
1000
0001
0000
0001
0010
,  // measure 112
0001
0000
0010
0000
0010
0100
0010
0000
,  // measure 113
0100
0000
0100
1000
0100
0000
1000
0100
,  // measure 114
1000
0100
0010
0001
0100
0000
0100
0001
,  // measure 115
0010
0000
0100
0000
0100
1000
0001
0000
,  // measure 116
0100
0000
0100
0001
0010
0000
0001
0010
,  // measure 117
0100
1000
0001
0100
0001
0000
0001
1000
,  // measure 118
0100
0000
1100
0000
1000
0001
0010
0000
,  // measure 119
0011
0000
0100
1000
0010
0100
0010
1000
,  // measure 120
0100
0001
0100
1000
0001
0000
0000
0000
,  // measure 121
0000
0110
0000
0000
0000
0000
0101
0000
,  // measure 122
0000
0000
0000
2020
0000
0000
0000
0000
,  // measure 123
0000
0000
0000
0000
,  // measure 124
0000
0000
0000
0000
,  // measure 125
3030
0000
0000
0000
;

//---------------dance-single - ----------------
#NOTES:
     dance-single:
     :
     Medium:
     13:
     0.624,0.713,0.389,0.283,0.000: // measure 1
0000
0000
0000
0000
,  // measure 2
0000
0000
0000
0000
,  // measure 3
0000
0000
0000
0000
,  // measure 4
0000
0000
0000
0000
,  // measure 5
0000
0000
0000
0000
,  // measure 6
1000
0000
0000
0001
0000
0100
0000
0001
,  // measure 7
0000
1000
0001
0000
1000
0000
0001
0100
,  // measure 8
0000
0001
0000
1000
0000
0001
1000
0000
,  // measure 9
0100
0010
1001
0001
,  // measure 10
0100
0001
0200
0000
0000
0000
0300
0000
,  // measure 11
0010
1000
0020
0000
0000
1030
0000
0010
,  // measure 12
0000
1000
0000
0001
1000
0000
0001
0000
,  // measure 13
1000
0010
0000
1000
0000
0001
0000
1000
,  // measure 14
0001
0010
0100
1001
,  // measure 15
1000
0000
0010
1000
0020
0000
0000
0000
,  // measure 16
0030
0000
0100
0001
0200
0000
0000
0301
,  // measure 17
0000
1000
0000
0001
1000
0000
1001
0000
,  // measure 18
0000
0000
0020
0000
0000
1030
0000
0010
,  // measure 19
0000
1000
0001
0000
1001
0000
0000
0000
,  // measure 20
1000
0000
0100
0000
,  // measure 21
0010
0000
0001
0000
,  // measure 22
1000
0000
0100
0000
,  // measure 23
0010
0000
0001
0000
,  // measure 24
1000
0010
0100
0001
,  // measure 25
0010
0100
1000
0001
,  // measure 26
0010
0100
1000
0010
,  // measure 27
0100
0001
0010
0000
,  // measure 28
0001
0000
0000
0100
0000
0000
0001
0000
,  // measure 29
0000
1000
0000
0010
0100
0000
0010
0100
,  // measure 30
0000
0010
0100
0000
0000
0001
0000
0000
,  // measure 31
1000
0000
0000
0010
0000
0000
1000
0000
,  // measure 32
0000
0001
0000
0100
0010
0000
0100
0010
,  // measure 33
0000
0100
0010
0000
0000
1000
0000
0000
,  // measure 34
1002
0000
0000
0100
0000
0103
0000
0000
,  // measure 35
0001
1000
0001
1000
0001
1000
0000
0000
,  // measure 36
2001
0000
0000
0010
0000
3010
0000
0000
,  // measure 37
1000
0001
1000
0001
1000
0001
0000
0000
,  // measure 38
0001
0100
0010
1000
,  // measure 39
0100
0010
0001
1000
,  // measure 40
0010
0100
0010
0100
,  // measure 41
0001
0010
0100
1000
,  // measure 42
0010
0100
0001
1000
,  // measure 43
0100
0010
0001
0100
,  // measure 44
0010
0100
0010
1000
,  // measure 45
0001
1000
0001
0000
1000
0100
1000
0000
,  // measure 46
0001
0000
0000
0101
0000
0000
1000
0000
,  // measure 47
0000
1100
0000
0000
1001
0000
0000
0000
,  // measure 48
1000
0000
0000
0110
0000
0000
0001
0000
,  // measure 49
0100
0000
0010
0100
0000
0000
0000
0000
,  // measure 50
0001
0000
0000
0011
0000
0000
1000
0000
,  // measure 51
0000
1010
0000
0000
1001
0000
0000
0000
,  // measure 52
0001
0000
0000
0110
0000
0000
1000
0000
,  // measure 53
0010
0000
0100
0010
0000
0000
0000
0000
,  // measure 54
1000
0100
0001
0100
,  // measure 55
1000
0000
0010
0200
0000
0000
0000
0000
,  // measure 56
0301
0100
1000
0100
,  // measure 57
0001
0000
0100
0020
0000
0000
0000
0000
,  // measure 58
1030
0000
0000
0000
0001
0000
0000
0101
,  // measure 59
0000
0000
1000
0000
0000
0010
0000
1000
,  // measure 60
0000
0001
0001
0001
,  // measure 61
1000
0100
0001
0100
,  // measure 62
1000
0000
0010
0200
0000
0000
0000
0000
,  // measure 63
0301
0010
1000
0010
,  // measure 64
0001
0000
0100
0020
0000
0000
0000
0000
,  // measure 65
1030
0000
0000
0000
0001
0000
0000
0011
,  // measure 66
0000
0000
1000
0000
0000
0100
0000
1000
,  // measure 67
0000
0001
0001
1000
,  // measure 68
0020
0000
0000
1030
,  // measure 69
0000
1100
0000
0000
0110
0000
0000
0011
,  // measure 70
0000
0000
0001
0000
0000
0011
0000
0000
,  // measure 71
0110
0000
0000
1100
0000
0000
2000
0000
,  // measure 72
0000
0000
0000
0000
,  // measure 73
3000
0000
0000
0001
,  // measure 74
0000
1000
0000
0100
0000
1000
0001
0000
,  // measure 75
0010
0100
1000
0001
,  // measure 76
0100
0000
0120
0000
0000
0000
0000
1000
,  // measure 77
0000
1030
0000
0000
0210
0000
0000
0000
,  // measure 78
0000
0001
0000
0301
0000
0000
1000
0000
,  // measure 79
0000
0001
0000
0010
0000
0001
1000
0000
,  // measure 80
0100
0010
0001
1000
,  // measure 81
0010
0000
0120
0000
0000
0000
0000
1000
,  // measure 82
0000
1030
0000
0000
0210
0000
0000
0000
,  // measure 83
0301
1000
0001
1000
0001
1000
0001
0000
,  // measure 84
0010
0000
1000
0000
0010
0000
0001
0010
,  // measure 85
0100
1000
0001
0000
0100
0000
0001
0000
,  // measure 86
0001
0000
1000
0000
1000
0000
0010
0100
,  // measure 87
0010
0100
0010
0100
0000
0001
2000
0000
,  // measure 88
0000
0100
0000
3100
0000
1000
0002
0000
,  // measure 89
0000
0010
0000
0013
0000
0001
1000
0000
,  // measure 90
0100
0000
0010
0000
0001
0000
0100
0010
,  // measure 91
0100
0000
0001
1000
0100
1000
0001
0000
,  // measure 92
0100
0000
1000
0000
0100
0000
0001
0010
,  // measure 93
0100
1000
0001
0000
0100
0000
0001
0000
,  // measure 94
0001
0000
1000
0000
1000
0000
0010
0100
,  // measure 95
0010
0100
0010
0100
0000
0001
2000
0000
,  // measure 96
0000
0100
0000
3100
0000
1000
0002
0000
,  // measure 97
0000
0010
0000
0013
0000
0001
1000
0000
,  // measure 98
0100
0000
0010
0000
0001
0000
1000
0100
,  // measure 99
1000
0100
0010
0001
1000
0000
0110
0000
,  // measure 100
0000
0110
0000
0000
2002
0000
0000
0000
,  // measure 101
0000
0000
0000
3003
0000
0000
0101
0000
,  // measure 102
0000
1010
0000
0000
0101
0000
0000
2002
,  // measure 103
0000
0000
0000
3003
0000
0000
0110
0000
,  // measure 104
0000
0110
0000
0000
2002
0000
0000
0000
,  // measure 105
0000
0000
0000
3003
0000
0000
1010
0000
,  // measure 106
0000
0101
0000
0000
1010
0000
0000
2002
,  // measure 107
0000
0000
0000
3003
0000
0000
2001
0000
,  // measure 108
0000
0000
3001
0100
,  // measure 109
1000
0100
0001
0010
,  // measure 110
1000
0000
0010
0000
0001
0000
0100
0010
,  // measure 111
0000
0100
0000
0001
1000
0000
0100
0000
,  // measure 112
0001
0100
1000
0010
,  // measure 113
0001
0000
0010
0000
1000
0000
0010
0100
,  // measure 114
0000
0010
0000
1000
0001
0000
0010
0000
,  // measure 115
1000
0010
0001
0100
,  // measure 116
1000
0000
0100
0000
0001
0000
0100
0010
,  // measure 117
0000
0100
0000
0001
1000
0000
0100
0000
,  // measure 118
0001
0100
1000
0010
,  // measure 119
0001
0000
0010
0000
1000
0000
0010
0100
,  // measure 120
0000
0010
0000
1000
0001
0000
0000
0000
,  // measure 121
0000
1001
0000
0000
0000
0000
0110
0000
,  // measure 122
0000
0000
0000
0220
0000
0000
0000
0000
,  // measure 123
0000
0000
0000
0000
,  // measure 124
0000
0000
0000
0000
,  // measure 125
0330
0000
0000
0000
;

//---------------dance-single - ----------------
#NOTES:
     dance-single:
     :
     Easy:
     10:
     0.436,0.548,0.186,0.239,0.000: // measure 1
0000
0000
0000
0000
,  // measure 2
0000
0000
0000
0000
,  // measure 3
0000
0000
0000
0000
,  // measure 4
0000
0000
0000
0000
,  // measure 5
0000
0000
0000
0000
,  // measure 6
0001
0000
0000
1000
0000
0100
0000
1000
,  // measure 7
0000
0000
0001
0010
,  // measure 8
0100
1000
0001
1000
,  // measure 9
0001
0000
2002
0000
,  // measure 10
0003
0000
3020
0000
,  // measure 11
0030
0000
1000
0000
0000
0001
0000
0010
,  // measure 12
0000
0001
0000
0000
0000
0000
1000
0000
,  // measure 13
0100
0010
0001
1000
,  // measure 14
0001
1000
0000
2002
,  // measure 15
0000
3000
0000
0203
,  // measure 16
0000
0000
0000
0000
0301
0000
0000
1000
,  // measure 17
0000
0010
0000
1000
0000
0000
1001
0000
,  // measure 18
0000
0000
1000
0000
0000
0001
0000
0100
,  // measure 19
0000
0001
0000
0000
1001
0000
0000
0000
,  // measure 20
2001
0000
0000
0000
,  // measure 21
0000
0000
0000
0000
,  // measure 22
3002
0000
0000
0000
,  // measure 23
0000
0000
0000
0000
,  // measure 24
1003
0000
1100
0000
,  // measure 25
1100
0000
0011
0000
,  // measure 26
0011
0000
1001
0000
,  // measure 27
0110
0000
1001
0000
,  // measure 28
1000
0000
0000
0100
0000
0000
0010
0000
,  // measure 29
0000
0001
0000
0000
1000
0000
0000
0100
,  // measure 30
0000
0000
0010
0000
0000
0001
0000
0000
,  // measure 31
1000
0000
0000
0010
0000
0000
0100
0000
,  // measure 32
0000
0001
0000
0000
1000
0000
0000
0010
,  // measure 33
0000
0000
0100
0000
0000
0001
0000
0000
,  // measure 34
2000
0000
0000
0000
,  // measure 35
3001
0000
0000
0000
,  // measure 36
0002
0000
0000
0000
,  // measure 37
1003
0000
0000
0000
,  // measure 38
0100
1000
0100
1000
,  // measure 39
0100
1000
0001
1000
,  // measure 40
0100
0010
0001
1000
,  // measure 41
0001
1000
0001
0000
,  // measure 42
0100
0001
0100
0001
,  // measure 43
0100
0001
1000
0001
,  // measure 44
0010
0100
1000
0001
,  // measure 45
1000
0001
1000
0000
,  // measure 46
0001
0000
0000
0010
0000
0000
0100
0000
,  // measure 47
0000
1000
0000
0000
0001
0000
0000
0000
,  // measure 48
1000
0000
0000
0001
0000
0000
0100
0000
,  // measure 49
0010
0100
0000
0000
,  // measure 50
0001
0000
0000
0010
0000
0000
0100
0000
,  // measure 51
0000
1000
0000
0000
0001
0000
0000
0000
,  // measure 52
1000
0000
0000
0001
0000
0000
0100
0000
,  // measure 53
0010
0100
0000
0000
,  // measure 54
0001
0100
0001
1000
,  // measure 55
0100
0010
0001
0000
,  // measure 56
1000
0010
1000
0001
,  // measure 57
0010
0100
1000
0000
,  // measure 58
1001
0000
0000
0000
0001
0000
0000
0010
,  // measure 59
0000
0000
0100
0000
0000
1000
0000
0000
,  // measure 60
0000
0010
0100
0000
,  // measure 61
0001
1000
0001
1000
,  // measure 62
0001
0010
0100
0000
,  // measure 63
1000
0001
1000
0001
,  // measure 64
1000
0100
0010
0000
,  // measure 65
1001
0000
0000
0000
1000
0000
0000
0100
,  // measure 66
0000
0000
0010
0000
0000
0001
0000
0000
,  // measure 67
0000
0100
0010
0000
,  // measure 68
2000
0000
0000
3001
,  // measure 69
0000
0010
0000
0000
0100
0000
0000
1000
,  // measure 70
0000
0000
0001
0000
0000
0100
0000
0000
,  // measure 71
0010
0000
0000
1000
0000
0000
0002
0000
,  // measure 72
0000
0000
0000
0000
,  // measure 73
0003
0000
0000
1000
,  // measure 74
0010
1000
0001
0010
,  // measure 75
0100
0010
0001
1000
,  // measure 76
0001
2002
0000
0000
,  // measure 77
3003
0000
2002
0000
,  // measure 78
0000
3003
0000
0001
,  // measure 79
0100
0001
1000
0100
,  // measure 80
0010
0100
1000
0001
,  // measure 81
1000
2002
0000
0000
,  // measure 82
3003
0000
2002
0000
,  // measure 83
0000
3003
0000
1000
,  // measure 84
0010
1000
0010
0100
,  // measure 85
0001
0010
0100
1000
,  // measure 86
1000
0001
0001
0010
,  // measure 87
0100
1000
0000
0001
,  // measure 88
0100
0001
0000
1000
,  // measure 89
0010
1000
0000
0001
,  // measure 90
0100
0001
0100
0010
,  // measure 91
1000
0010
1000
0010
,  // measure 92
0100
0001
0010
0100
,  // measure 93
1000
0001
0100
0001
,  // measure 94
0001
1000
1000
0010
,  // measure 95
0100
0010
0000
1000
,  // measure 96
0100
1000
0000
0001
,  // measure 97
0010
0001
0000
1000
,  // measure 98
0100
1000
0100
0010
,  // measure 99
0001
0010
0001
1000
,  // measure 100
0000
1000
0000
0000
2002
0000
0000
0000
,  // measure 101
0000
0000
0000
3003
0000
0000
0001
0000
,  // measure 102
0000
0010
0000
0000
0100
0000
0000
1000
,  // measure 103
0000
0000
0000
0001
,  // measure 104
0000
0001
0000
0000
2002
0000
0000
0000
,  // measure 105
0000
0000
0000
3003
0000
0000
1000
0000
,  // measure 106
0000
0100
0000
0000
0010
0000
0000
0001
,  // measure 107
0000
0000
0000
2000
,  // measure 108
0000
0000
3001
0000
,  // measure 109
0001
0100
0000
0010
,  // measure 110
1000
0000
1000
0001
,  // measure 111
0000
0000
1000
0000
,  // measure 112
1000
0010
0000
0100
,  // measure 113
0001
0000
0001
1000
,  // measure 114
0000
0000
0001
0000
,  // measure 115
0001
0010
0000
0100
,  // measure 116
1000
0000
1000
0001
,  // measure 117
0000
0000
1000
0000
,  // measure 118
1000
0100
0000
0010
,  // measure 119
0001
0000
0001
1000
,  // measure 120
0000
0000
0001
0000
,  // measure 121
0000
0100
0000
0000
0000
0000
0010
0000
,  // measure 122
0000
0000
0000
2002
0000
0000
0000
0000
,  // measure 123
0000
0000
0000
0000
,  // measure 124
0000
0000
0000
0000
,  // measure 125
3003
0000
0000
0000
;

//---------------dance-single - ----------------
#NOTES:
     dance-single:
     :
     Beginner:
     4:
     0.164,0.268,0.088,0.000,0.000: // measure 1
0000
0000
0000
0000
,  // measure 2
0000
0000
0000
0000
,  // measure 3
0000
0000
0000
0000
,  // measure 4
0000
0000
0000
0000
,  // measure 5
0000
0000
0000
0000
,  // measure 6
1000
0000
0000
0000
,  // measure 7
0000
0000
0001
0000
,  // measure 8
0000
0000
0000
0000
,  // measure 9
0000
0000
1001
0000
,  // measure 10
0000
0000
0000
0000
,  // measure 11
0000
0001
0000
0000
,  // measure 12
0000
0000
0000
1000
,  // measure 13
0000
0000
0000
0000
,  // measure 14
0000
0000
0000
1001
,  // measure 15
0000
0000
0000
0000
,  // measure 16
0000
0000
1001
0000
,  // measure 17
0000
0000
0000
0000
,  // measure 18
0000
0110
0000
0000
,  // measure 19
0000
0000
0000
0000
,  // measure 20
1001
0000
0000
0000
,  // measure 21
0000
0000
0000
0000
,  // measure 22
0000
0000
0000
0000
,  // measure 23
0000
0000
0000
0000
,  // measure 24
1001
0000
0000
0000
,  // measure 25
0001
0000
0000
0000
,  // measure 26
1000
0000
0000
0000
,  // measure 27
0001
0000
0000
0000
,  // measure 28
1000
0000
0000
0000
,  // measure 29
0000
0000
0100
0000
,  // measure 30
0000
0000
0000
0000
,  // measure 31
0010
0000
0000
0000
,  // measure 32
0000
0000
0001
0000
,  // measure 33
0000
0000
0000
0000
,  // measure 34
1000
0000
0000
0000
,  // measure 35
0000
0000
0000
0000
,  // measure 36
1000
0000
0000
0000
,  // measure 37
0000
0000
0000
0000
,  // measure 38
0001
0000
1000
0000
,  // measure 39
0001
0000
1000
0000
,  // measure 40
0010
0000
1000
0000
,  // measure 41
0010
0000
1000
0000
,  // measure 42
0001
0000
0100
0000
,  // measure 43
0001
0000
0100
0000
,  // measure 44
0001
0000
1000
0000
,  // measure 45
0001
0000
0000
0000
,  // measure 46
1000
0000
0000
0000
,  // measure 47
0000
0000
0000
0000
,  // measure 48
0010
0000
0000
0000
,  // measure 49
0000
0000
0000
0000
,  // measure 50
0100
0000
0000
0000
,  // measure 51
0000
0000
0000
0000
,  // measure 52
0001
0000
0000
0000
,  // measure 53
0000
0000
0000
0000
,  // measure 54
1000
0000
0001
0000
,  // measure 55
1000
0000
0001
0000
,  // measure 56
1000
0000
0010
0000
,  // measure 57
1000
0000
0001
0000
,  // measure 58
0100
0000
0000
0000
,  // measure 59
0000
0000
0000
0000
,  // measure 60
0000
0000
0000
0000
,  // measure 61
0001
0000
1000
0000
,  // measure 62
0001
0000
1000
0000
,  // measure 63
0010
0000
0100
0000
,  // measure 64
0010
0000
1000
0000
,  // measure 65
0001
0000
0000
0000
,  // measure 66
0000
0000
0000
0000
,  // measure 67
0000
0000
0000
0000
,  // measure 68
1001
0000
0000
1000
,  // measure 69
0000
0000
0000
0000
,  // measure 70
0000
0001
0000
0000
,  // measure 71
0000
0000
0000
1001
,  // measure 72
0000
0000
0000
0000
,  // measure 73
0000
0000
0000
1000
,  // measure 74
0000
0000
0000
0000
,  // measure 75
0000
0000
0000
0000
,  // measure 76
0000
0001
0000
0000
,  // measure 77
0000
0000
1000
0000
,  // measure 78
0000
0000
0000
0001
,  // measure 79
0000
0000
0000
0000
,  // measure 80
0000
0000
0000
0000
,  // measure 81
0000
1000
0000
0000
,  // measure 82
0000
0000
0001
0000
,  // measure 83
0000
0000
0000
1000
,  // measure 84
0000
0001
0000
1000
,  // measure 85
0000
0001
0000
1000
,  // measure 86
0000
0100
0000
0010
,  // measure 87
0000
0100
0000
0010
,  // measure 88
0000
0001
0000
1000
,  // measure 89
0000
0100
0000
1000
,  // measure 90
0000
0001
0000
1000
,  // measure 91
0000
0001
0000
0100
,  // measure 92
0000
0010
0000
0100
,  // measure 93
0000
0010
0000
1000
,  // measure 94
0000
0100
0000
1000
,  // measure 95
0000
0000
0000
0001
,  // measure 96
0000
0100
0000
0001
,  // measure 97
0000
1000
0000
0010
,  // measure 98
0000
0100
0000
0010
,  // measure 99
0000
0000
0000
1001
,  // measure 100
0000
0000
0000
0000
,  // measure 101
0000
0000
0000
0010
,  // measure 102
0000
0000
0000
0000
,  // measure 103
0000
0000
0000
1001
,  // measure 104
0000
0000
0000
0000
,  // measure 105
0000
0000
0000
0100
,  // measure 106
0000
0000
0000
0000
,  // measure 107
0000
0000
0000
0000
,  // measure 108
0000
0000
1000
0000
,  // measure 109
0000
0100
0000
0000
,  // measure 110
0010
0000
0000
0001
,  // measure 111
0000
0000
1000
0000
,  // measure 112
0000
0010
0000
0000
,  // measure 113
0100
0000
0000
0001
,  // measure 114
0000
0000
0010
0000
,  // measure 115
0000
0100
0000
0000
,  // measure 116
1000
0000
0000
0001
,  // measure 117
0000
0000
1000
0000
,  // measure 118
0000
0010
0000
0000
,  // measure 119
0100
0000
0000
0001
,  // measure 120
0000
0000
1000
0000
,  // measure 121
0000
0100
0000
0000
0000
0000
0010
0000
,  // measure 122
0000
0000
0000
0001
0000
0000
0000
0000
;

//---------------dance-single - ----------------
#NOTES:
     dance-single:
     :
     Challenge:
     16:
     0.989,0.932,0.168,0.469,0.000: // measure 1
0000
0000
0000
0000
,  // measure 2
0000
0000
0000
0000
,  // measure 3
0000
0000
0000
0000
,  // measure 4
0000
0000
0000
0000
,  // measure 5
0000
0000
0000
0000
,  // measure 6
2000
0000
0000
3001
0000
0010
0000
0100
,  // measure 7
0000
1000
0001
0000
1000
0100
1000
0001
,  // measure 8
0000
0100
0000
0101
0000
1000
0100
0010
,  // measure 9
0100
1000
0001
0100
0002
0000
1003
0100
,  // measure 10
0010
0001
2000
0000
3100
0000
1000
0100
,  // measure 11
0010
0001
2000
0000
3001
1000
0000
0100
,  // measure 12
0000
0010
0000
0001
1000
0000
0001
0010
,  // measure 13
0001
1000
0000
0010
0000
1010
0000
0001
,  // measure 14
0010
0100
0010
0001
1000
0010
1000
0000
,  // measure 15
0001
0010
0100
1000
0002
0000
0013
0000
,  // measure 16
0001
0010
0100
1000
0002
0000
1003
0010
,  // measure 17
0000
0100
0000
0001
1000
0000
0010
0100
,  // measure 18
0010
1000
0002
0000
1003
0010
0000
0100
,  // measure 19
0000
0001
0100
0000
0010
0100
0010
1000
,  // measure 20
0002
0000
0023
0000
0230
0000
1300
0001
,  // measure 21
2000
0000
3200
0000
0320
0000
0031
1000
,  // measure 22
0002
0000
0203
0000
0320
0000
1030
0001
,  // measure 23
2000
0000
3010
0100
0000
0010
0100
0001
,  // measure 24
1000
0000
0001
0100
0001
1000
0100
0010
,  // measure 25
0100
0000
1000
0010
1000
0001
0010
0100
,  // measure 26
0010
0000
0001
0010
0100
1000
0010
0100
,  // measure 27
0001
0010
0100
0010
0001
0010
0100
0010
,  // measure 28
0001
0000
1000
0100
0000
0001
0100
1000
,  // measure 29
0010
0100
0010
1000
0001
0000
1000
0100
,  // measure 30
0000
0001
0100
1000
0100
0010
0100
1000
,  // measure 31
0001
0000
1000
0100
0000
0001
0100
1000
,  // measure 32
0001
0010
0100
0010
0001
0000
1000
0100
,  // measure 33
0000
0001
0100
1000
0100
0010
0100
1000
,  // measure 34
0010
0100
0000
0001
0000
2100
0000
0000
,  // measure 35
3001
0010
0100
1000
0100
0010
0000
0000
,  // measure 36
0100
0010
0000
0001
0000
0102
0000
0000
,  // measure 37
1003
0100
0010
0001
0010
0100
0000
0000
,  // measure 38
1000
0010
1000
0010
1000
0001
0100
0001
,  // measure 39
0100
0001
1000
0100
0010
0100
1000
0001
,  // measure 40
0000
0100
0001
0000
1000
0100
0000
0010
,  // measure 41
0100
1000
0010
0100
0001
0010
0100
0000
,  // measure 42
1000
0100
1000
0100
1000
0001
0010
0001
,  // measure 43
0010
0001
1000
0010
0100
0010
1000
0100
,  // measure 44
0000
0010
0100
0000
0010
0001
0000
0010
,  // measure 45
0100
0010
0001
1000
0100
0010
0001
0100
,  // measure 46
0010
1000
0000
1000
0001
0000
0001
0100
,  // measure 47
0010
1000
0100
0010
0001
1000
0010
0000
,  // measure 48
0100
0001
0000
0001
1000
0000
1000
0010
,  // measure 49
0100
0001
0010
0200
0000
0000
0310
0000
,  // measure 50
0001
1000
0000
1000
0100
0000
0100
0010
,  // measure 51
0001
0010
0100
1000
0010
0100
0001
0000
,  // measure 52
1000
0001
0000
0001
0010
0000
0010
0100
,  // measure 53
1000
0100
0010
0002
0000
0000
1003
0000
,  // measure 54
0001
0010
0100
1000
0001
0100
0001
1000
,  // measure 55
0100
0010
0001
2000
0000
0000
3001
0000
,  // measure 56
1000
0100
0010
0001
1000
0010
1000
0001
,  // measure 57
0010
0100
1000
0002
0000
0000
1003
0000
,  // measure 58
0001
0100
0010
0000
1000
0100
0000
0001
,  // measure 59
0100
0000
1000
0010
0100
0001
1000
0100
,  // measure 60
0000
2000
0001
3001
,  // measure 61
1000
0100
0010
0100
1000
0010
0100
0010
,  // measure 62
1000
0100
0010
0002
0000
0000
1003
0000
,  // measure 63
0001
0010
0100
0010
0001
0100
0010
0100
,  // measure 64
0001
0010
0100
2000
0000
0000
3001
0000
,  // measure 65
1000
0010
0100
0000
0001
0100
0000
1000
,  // measure 66
0100
0000
0001
0100
0010
1000
0001
0010
,  // measure 67
0000
0002
1000
1003
,  // measure 68
0001
0010
0100
1000
0100
0010
0001
0000
,  // measure 69
0010
0100
0010
0001
1000
0100
0010
0100
,  // measure 70
1000
0100
0001
0100
1000
0001
0010
1000
,  // measure 71
0010
0001
0010
0100
1000
0100
0020
0000
,  // measure 72
0000
0000
0000
0000
,  // measure 73
0030
0001
0010
0100
1000
0000
0001
0000
,  // measure 74
0100
0001
0000
1000
0000
0010
1000
0100
,  // measure 75
0010
0100
1000
0001
0100
1000
0100
0001
,  // measure 76
1000
0010
1000
0100
0010
0001
1000
0020
,  // measure 77
0000
0100
0000
0130
0001
0010
0100
1000
,  // measure 78
0001
0200
0000
0010
0000
0310
1000
0000
,  // measure 79
0010
1000
0000
0001
0000
0100
0001
0010
,  // measure 80
0100
0010
0001
1000
0100
0001
0100
1000
,  // measure 81
0001
0100
0001
0010
0100
1000
0001
0200
,  // measure 82
0000
0010
0000
0310
1000
0100
0010
0001
,  // measure 83
1000
0010
0100
0001
0010
0100
2000
0000
,  // measure 84
3001
0010
0100
0000
0110
0000
1000
0100
,  // measure 85
0001
0100
1000
0100
0010
0001
1000
0000
,  // measure 86
1001
0000
0001
0000
1001
0000
1000
0001
,  // measure 87
0010
0100
1000
0010
0200
0000
0301
0010
,  // measure 88
0100
2000
0000
3100
0000
0010
0100
1000
,  // measure 89
0001
0020
0000
0031
0000
0100
0010
1000
,  // measure 90
0100
0001
0100
1000
0001
0010
0100
1000
,  // measure 91
0001
0010
1000
0010
0001
1000
0002
0000
,  // measure 92
1003
0100
0010
0000
0110
0000
0001
0100
,  // measure 93
1000
0100
0001
0010
0100
1000
0001
0000
,  // measure 94
1001
0000
1000
0000
1001
0000
0001
1000
,  // measure 95
0100
0010
0001
0100
0020
0000
1030
0100
,  // measure 96
0010
0002
0000
0013
0000
0100
0010
0001
,  // measure 97
1000
0200
0000
1300
0000
0010
0100
0001
,  // measure 98
0100
1000
0100
0001
1000
0100
0010
0001
,  // measure 99
0010
1000
0010
0001
1000
0000
0001
0100
,  // measure 100
0001
1000
0100
1000
0001
0100
0001
1000
,  // measure 101
0100
1000
0001
0000
0000
0000
0011
0000
,  // measure 102
0000
1100
0000
0000
0110
0000
0000
2002
,  // measure 103
0000
0000
0000
0000
3003
0000
1000
0100
,  // measure 104
1000
0001
0100
0001
1000
0100
1000
0001
,  // measure 105
0100
0001
1000
0000
0000
0000
1100
0000
,  // measure 106
0000
0011
0000
0000
0110
0000
0000
2002
,  // measure 107
0000
0000
0000
3003
0000
0000
1000
0001
,  // measure 108
0000
0100
0001
1000
0200
0000
0310
0100
,  // measure 109
1000
0001
0010
0000
0100
0010
0001
0010
,  // measure 110
0100
0000
0010
0001
1000
0100
0010
0001
,  // measure 111
0100
0010
1000
0100
2000
0000
3001
0010
,  // measure 112
0100
0010
0001
0000
0100
0001
1000
0100
,  // measure 113
0010
0000
0100
1000
0001
0010
0100
1000
,  // measure 114
0010
0100
0001
0010
0001
0000
0010
0100
,  // measure 115
1000
0100
0001
0000
0100
1000
0001
0010
,  // measure 116
0100
0000
0010
0001
0100
0000
1000
0100
,  // measure 117
0001
0010
0100
1000
0002
0000
0013
0100
,  // measure 118
0010
0001
2000
0000
3100
0010
0100
1000
,  // measure 119
0002
0000
1003
0100
0001
0100
1000
0001
,  // measure 120
0010
1000
0010
0001
2000
0000
0000
3000
,  // measure 121
0000
0200
0000
0000
0300
0000
0020
0000
,  // measure 122
0000
0030
0000
2002
0000
0000
0000
0000
,  // measure 123
0000
0000
0000
0000
,  // measure 124
0000
0000
0000
0000
,  // measure 125
3003
0000
0000
0000
;
