#TITLE:RUFFNECK featuring NAVIGATOR;
#SUBTITLE:;
#ARTIST:FREESTYLERS;
#TITLETRANSLIT:;
#SUBTITLETRANSLIT:;
#ARTISTTRANSLIT:;
#CREDIT:DigiMindAxel;
#BANNER:RUFFNECK featuring NAVIGATOR.png;
#BACKGROUND:RUFFNECK featuring NAVIGATOR-bg.png;
#LYRICSPATH:;
#CDTITLE:DigiMindAxel original simfile.png;
#MUSIC:RUFFNECK featuring NAVIGATOR.ogg;
#METERTYPE:DDR X;
#OFFSET:-1.777;
#SAMPLESTART:16.671;
#SAMPLELENGTH:12.000;
#SELECTABLE:YES;
#BPMS:0.000=125.900;
#STOPS:;
#BGCHANGES:-4.000=RUFFNECK featuring NAVIGATOR.avi=1.000=1=1=0,
99999=-nosongbg-=1.000=0=0=0 // don't automatically add -songbackground-
;

//---------------dance-single - ----------------
#NOTES:
     dance-single:
     :
     Easy:
     5:
     0.198,0.230,0.046,0.000,0.000: // measure 1
0000
0000
0000
0000
,  // measure 2
0000
0000
0000
0000
,  // measure 3
0000
0000
0000
0000
,  // measure 4
0000
0000
0000
0000
,  // measure 5
0010
0000
0000
0000
,  // measure 6
0010
0000
0000
0000
,  // measure 7
0100
0000
0000
0000
,  // measure 8
0100
0000
0000
0000
,  // measure 9
1001
0000
0001
1000
,  // measure 10
0100
0000
0010
0001
,  // measure 11
1000
0000
0100
0010
,  // measure 12
0001
0000
0100
0000
,  // measure 13
0010
1000
0010
0000
,  // measure 14
1000
0001
1000
0000
,  // measure 15
0100
1000
0100
0000
,  // measure 16
0010
0010
0010
0000
,  // measure 17
0001
0010
0100
1000
,  // measure 18
0001
0000
0100
0000
,  // measure 19
0010
1000
0100
0010
,  // measure 20
0001
0000
0100
0000
,  // measure 21
0010
1000
0100
0010
,  // measure 22
0100
0000
1000
0000
,  // measure 23
0001
0100
0010
0100
,  // measure 24
0001
0000
0000
0000
,  // measure 25
1001
0000
1000
0100
,  // measure 26
0010
0000
0001
0010
,  // measure 27
0100
0000
1000
0100
,  // measure 28
0010
0010
0010
0010
,  // measure 29
0001
1000
0100
0000
,  // measure 30
0010
0001
1000
0000
,  // measure 31
0010
0100
0001
0000
,  // measure 32
0100
0000
0000
0000
,  // measure 33
0010
0010
0010
0000
,  // measure 34
0100
0100
0100
0000
,  // measure 35
0010
0010
0010
0000
,  // measure 36
0100
0100
0100
0000
,  // measure 37
0001
1000
0100
0000
,  // measure 38
0010
0001
1000
0000
,  // measure 39
0010
0100
0001
0000
,  // measure 40
0100
0100
0100
0000
,  // measure 41
0010
1000
0010
1000
,  // measure 42
0010
1000
0001
0010
,  // measure 43
0100
0000
1000
0000
,  // measure 44
1001
0000
1001
0000
,  // measure 45
0001
0010
0001
0010
,  // measure 46
0100
1000
0100
1000
,  // measure 47
0010
0000
0100
0000
,  // measure 48
1001
0000
0000
0000
,  // measure 49
0001
0010
0100
0000
,  // measure 50
0010
0001
1000
0000
,  // measure 51
0010
1000
0001
0000
,  // measure 52
0010
0100
0010
0100
,  // measure 53
1000
0100
0010
0000
,  // measure 54
0001
0100
0010
0000
,  // measure 55
0100
0010
1000
0000
,  // measure 56
0001
0001
0001
0010
;

//---------------dance-single - ----------------
#NOTES:
     dance-single:
     :
     Medium:
     9:
     0.411,0.459,0.586,0.000,0.000: // measure 1
0000
0000
0000
0000
,  // measure 2
0000
0000
0000
0000
,  // measure 3
0000
0000
0000
0000
,  // measure 4
0000
0000
0000
0000
,  // measure 5
1000
0010
1000
0010
,  // measure 6
0100
0001
0100
0001
,  // measure 7
1000
0001
1000
0001
,  // measure 8
1000
0000
0000
0000
0000
0000
0100
1000
,  // measure 9
0001
0000
0100
0010
0100
0000
0001
1000
,  // measure 10
0100
0000
0010
0100
0010
0000
0001
0100
,  // measure 11
0010
0000
0100
0010
0100
0000
0010
1000
,  // measure 12
0100
0000
0010
0100
0010
0000
1001
0000
,  // measure 13
1000
0001
1000
0001
1000
0000
1001
0000
,  // measure 14
0001
0010
0100
0000
1000
0100
0010
0000
,  // measure 15
0001
1000
0001
1000
0001
0000
1001
0000
,  // measure 16
1000
0010
0100
0000
0010
0100
0001
0000
,  // measure 17
0110
1000
0000
1000
0000
0110
0000
0110
,  // measure 18
0000
0001
0000
0001
0000
0100
0000
0100
,  // measure 19
0000
1001
0000
0100
0000
1001
0000
1001
,  // measure 20
0000
0000
0001
0000
,  // measure 21
0110
0001
0000
0001
0000
0110
0000
0110
,  // measure 22
0000
1000
0000
1000
0000
0010
0000
0010
,  // measure 23
0000
1001
0000
0010
0000
1001
0000
1001
,  // measure 24
0000
0000
1100
0011
,  // measure 25
0001
1000
0001
0000
0010
0100
1000
0000
,  // measure 26
0010
0100
0010
0000
1000
0100
0010
0000
,  // measure 27
0100
1000
0100
0000
0010
0001
0100
0000
,  // measure 28
0110
0110
0110
0110
,  // measure 29
1000
0001
1000
0001
1000
0000
0000
0000
,  // measure 30
0010
0100
0010
0100
0010
0000
0000
0000
,  // measure 31
1000
0100
1000
0100
1000
0000
0000
0000
,  // measure 32
0001
0000
0110
1001
,  // measure 33
1000
1000
0010
0010
0100
0000
0110
0000
,  // measure 34
0001
0001
0010
0010
0100
0000
0110
0000
,  // measure 35
1000
1000
0001
0001
0010
0000
1100
0000
,  // measure 36
0010
0010
0001
0001
0100
0000
1010
0000
,  // measure 37
0100
0100
0001
0001
0010
0000
1100
0000
,  // measure 38
0010
0010
0100
0100
1000
0000
0110
0000
,  // measure 39
0001
0001
1000
1000
0100
0000
1001
0000
,  // measure 40
0001
0001
0011
0000
,  // measure 41
1100
1001
1100
1001
,  // measure 42
0011
1001
0011
1001
,  // measure 43
0110
1001
0110
0000
,  // measure 44
1001
1001
1001
1001
,  // measure 45
0101
1001
0101
1001
,  // measure 46
1010
1001
1010
1001
,  // measure 47
0110
1001
0110
0000
,  // measure 48
0110
0000
0011
1100
,  // measure 49
0010
0001
1000
0000
0010
0010
0010
0000
,  // measure 50
1000
0001
0010
0000
0100
0100
0100
0000
,  // measure 51
1000
0100
0010
0000
0100
0100
0100
0000
,  // measure 52
1001
1001
0110
0110
,  // measure 53
0001
1000
0100
0000
0010
0010
0010
0000
,  // measure 54
0100
1000
0001
0000
0100
0100
0100
0000
,  // measure 55
0010
1000
0001
0000
0010
0010
0010
0000
,  // measure 56
0100
1000
0000
0000
0001
0100
0010
0000
;

//---------------dance-single - ----------------
#NOTES:
     dance-single:
     :
     Hard:
     11:
     0.483,0.434,0.339,0.000,0.096: // measure 1
0000
0000
0000
0000
,  // measure 2
0000
0000
0000
0000
,  // measure 3
0000
0000
0000
0000
,  // measure 4
0000
0000
0000
0000
,  // measure 5
0000
0001
0000
0100
0000
1000
0000
0100
,  // measure 6
0000
0001
0000
0010
0000
0100
0000
1000
,  // measure 7
0000
0001
0000
0100
0000
0010
0000
0100
,  // measure 8
0000
0000
0000
0000
0000
0000
0000
0000
1001
0000
0000
0001
1000
0000
0100
0000
,  // measure 9
0010
0010
0000
0001
0100
1000
0100
0001
,  // measure 10
0010
0010
0000
0001
0100
1000
0100
0001
,  // measure 11
1000
1000
0000
0001
0100
1000
0100
0001
,  // measure 12
1000
0100
0010
0001
1000
0100
0010
0000
,  // measure 13
0001
1000
0010
1000
0001
1000
0010
0000
,  // measure 14
0100
0001
0010
0100
0010
0001
1000
0000
,  // measure 15
0010
0100
1000
0100
0010
1000
0001
0000
,  // measure 16
1000
0010
0001
0010
1000
0100
0010
0000
,  // measure 17
0011
0100
1000
0001
0100
0110
0000
0101
,  // measure 18
0000
0010
1000
0100
0010
0001
1000
0010
,  // measure 19
0000
0101
0010
1000
0100
1100
0000
1010
,  // measure 20
0000
0010
0100
0010
0100
0001
1000
0000
,  // measure 21
1001
0010
0100
1000
0010
1010
0000
0110
,  // measure 22
0000
0100
0001
0010
0100
1000
0001
0010
,  // measure 23
0000
1100
0010
0001
0100
0101
0000
0110
,  // measure 24
0000
0000
0000
0000
0000
0000
0000
0000
1001
0000
0000
1000
0001
0000
0010
0000
,  // measure 25
0100
1000
1000
0001
0100
1000
0100
0000
,  // measure 26
0001
0010
0100
1000
0001
0010
0100
0000
,  // measure 27
1000
0010
0001
0010
1000
0100
0010
0000
,  // measure 28
0110
1001
0110
1001
,  // measure 29
0010
0100
0001
0010
0100
1000
0000
0000
,  // measure 30
0010
0100
0001
0010
0100
1000
0000
0000
,  // measure 31
0100
0010
0001
1000
0010
0100
0000
0000
,  // measure 32
0010
0000
0000
0000
0010
0000
0000
0000
0110
0000
0000
0100
0010
0000
0100
0000
,  // measure 33
0001
0001
1000
0100
0010
0001
0101
0000
,  // measure 34
0010
0010
1000
0100
0010
0100
1100
0000
,  // measure 35
0010
0010
0001
0100
0110
0000
1010
0000
,  // measure 36
0100
0100
0001
0010
0100
1000
1010
0000
,  // measure 37
0100
0100
0001
1000
1100
0000
0110
0000
,  // measure 38
0001
0001
1000
0100
0001
0100
1000
0000
,  // measure 39
0001
0001
1000
0010
0001
0010
1000
0000
,  // measure 40
0100
0000
0000
0000
0010
0000
0000
0000
1001
0000
0000
1000
0010
0000
1000
0000
,  // measure 41
0001
0010
0001
0010
0000
0000
0100
0010
0100
0010
0000
0000
,  // measure 42
0001
0100
0001
0100
0000
0000
0001
1000
0001
1000
0000
0000
,  // measure 43
0100
1000
0001
0100
0001
1000
0100
0000
,  // measure 44
0110
1001
0110
1001
,  // measure 45
1000
0100
1000
0100
0000
0000
0010
0100
0010
0100
0000
0000
,  // measure 46
1000
0010
1000
0010
0000
0000
1000
0001
1000
0001
0000
0000
,  // measure 47
0010
0001
1000
0001
0010
0001
1000
0000
,  // measure 48
1001
0000
0000
0000
0000
0000
0000
0000
1010
0000
0000
0010
0100
0000
0010
0000
,  // measure 49
1000
0100
0001
1000
0010
0001
1000
0000
,  // measure 50
0001
0100
1000
0001
0010
1000
0001
0000
,  // measure 51
1000
0010
0001
0010
0100
0001
1000
0000
,  // measure 52
1100
1001
0011
1001
,  // measure 53
0001
0100
1000
0100
0010
1000
0001
0000
,  // measure 54
0010
0100
1000
0001
0100
1000
0100
0000
,  // measure 55
0001
0100
0010
1000
0100
0001
0100
0000
,  // measure 56
1000
0010
1000
1000
0001
0010
0010
0000
;

//---------------dance-single - ----------------
#NOTES:
     dance-single:
     :
     Challenge:
     14:
     0.651,0.613,0.366,0.147,0.522: // measure 1
0000
0000
0000
0000
,  // measure 2
0000
0000
0000
0000
,  // measure 3
0000
0000
0000
0000
,  // measure 4
0000
0000
0000
0000
0000
0000
0000
0001
,  // measure 5
0000
0001
0100
0010
0100
0010
1000
0200
,  // measure 6
0000
0000
0000
0300
0000
0000
0000
0000
,  // measure 7
0000
1000
0100
0010
0001
0000
1001
0000
,  // measure 8
0110
0000
0000
0000
0000
0000
0000
0000
0100
0000
0001
1000
0001
0000
1000
0000
,  // measure 9
0100
0000
1100
0000
0000
0000
0010
0000
0001
0000
0100
0000
0110
0000
0000
1000
,  // measure 10
0001
0000
1001
0000
0000
0000
0100
0000
0001
0000
1000
0000
1100
0000
0000
0010
,  // measure 11
0001
0011
0000
0100
1000
0010
0110
0000
,  // measure 12
0001
0000
0100
0001
0100
0001
1000
0000
0100
1000
0100
1000
0001
0000
0000
0100
,  // measure 13
0010
0100
0010
0000
1000
0000
0100
0000
0010
0000
0010
0000
1001
0000
0000
0000
,  // measure 14
0001
0000
0010
0000
1000
0000
0010
0001
0000
1000
0010
0000
0100
0000
0000
0000
,  // measure 15
0001
0000
0010
0000
1000
0000
0010
0001
0000
1000
0010
0000
0100
0000
0000
0001
,  // measure 16
1000
0001
1000
0001
0010
0000
0100
0000
1100
0000
0000
0000
1001
0000
0000
0000
,  // measure 17
0001
0000
1000
0010
1000
0000
0010
0100
0010
0000
1010
0000
0000
0000
1001
0000
,  // measure 18
0000
0000
0001
0010
0001
0000
1000
0001
1000
0000
0001
0010
0001
0000
1000
0001
,  // measure 19
1000
0000
1010
0000
0000
0000
0010
0100
0010
0000
0110
0000
0000
0000
1001
0000
,  // measure 20
0000
0000
1000
0100
1000
0000
0001
1000
0001
0000
1000
0100
1000
0000
0000
0000
,  // measure 21
1001
0000
0001
0100
0001
0000
0100
0010
0100
0000
0101
0000
0000
0000
0110
0000
,  // measure 22
0000
0000
0010
1000
0010
0000
1000
0001
1000
0000
0010
1000
0010
0000
1000
0001
,  // measure 23
1000
0000
1001
0000
0000
0000
0010
0001
0010
0000
0011
0000
0000
0000
1001
0000
,  // measure 24
2000
0000
0000
0000
0000
0000
0000
0000
3010
0000
0100
0010
0100
0000
0001
0000
,  // measure 25
1000
0000
0100
0000
0010
0000
0001
1000
0000
1000
0010
0000
0110
0000
0000
0000
,  // measure 26
0001
1000
0001
1000
0001
0100
0001
0100
0001
1000
0100
0000
1100
0000
0000
0000
,  // measure 27
0010
0001
0010
0001
1000
0001
1000
0000
0100
0010
0001
0000
0100
0000
0000
0000
,  // measure 28
1002
2003
3002
2003
,  // measure 29
3001
0010
0001
0010
0100
0000
1000
0010
0100
0000
0010
0000
0000
0000
0000
0000
,  // measure 30
1000
0000
0010
0100
0010
0000
1000
0001
0010
0000
0100
0000
0000
0000
0000
0000
,  // measure 31
1000
0000
0000
0010
0000
0000
1000
0000
0000
0010
0000
0000
0100
0000
0000
0000
0000
0000
0001
0000
0000
0010
0000
0000
0100
0000
0000
0000
0000
0000
0010
0000
0000
0000
0000
0000
0000
0000
0000
0000
0000
0000
0000
0000
0001
0000
0000
0000
,  // measure 32
0100
0000
0000
0000
0001
0000
0000
0000
1000
0000
0000
0000
0100
0000
0000
0000
0000
0000
0010
0000
0000
0000
0000
0000
0010
0000
0000
0000
0000
0000
0001
0000
0000
1000
0000
0000
0001
0000
0000
0000
0000
0000
1000
0000
0000
0000
0000
0000
,  // measure 33
0010
0000
0010
0000
0100
0001
0010
0100
2000
0000
0010
0000
3010
0000
0000
0000
,  // measure 34
0100
0000
0100
0000
0010
1000
0100
0010
0001
0100
0001
0000
0101
0000
0000
0000
,  // measure 35
0001
0000
0001
0000
1000
0100
0010
0100
2000
0000
0010
0000
3010
0000
0000
0000
,  // measure 36
0100
0000
0100
0000
0100
0000
0001
1000
0010
1000
0001
0000
1001
0000
0000
0000
,  // measure 37
0100
0000
0100
0000
0010
0100
0010
1000
0100
0000
0010
0000
0011
0000
0000
0000
,  // measure 38
0100
0000
0100
0000
0100
0000
1000
0001
0010
0001
1000
0000
1001
0000
0000
0000
,  // measure 39
0001
0000
0001
0000
0100
0010
1000
0100
0010
0000
0001
0000
0101
0000
0000
0000
,  // measure 40
0100
0010
0100
0000
0001
1000
0001
0000
1000
0000
0100
0010
0001
0000
0001
0000
,  // measure 41
1000
0000
0100
0000
0001
0000
0100
0000
0000
1000
0000
0000
0001
0000
0100
0000
1000
0000
0100
0000
0000
0001
0000
0000
,  // measure 42
1000
0000
0010
0000
0001
0000
0010
0000
0000
1000
0000
0000
0001
0000
0010
0000
1000
0000
0010
0000
0000
0001
0000
0000
,  // measure 43
1000
0000
0100
0000
0010
0000
0001
0100
0001
0100
0001
0000
1000
0000
0000
0000
,  // measure 44
1002
2003
3002
2003
,  // measure 45
3001
0000
0010
0000
1000
0000
0010
0000
0000
0001
0000
0000
1000
0000
0010
0000
0001
0000
0010
0000
0000
1000
0000
0000
,  // measure 46
0001
0000
0100
0000
1000
0000
0100
0000
0000
0001
0000
0000
1000
0000
0100
0000
0001
0000
0100
0000
0000
1000
0000
0000
,  // measure 47
0001
0000
0010
0000
0100
0000
0010
0001
0010
0001
0010
0000
0100
0000
0000
0000
,  // measure 48
1000
0000
0001
0100
0001
0100
0001
0100
0001
0000
0010
0100
1000
0000
1000
0000
,  // measure 49
0100
0000
0100
0000
0010
0001
0010
0001
1000
0000
0010
0000
0110
0000
0000
0000
,  // measure 50
0001
0000
0100
0000
0100
0000
0010
1000
0100
0010
0001
0000
0011
0000
0000
0000
,  // measure 51
0100
0000
0100
0000
1000
0010
0100
0010
1000
0000
0001
0000
0011
0000
0000
0000
,  // measure 52
2001
3002
2003
3002
,  // measure 53
1003
0000
1000
0000
0100
0010
0001
0010
0100
0000
1000
0000
1010
0000
0000
0000
,  // measure 54
0010
0000
0100
0000
0100
0000
0010
1000
0100
0010
0001
0000
0011
0000
0000
0000
,  // measure 55
0100
0000
0100
0000
1000
0010
0100
0010
1000
0000
0010
0000
0110
0000
0000
0000
,  // measure 56
0001
1000
0001
0000
1000
0100
0010
0001
0100
0000
1010
0000
0110
0000
0000
0000
;

//---------------dance-single - ----------------
#NOTES:
     dance-single:
     :
     Beginner:
     1:
     0.076,0.126,0.018,0.000,0.000: // measure 1
0000
0000
0000
0000
,  // measure 2
0000
0000
0000
0000
,  // measure 3
0000
0000
0000
0000
,  // measure 4
0000
0000
0000
0000
,  // measure 5
1001
0000
0000
0000
,  // measure 6
0000
0000
0000
0000
,  // measure 7
1000
0000
0000
0000
,  // measure 8
0001
0000
0000
0000
,  // measure 9
0010
0000
0000
0000
,  // measure 10
0010
0000
0000
0000
,  // measure 11
0100
0000
0000
0000
,  // measure 12
0100
0000
0000
0000
,  // measure 13
1000
0000
0001
0000
,  // measure 14
1000
0000
0000
0000
,  // measure 15
0001
0000
1000
0000
,  // measure 16
0001
0000
0000
0000
,  // measure 17
0010
0000
0000
0000
,  // measure 18
0100
0000
0000
0000
,  // measure 19
0010
0000
0000
0000
,  // measure 20
0100
0000
0000
0000
,  // measure 21
1000
0000
0000
0000
,  // measure 22
0010
0000
0000
0000
,  // measure 23
1000
0000
0000
0000
,  // measure 24
0001
0000
0000
0000
,  // measure 25
0010
0000
0000
0000
,  // measure 26
0010
0000
0000
0000
,  // measure 27
0001
0000
0000
0000
,  // measure 28
0001
0000
0000
0000
,  // measure 29
0100
0000
0000
0000
,  // measure 30
0010
0000
0000
0000
,  // measure 31
0100
0000
0000
0000
,  // measure 32
0000
0000
0000
0000
,  // measure 33
1001
0000
0000
0000
,  // measure 34
0001
0000
0000
0000
,  // measure 35
1000
0000
0000
0000
,  // measure 36
0100
0000
0000
0000
,  // measure 37
0010
0000
0000
0000
,  // measure 38
0100
0000
0000
0000
,  // measure 39
0010
0000
0000
0000
,  // measure 40
0001
0000
0000
0000
,  // measure 41
1000
0000
1000
0000
,  // measure 42
1000
0000
1000
0000
,  // measure 43
1000
0000
0000
0000
,  // measure 44
0000
0000
0000
0000
,  // measure 45
0001
0000
0001
0000
,  // measure 46
0001
0000
0001
0000
,  // measure 47
0001
0000
0000
0000
,  // measure 48
0000
0000
0000
0000
,  // measure 49
0010
0000
0000
0000
,  // measure 50
0001
0000
0000
0000
,  // measure 51
0100
0000
0000
0000
,  // measure 52
0010
0010
0010
0000
,  // measure 53
0100
0000
0000
0000
,  // measure 54
0001
0000
0000
0000
,  // measure 55
1000
0000
0000
0000
,  // measure 56
0100
0000
0000
0000
;
