#TITLE:ロキ;
#SUBTITLE:;
#ARTIST:みきとP;
#TITLETRANSLIT:ROKI;
#SUBTITLETRANSLIT:;
#ARTISTTRANSLIT:mikitoP;
#GENRE:;
#CREDIT:DigiMindAxel;
#BANNER:ROKI.png;
#BACKGROUND:ROKI-bg.png;
#LYRICSPATH:ROKI.lrc;
#CDTITLE:DigiMindAxel original simfile.png;
#MUSIC:ROKI.ogg;
#OFFSET:-1.048000;
#SAMPLESTART:58.580002;
#SAMPLELENGTH:12.000000;
#SELECTABLE:YES;
#BPMS:0.000000=150.000000
;
#STOPS:
;
#BGCHANGES:-4.000=ROKI.avi=1.000=1=0=0=StretchNoLoop==CrossFade==,
99999=-nosongbg-=1.000=0=0=0 // don't automatically add -songbackground-
;
#KEYSOUNDS:;
#ATTACKS:;

//---------------dance-single - ----------------
#NOTES:
     dance-single:
     :
     Easy:
     5:
     0.217686,0.270451,0.094646,0.075717,0.000000,161.000000,151.000000,10.000000,8.000000,0.000000,0.000000,0.217686,0.270451,0.094646,0.075717,0.000000,161.000000,151.000000,10.000000,8.000000,0.000000,0.000000:
0000
0000
0000
0000
,
0000
0000
0000
0000
,
0000
0000
0000
0000
,
0000
0000
0000
0000
,
0000
0000
0000
0000
,
0000
0000
0000
0000
,
0001
1000
0001
0000
,
0010
0001
0010
0000
,
0001
0001
0001
0001
,
2002
0000
0000
3003
,
1000
0010
1000
0000
,
0001
1000
0001
0000
,
1000
0010
1000
0010
,
1000
0010
1000
0000
,
0001
1000
0001
0000
,
0010
0001
0010
0000
,
0100
0010
0100
0010
,
0100
0010
0100
0000
,
2002
0000
0000
0000
,
0000
0000
0000
3003
,
0001
1000
0001
1000
,
0100
0010
0100
0010
,
0001
0100
0010
0100
,
0001
0000
1001
0000
,
1000
0100
1000
0000
,
0001
1000
0001
0000
,
0010
0100
0010
0100
,
0010
0100
0010
0000
,
1001
0000
0000
0000
,
0000
0000
0000
0000
,
0000
0000
0000
0000
,
0000
0000
0000
0000
,
0110
0000
0000
0000
,
0000
0000
0000
0000
,
0001
0000
0001
0000
,
1001
0000
0000
0000
,
1000
0100
1000
0100
,
1000
0100
0010
0000
,
0001
0100
0001
0100
,
0001
0000
1001
0000
,
0010
0100
0010
0000
,
0100
0010
0100
0000
,
1001
0000
1001
0000
,
0001
1000
0100
0010
,
0001
0100
0002
0000
,
1000
0000
1003
0000
,
0100
1000
0200
0000
,
1000
0000
1300
0000
,
0010
0100
0010
0100
,
0001
0010
0100
0000
,
0010
0001
0010
0001
,
0100
0010
0100
0010
,
1000
0100
1000
0100
,
0020
0000
0000
0000
,
0030
0000
0001
1000
,
0001
0000
1000
0010
,
1000
0000
0001
0100
,
0001
0000
1000
0100
,
0010
0001
1000
0100
,
1000
0000
0001
0010
,
0001
0000
0100
0100
,
0100
0000
0110
0000
,
0010
0100
0002
0000
,
0000
0000
0003
0000
;

//---------------dance-single - ----------------
#NOTES:
     dance-single:
     :
     Medium:
     10:
     0.417794,0.510851,0.369119,0.132504,0.014197,309.000000,270.000000,39.000000,14.000000,0.000000,0.000000,0.417794,0.510851,0.369119,0.132504,0.014197,309.000000,270.000000,39.000000,14.000000,0.000000,0.000000:
0000
0000
0000
0000
,
0000
0000
0000
0000
,
0000
0000
0000
0000
,
0000
0000
0000
0000
,
0000
0000
0000
0000
,
0000
0000
0000
0000
,
1100
0000
1100
0000
1000
0001
0010
0000
,
0011
0000
0011
0000
0001
1000
0010
0000
,
0110
0110
0110
0110
,
2002
0000
0000
3003
,
0001
1000
0001
1000
0100
1000
0100
0000
,
1000
0001
1000
0001
0010
0001
0000
0000
,
1000
0100
0010
0000
0100
0010
0001
0000
,
1000
0010
0100
0001
1000
0010
0000
0000
,
1000
0001
1000
0001
0010
0100
0010
0000
,
0001
1000
0001
1000
0100
0010
0000
0000
,
0001
0000
0100
0000
1000
0100
0001
0000
,
0010
0100
0010
0000
2002
0000
0000
0000
,
3003
0000
0000
0000
,
0000
0000
0000
0000
0000
1000
0000
1000
,
0010
0100
0010
0000
0100
0001
0100
0000
,
0010
0100
0010
0000
0100
0001
0100
0000
,
0010
1000
0100
0010
0001
1000
0100
0000
,
0010
0000
0000
0010
0000
0000
0010
0000
0100
0000
0000
0000
0000
0000
0000
0000
,
1000
0001
1000
0001
2000
0100
3100
0000
,
0010
0001
0010
0001
0100
0000
0000
0000
,
0001
0000
0010
0000
1000
0010
0001
0000
,
1000
0100
0010
0000
0100
0010
0001
0000
,
0102
0000
0000
0000
,
0000
0000
0100
0103
,
0020
0000
0000
0000
,
0000
0000
0100
0130
,
2001
0000
0000
0000
,
0000
0000
0000
0000
,
3010
0100
0001
1000
,
1100
1100
1100
0000
,
0010
0001
0010
0001
0100
0000
0010
1000
,
0010
1000
0001
0000
1000
0100
0010
0001
,
0100
0101
1010
1010
,
0110
1001
0110
1001
,
1000
0100
1000
0100
0010
0001
1000
0000
,
0100
0010
0100
0010
0001
0100
0010
0000
,
0100
0001
0100
0001
1000
0000
0100
1000
,
0100
1000
0001
0000
0010
0000
0100
0000
,
1000
0010
1000
0010
0200
0000
0000
0000
,
0301
0000
0000
0001
0000
0000
0001
0000
1000
0000
0010
0000
0100
0000
0000
0000
,
0001
0010
0001
0010
0200
0000
0000
0000
,
1300
0110
0001
0110
,
1000
0100
0010
0100
1000
0001
0010
0000
,
0100
0010
0100
0020
0000
0031
0000
0000
,
1000
0010
0100
0001
0010
0100
0010
0000
,
0001
0100
0010
1000
0001
0010
0100
0000
,
0010
0001
0010
0001
1000
0010
0100
0000
,
2002
0000
0000
0000
,
3003
0000
0011
0011
,
0001
1000
0100
0000
1100
0000
1100
0000
,
1000
0001
0100
0000
0110
0000
0110
0000
,
0001
1000
0010
0000
0101
0000
0001
0000
,
1000
0100
0010
0001
0100
0000
0101
0000
,
0001
1000
0100
0000
1100
0000
1100
0000
,
1000
0001
0100
0000
0110
0000
0110
0000
,
0110
0000
0000
0100
0000
0000
0100
0000
1001
0000
0000
0000
0000
0000
0000
0000
,
0001
0010
0100
1000
0020
0000
0000
0000
,
0000
0100
0130
0000
;

//---------------dance-single - ----------------
#NOTES:
     dance-single:
     :
     Hard:
     13:
     0.571932,0.724041,0.227150,0.236615,0.274473,423.000000,399.000000,24.000000,25.000000,0.000000,0.000000,0.571932,0.724041,0.227150,0.236615,0.274473,423.000000,399.000000,24.000000,25.000000,0.000000,0.000000:
// measure 0
0000
0000
0000
0000
,  // measure 1
0000
0000
0000
0000
,  // measure 2
0000
0000
0000
0000
,  // measure 3
0000
0000
0000
0000
,  // measure 4
0000
0000
0000
0000
,  // measure 5
0000
0000
0000
0000
,  // measure 6
0001
0000
0100
0001
0000
0000
1000
0000
0200
0000
0000
0000
1300
0000
0000
0000
,  // measure 7
0001
0000
0100
0001
0000
0000
1000
0000
0200
0000
0000
0000
1300
0000
0000
0000
,  // measure 8
0001
0010
0001
1000
0001
0010
0001
1000
,  // measure 9
1200
0000
0000
0000
1300
0010
0100
0001
,  // measure 10
0010
0010
0100
0100
0010
0001
0100
0010
,  // measure 11
1000
0100
0001
0100
1000
1100
0000
0010
,  // measure 12
0001
1000
0001
1000
0001
0000
0010
0000
0100
0010
0100
0010
0100
0000
1000
0000
,  // measure 13
0010
0000
0100
0001
0100
0000
0010
0000
1000
0000
1001
0000
0000
0000
0001
0100
,  // measure 14
0001
0000
1000
0000
0100
0000
0001
0000
0100
0000
1000
0000
0001
0000
1000
0100
,  // measure 15
1000
0001
0010
1000
0010
0001
0000
0100
,  // measure 16
0010
0100
0001
0100
1000
0001
0010
1000
,  // measure 17
0001
0010
0100
0010
2002
0000
0000
0000
,  // measure 18
3003
0000
0000
0000
,  // measure 19
0000
0000
0000
0000
0000
0100
0000
0100
,  // measure 20
1001
0000
0000
0001
0000
0000
0100
0000
0010
0000
0000
1000
0000
0000
0100
0000
,  // measure 21
0010
0000
0000
0001
0000
0000
0100
0000
0001
0000
0000
1000
0000
0000
0100
0000
,  // measure 22
1000
1000
0001
0001
0010
0100
1000
0010
,  // measure 23
0200
0000
0000
0001
0000
0000
0001
0000
0301
0000
1000
0000
0100
0000
0010
0000
,  // measure 24
0001
0000
0100
0010
0100
0000
0001
0000
2000
0000
0100
0000
3100
0000
0000
0000
,  // measure 25
0010
0000
0001
1000
0001
0000
0010
0000
0100
0000
0000
0000
0000
0000
0010
0000
,  // measure 26
0001
0100
1000
0100
0001
0010
1000
0010
,  // measure 27
0001
0100
0010
0100
0101
0000
1001
0000
,  // measure 28
1100
0100
0100
0100
,  // measure 29
0010
0010
0010
0010
,  // measure 30
0001
0001
0001
0001
,  // measure 31
1000
1000
1000
1000
,  // measure 32
0120
0100
0100
0100
,  // measure 33
0001
0001
0001
0031
,  // measure 34
0010
0100
0001
1000
,  // measure 35
1001
0000
0000
0000
1001
0000
0000
0000
1001
0000
0000
0000
0001
0000
1000
0100
,  // measure 36
1000
0010
0100
0010
2000
0000
3001
0100
,  // measure 37
1000
0000
0100
0000
0010
0000
0000
1000
0001
0000
0010
0000
0100
0000
1000
0000
,  // measure 38
0001
0000
0100
0010
0100
0000
0001
0000
1000
0000
0100
0000
0010
0000
0001
0000
,  // measure 39
0101
0000
0000
0000
1001
0000
0000
0000
0101
0000
0000
0000
1001
0000
1000
0100
,  // measure 40
1000
0000
0001
1000
0001
0000
1000
0100
1000
0000
0010
0000
0100
0000
0001
1000
,  // measure 41
0001
0000
1000
0100
1000
0000
0001
1000
0001
0000
0010
0000
0100
0000
1000
0000
,  // measure 42
0001
0000
0100
0000
0010
0000
0100
0000
0002
0000
0000
0000
1003
0010
1000
0000
,  // measure 43
0010
0100
0010
0000
0100
0001
0100
0000
0001
1000
0001
0000
1000
0001
1000
0001
,  // measure 44
1000
0010
0001
0010
2000
0000
0100
0000
,  // measure 45
3001
0000
1000
0100
0000
1000
0001
0000
0100
0000
0010
0000
0100
0000
0001
0000
,  // measure 46
1000
0100
0001
0100
2000
0000
0100
0000
,  // measure 47
3001
0100
0001
0000
1000
0001
1000
0000
0100
1000
0100
0000
0010
0100
0010
0100
,  // measure 48
0010
0001
0100
1000
0001
0010
1000
0001
,  // measure 49
0010
0100
0010
0200
0000
1300
0000
0001
,  // measure 50
0100
0000
1000
0000
0100
0000
0001
0000
1000
0000
0001
0000
0100
0001
1000
0000
,  // measure 51
0100
0000
0001
0000
0100
0000
1000
0000
0010
0000
0100
0000
0010
1000
0001
0000
,  // measure 52
0100
0000
1000
0000
0100
0000
0001
0000
0010
0000
0100
0000
1000
0001
0100
0000
,  // measure 53
0220
0000
0000
0000
0000
0000
0000
0330
,  // measure 54
1000
0001
1000
0001
1000
0001
1000
0001
1000
0000
0010
1000
0000
0010
0100
0000
,  // measure 55
0002
0000
1003
0000
0001
0100
0001
1000
,  // measure 56
0200
0000
0000
0000
1300
0000
0000
0000
0001
0000
0100
0010
0000
1000
0100
0000
,  // measure 57
0020
0130
1002
0013
,  // measure 58
0100
0000
0010
0000
0001
0000
1000
0010
1000
0000
0001
0010
0000
0010
0100
0000
,  // measure 59
2000
0010
3010
0000
0100
0001
1000
0001
,  // measure 60
0200
0000
0010
0000
0310
1000
0010
0000
1001
0000
0000
0000
1001
0000
0000
0000
,  // measure 61
1001
0000
0000
0101
0000
0000
1010
0000
1002
0000
0000
0000
0000
0000
0000
0000
,  // measure 62
0103
0010
0100
0010
0100
0010
0100
0010
0200
0000
0000
0000
0000
0000
0000
0000
,  // measure 63
0000
0302
2003
3000
;

//---------------dance-single - ----------------
#NOTES:
     dance-single:
     :
     Beginner:
     2:
     0.094646,0.180300,0.094646,0.000000,0.000000,70.000000,60.000000,10.000000,0.000000,0.000000,0.000000,0.094646,0.180300,0.094646,0.000000,0.000000,70.000000,60.000000,10.000000,0.000000,0.000000,0.000000:
0000
0000
0000
0000
,
0000
0000
0000
0000
,
0000
0000
0000
0000
,
0000
0000
0000
0000
,
0000
0000
0000
0000
,
0000
0000
0000
0000
,
1000
0000
0000
0000
,
0100
0000
0000
0000
,
0010
0000
0010
0000
,
0010
0000
0000
0000
,
0001
0000
0000
0000
,
0000
0000
0000
0000
,
0100
0000
0000
0000
,
0000
0000
0000
0000
,
0010
0000
0000
0000
,
0000
0000
0000
0000
,
1000
0000
0000
0000
,
0000
0000
0000
0000
,
1001
0000
0000
0000
,
0000
0000
0000
0000
,
0001
0000
0000
0000
,
0010
0000
0000
0000
,
0100
0000
0000
0000
,
0010
0000
0000
0000
,
0001
0000
0000
0000
,
0001
0000
0000
0000
,
1000
0000
0000
0000
,
1000
0000
0000
0000
,
0100
0000
0000
0000
,
0000
0000
0000
0000
,
0000
0000
0000
0000
,
0000
0000
0000
0000
,
0010
0000
0000
0000
,
0000
0000
0000
0000
,
0000
0000
0000
0000
,
0001
0000
0000
0000
,
0100
0000
0100
0000
,
0100
0000
0000
0000
,
0010
0000
0000
0000
,
1001
0000
1001
0000
,
1000
0000
0000
0000
,
0001
0000
0000
0000
,
1000
0000
1000
0000
,
1001
0000
0000
0000
,
0001
0000
0001
0000
,
0100
0000
0000
0000
,
0010
0000
0010
0000
,
1000
0000
0000
0000
,
0100
0000
0010
0000
,
0001
0000
0000
0000
,
1001
0000
0000
0000
,
1001
0000
0000
0000
,
1001
0000
0000
0000
,
1001
0000
0000
0000
,
0000
0000
1000
0000
,
0100
0000
1000
0000
,
0010
0000
0100
0000
,
0010
0000
0100
0000
,
0000
0000
0001
0000
,
0010
0000
0001
0000
,
0100
0000
0010
0000
,
0000
0000
0110
0000
,
0000
0000
1001
0000
,
0000
0000
1000
0000
;

//---------------dance-single - ----------------
#NOTES:
     dance-single:
     :
     Challenge:
     14:
     0.704436,0.844715,0.397513,0.388048,0.563143,521.000000,479.000000,42.000000,41.000000,0.000000,0.000000,0.704436,0.844715,0.397513,0.388048,0.563143,521.000000,479.000000,42.000000,41.000000,0.000000,0.000000:
// measure 0
0000
0000
0000
0000
,  // measure 1
0000
0000
0000
0000
,  // measure 2
0000
0000
0000
0000
,  // measure 3
0000
0000
0000
0000
,  // measure 4
0000
0000
0000
0000
,  // measure 5
0000
0000
0000
0000
,  // measure 6
1001
0000
0100
1000
0000
0100
1000
0000
0020
0000
0000
0000
0130
0000
0000
0000
,  // measure 7
2002
0000
0000
0000
3003
0000
0010
0000
0200
0000
0000
0000
1300
0001
1000
0000
,  // measure 8
0010
0010
0100
0100
0001
0001
1000
1000
,  // measure 9
2002
0000
0000
0000
0000
0000
3003
0000
0001
1000
0001
1000
0001
0000
0000
0000
,  // measure 10
0010
0001
0010
0000
0100
1000
0100
0000
1000
0001
0010
0000
0100
0000
1000
0001
,  // measure 11
1000
0000
0010
0000
0100
0000
0001
0000
1001
0000
1001
0000
0000
0000
1000
0100
,  // measure 12
1000
0001
0100
0001
1000
0000
0001
0010
0001
1000
0010
1000
0001
0000
1000
0100
,  // measure 13
0010
0000
0001
0010
0100
0000
0010
0000
1001
0000
1001
0000
0000
0000
0010
1000
,  // measure 14
0010
0000
0100
0001
0100
0000
0010
1000
0001
0000
0010
0000
1100
0000
0010
0001
,  // measure 15
0010
0000
0100
1000
0100
0000
0010
0001
1000
0000
0010
0000
0000
0000
2000
0000
,  // measure 16
0000
0000
3001
0010
0001
0000
1000
0100
1000
0000
0010
0000
0100
0000
0001
1000
,  // measure 17
0001
0000
0010
0000
0100
0000
1000
0000
2002
0000
0000
0000
3003
0000
0001
1000
,  // measure 18
0001
0000
0000
0001
0000
0000
0001
0000
0100
0000
0010
0000
1000
0000
0000
0000
,  // measure 19
0100
0010
0100
0010
0001
1000
0000
1000
,  // measure 20
1001
0000
0000
0101
0000
0000
1000
0000
1001
0000
0000
0101
0000
0000
1000
0000
,  // measure 21
0110
0000
0000
0011
0000
0000
1000
0000
0110
0000
0000
0011
0000
0000
1000
0000
,  // measure 22
0010
1000
0010
0000
0100
0001
0100
0000
0001
0000
1000
0100
0000
1000
0100
0000
,  // measure 23
0010
0000
0001
1000
0000
0001
1000
0000
0010
0000
0100
0000
0001
1000
0001
0000
,  // measure 24
0100
0010
0100
0000
0001
0100
0001
0000
1001
0000
0100
0000
0100
0000
0000
0000
,  // measure 25
0010
0100
0010
0000
1000
0100
1000
0000
1001
0000
0000
0000
0000
0000
0002
0000
,  // measure 26
0000
0000
1003
0100
1000
0000
0001
0010
0001
0000
1000
0000
0010
0000
0100
0000
,  // measure 27
0001
0000
1000
0000
0100
0000
1000
0000
1001
0000
0000
0000
1001
0000
0010
0100
,  // measure 28
0020
0230
0320
0230
,  // measure 29
0302
2003
3002
2003
,  // measure 30
3002
0023
0032
0023
,  // measure 31
0230
2300
3100
1100
,  // measure 32
1001
0000
0001
0000
1000
0100
0010
0001
,  // measure 33
1000
0000
1000
0000
0010
0000
0010
1000
,  // measure 34
0100
0010
0001
0010
0100
1000
0010
0100
,  // measure 35
0101
0000
0000
0000
0101
0000
0000
0000
1001
0000
0000
0000
1001
0000
0010
0100
,  // measure 36
0010
0000
1000
0100
0010
0000
0001
0010
0200
0000
0000
0000
1300
0000
0001
0100
,  // measure 37
0010
0000
1000
0010
0100
0000
0000
0001
1000
0000
0100
0000
0010
0000
0001
1000
,  // measure 38
0001
0000
0100
0001
1000
0000
0010
1000
0001
0000
0010
0000
0100
0000
1000
0000
,  // measure 39
1010
0000
0010
0000
0110
0000
0000
0000
0101
0000
0100
0000
0110
0000
1000
0001
,  // measure 40
1000
0000
0010
0100
0001
0000
0100
0010
1000
0000
0100
0000
0010
0000
0001
1000
,  // measure 41
0001
0000
0010
0100
1000
0000
0100
0010
0001
0000
1000
0000
0010
0000
0100
0000
,  // measure 42
0001
0000
1000
0100
0010
0000
0001
0010
0200
0000
0000
0000
1300
0001
1000
0000
,  // measure 43
0100
1000
0100
1000
0010
0100
0010
0100
0001
0010
0001
0010
0001
1000
0001
1000
,  // measure 44
0001
0000
0100
0010
1000
0000
0010
0100
0001
0000
1000
0100
0000
1000
0001
0000
,  // measure 45
0010
0000
0100
1000
0000
0001
0100
0000
0010
0000
1000
0000
0100
0000
0010
0000
,  // measure 46
0001
1000
0100
1000
0001
1000
0100
1000
0001
0000
0010
0000
0100
0000
0000
0000
,  // measure 47
1000
0010
1000
0010
0100
0010
0100
0010
0100
0001
0100
0001
1000
0001
1000
0001
,  // measure 48
1000
0010
0001
0010
1000
0100
0001
0100
,  // measure 49
1000
0000
0010
0100
0001
0000
2000
0000
0000
0000
3002
0000
0000
0000
0103
0000
,  // measure 50
1001
0000
0100
1000
0100
0000
0010
0100
0010
0000
0001
0000
0100
0010
1000
0000
,  // measure 51
0001
0000
0100
0001
0100
0000
0010
0100
0010
0000
1000
0000
0100
0010
0001
0000
,  // measure 52
1001
0000
0100
1000
0100
0000
0010
0100
0010
0000
0001
0100
0001
0010
0100
0000
,  // measure 53
2002
0000
0000
0000
0000
0000
0000
3003
,  // measure 54
0001
1000
0001
1000
0001
1000
0001
1000
0001
0000
1000
0100
0000
1000
0001
0000
,  // measure 55
0100
0010
1000
0000
2002
0000
3003
0001
,  // measure 56
1000
0000
0100
0000
0010
0000
0000
0000
1001
0000
0001
0010
0000
0001
1000
0000
,  // measure 57
0010
0100
0001
0000
2002
0000
3003
0000
,  // measure 58
0100
0000
0010
0000
0001
0000
1000
0010
1000
0000
0100
0010
0000
0001
0100
0000
,  // measure 59
0010
1000
0001
0000
2002
0000
3003
0010
,  // measure 60
0100
0000
1000
0000
0010
0100
0010
0000
1001
0000
0000
0000
1001
0000
0000
0000
,  // measure 61
1001
0000
0100
1000
0000
0001
0010
0000
2002
0000
0000
0000
0000
0000
3003
0000
,  // measure 62
1000
0001
1000
0001
0100
0010
0100
0010
2000
0000
0000
0000
0000
0000
0000
0000
,  // measure 63
0000
3002
0203
0300
;
