#TITLE:ROCK ju;
#SUBTITLE:;
#ARTIST:C-Show;
#TITLETRANSLIT:;
#SUBTITLETRANSLIT:;
#ARTISTTRANSLIT:;
#CREDIT:DigiMindAxel;
#BANNER:ROCK ju.png;
#BACKGROUND:ROCK ju-bg.png;
#LYRICSPATH:;
#CDTITLE:jubeat.png;
#MUSIC:ROCK ju.ogg;
#METERTYPE:DDR X;
#OFFSET:-8.232;
#SAMPLESTART:35.606;
#SAMPLELENGTH:12.000;
#SELECTABLE:YES;
#BPMS:0.000=175.000;
#STOPS:;
#BGCHANGES:;

//---------------dance-single - ----------------
#NOTES:
     dance-single:
     :
     Easy:
     7:
     0.303,0.351,0.083,0.166,0.000:
1001
0000
0000
1000
0000
0000
0000
0000
,
1001
0000
0000
0001
0000
0000
0000
0000
,
0110
0000
0000
0100
0000
0000
0000
1001
,
0000
0000
0000
0000
,
0001
0001
0001
0001
,
0001
0001
0001
0001
,
1000
1000
1000
1000
,
1000
1000
1000
0000
,
0100
0100
0100
0100
,
0010
0010
0010
0010
,
0001
0010
0100
1000
,
0002
0000
0000
0000
,
0103
0010
0100
0001
,
0001
0001
0001
1000
,
0100
0010
0100
0100
,
0100
0100
1000
0010
,
0100
0001
1000
0100
,
0100
0100
0100
1000
,
0020
0000
0000
0000
,
0200
0000
0000
0330
,
1001
0001
1000
0100
,
0100
0100
0100
1000
,
0010
0100
0001
0001
,
0001
0001
0010
0100
,
1000
0010
0100
0001
,
0001
0001
0001
1000
,
0200
0000
0000
0000
,
2000
0000
0000
3300
,
0020
0000
0000
0000
,
0000
0000
0000
0000
,
0032
0000
0000
0000
,
0000
0000
0000
0000
,
2003
0000
0001
0000
,
0001
0000
0001
0000
,
3020
0000
0100
0000
,
0130
0000
0000
0000
,
0001
0010
0100
0000
,
0010
0001
0010
0000
,
0001
0100
0010
0000
,
0100
0010
0100
0000
,
0010
1000
0100
0000
,
1000
0100
1000
0000
,
0100
0010
0001
0000
,
0010
0001
0010
0001
,
1000
1000
1000
1000
,
1000
1000
1000
1000
,
0001
0001
0001
0001
,
0001
0001
0001
0000
,
0010
0010
0010
0010
,
0100
0100
0100
0100
,
1000
0010
0100
0001
,
2000
0000
0000
0000
,
3020
0000
0230
0000
,
0310
0010
0010
0110
,
1001
1000
0001
0001
,
0001
0001
0010
0100
,
0010
0001
0100
0010
,
0010
0010
0010
0100
,
0002
0000
0000
0000
,
2000
0000
0000
3003
,
0001
1000
0100
0010
,
0010
0010
0010
0100
,
1000
0010
0100
0100
,
0100
0100
0001
1000
,
0100
0010
0001
0100
,
0100
0100
0100
0010
,
2000
0000
0000
0000
,
0200
0000
0000
3300
,
1001
0001
1000
0001
,
0100
0010
0100
0010
,
1000
0100
0010
0100
,
1000
0001
1000
0000
,
0010
0100
0010
0100
,
0001
1000
0001
1000
,
0001
0000
0000
0100
0000
0000
0000
2002
,
0000
0000
0000
3003
,
0220
0000
0000
0000
,
0330
0000
0000
0000
;

//---------------dance-single - ----------------
#NOTES:
     dance-single:
     :
     Medium:
     11:
     0.459,0.542,0.323,0.207,0.000:
1100
0000
0000
1100
0000
0000
0000
0000
,
0011
0000
0000
0011
0000
0000
0000
0000
,
1001
0000
0000
1001
0000
0100
0010
0200
,
0000
0000
0000
0300
,
0001
1000
0001
1000
,
0100
0010
0100
0010
,
0001
0100
0001
0100
,
0010
1000
0010
1000
,
0100
0010
0100
0000
0010
0000
0100
0000
,
1000
0001
1000
0000
0100
0000
1000
0000
,
0001
0100
0001
0000
0100
1000
0100
0000
,
0002
0000
1000
1003
,
0001
0000
1000
0000
0100
0000
0010
0100
,
0010
0100
0010
0100
0010
0100
0010
0000
,
0001
0000
1000
0000
0001
0100
0001
0100
,
0001
0100
0001
0100
0001
0000
1001
0000
,
1000
0000
0010
0000
0100
0001
0100
0001
,
0100
0001
0100
0001
0100
0001
1000
0000
,
0200
0000
0000
0320
0000
0000
0000
0230
,
0000
0000
0000
0300
,
1001
0000
0010
0000
0100
1000
0001
0100
,
0001
0100
0001
0100
0001
1000
0100
0000
,
1001
0000
0001
0000
0010
0001
0100
0010
,
0100
0010
0100
0001
0010
0000
0100
0000
,
1001
0000
1000
0000
0001
0100
0010
0100
,
0010
0100
0010
0100
0001
0000
1000
0000
,
0200
0000
0000
2300
0000
0000
0000
3020
,
0000
0000
0000
0030
,
0202
0000
0000
0000
,
0000
0000
0000
0303
,
0220
0000
0000
0000
,
0000
0000
0000
0330
,
1000
0001
0010
0001
,
1000
0100
0010
0001
,
1000
0010
0100
0001
,
1000
1000
1000
1000
,
0001
0000
0101
0000
0000
0100
0010
0000
,
1000
0000
1100
0000
0000
0100
1000
0000
,
0010
0000
0110
0000
0000
0100
0010
0000
,
0100
0000
0101
0000
0000
0001
0100
0000
,
0001
0000
1001
0000
0000
1000
0001
0000
,
0100
0000
0101
0000
0000
0100
0001
0000
,
0010
0000
0110
0000
0000
0100
1000
0000
,
0010
0010
0010
0010
,
0100
0001
0100
0000
0001
1000
0001
0000
,
1000
0100
1000
0000
0001
0010
0001
0000
,
0100
0010
0100
0000
0001
0100
0001
0000
,
0100
0010
0100
0000
0010
1000
0010
0000
,
1000
0100
0010
0000
0001
0010
0100
0000
,
1000
0100
0010
0000
0001
0010
0100
0000
,
1000
0010
0100
0000
0010
0100
0001
0000
,
2000
0001
0001
3001
,
2200
0000
0000
0000
,
0000
0000
0000
3300
,
1001
0000
0100
0010
1000
0001
1000
0001
,
1000
0100
0010
0000
0110
0000
0110
0000
,
1001
0000
1001
0000
0001
1000
0100
1000
,
0100
1000
0010
1000
0010
0100
0001
0000
,
0020
0000
0000
0230
0000
0000
0000
0320
,
0000
0000
0000
0030
,
1001
0000
1001
0000
1000
0001
0100
0001
,
0100
0001
1000
0100
1000
0100
0010
0000
,
0101
0000
0101
0000
0100
0010
1000
0010
,
1000
0010
0100
0001
0010
0000
0011
0000
,
1001
0000
0110
0000
0010
0100
0001
0010
,
0001
0010
0001
0010
0100
1000
0010
0000
,
0200
0000
0000
0302
0000
0000
0000
2003
,
0000
0000
0000
3000
,
1010
0000
0000
0110
0000
0000
0100
0001
,
1000
0100
1000
0100
0000
0000
0000
0000
,
0011
0000
0000
0110
0000
0100
1000
0200
,
0000
1000
1000
1300
,
1001
0000
0000
0101
0000
0000
0100
0010
,
1000
0100
1000
0100
0000
0000
0010
0001
,
0100
0000
0000
0010
0100
0010
1000
0020
,
0000
0000
0000
0130
,
2002
0000
0000
0000
,
3003
0000
0000
0000
;

//---------------dance-single - ----------------
#NOTES:
     dance-single:
     :
     Hard:
     13:
     0.591,0.606,0.414,0.315,0.075: // measure 1
1002
0000
0000
0200
0000
0000
0303
0000
,  // measure 2
2001
0000
0000
0200
0000
0000
3300
0000
,  // measure 3
0021
0000
0000
0130
1000
0001
0100
0002
,  // measure 4
0000
0000
0000
0103
,  // measure 5
0010
1000
0010
1000
0010
1000
0010
1000
,  // measure 6
0001
0010
0001
0010
0001
0010
0001
0010
,  // measure 7
0100
1000
0100
1000
0100
1000
0100
1000
,  // measure 8
0010
0100
0010
0000
1001
0000
1001
0000
,  // measure 9
0001
0100
0001
0100
0001
0100
0001
0100
,  // measure 10
0001
1000
0100
1000
0001
1000
0100
1000
,  // measure 11
0010
0001
0010
1000
0001
0100
0001
1000
,  // measure 12
0200
0000
1300
1100
,  // measure 13
1001
0000
0200
0000
0301
1000
0100
1000
,  // measure 14
0010
0001
0010
1000
0100
0001
0100
1000
,  // measure 15
0110
0000
0010
0100
0001
1000
0010
0001
,  // measure 16
0010
1000
0000
1000
0100
0000
1100
0000
,  // measure 17
1001
0000
0002
0000
0103
0010
1000
0001
,  // measure 18
0100
1000
0100
0001
0010
1000
0010
0001
,  // measure 19
0201
0000
0000
0320
0000
1030
0100
0020
,  // measure 20
0000
0000
0000
0130
,  // measure 21
1001
0000
2100
0000
3001
0100
0010
1000
,  // measure 22
0010
0001
0010
0100
0001
1000
0100
0000
,  // measure 23
0011
0000
1002
0000
0013
0100
1000
0100
,  // measure 24
0001
0100
0000
0100
1000
0000
1100
0000
,  // measure 25
1001
0000
1200
0000
0310
0001
1000
0001
,  // measure 26
0010
1000
0010
0100
1000
0001
0100
0001
,  // measure 27
2001
0000
0000
3010
0100
0010
1000
0002
,  // measure 28
0000
0000
0000
0003
,  // measure 29
0022
0000
0000
0000
,  // measure 30
0000
0000
0000
0033
,  // measure 31
2002
0000
0000
0000
,  // measure 32
0000
0000
0000
3003
,  // measure 33
1000
0000
0100
0000
0010
0000
0001
0000
0100
0000
0000
0100
0000
0000
0010
0000
,  // measure 34
0000
0010
0000
0000
0100
0000
0000
0100
0000
0000
0010
0000
1000
0000
0100
0000
,  // measure 35
0000
0000
0010
0000
0001
0000
1000
0000
0010
0000
0000
0010
0000
0000
0100
0000
,  // measure 36
0020
0000
0000
0030
,  // measure 37
1000
0000
0001
0000
0010
0000
0100
0000
1000
0000
0000
1000
0000
0000
0010
0000
,  // measure 38
0000
0010
0000
0000
0100
0000
0000
0100
0000
0000
0001
0000
1000
0000
0100
0000
,  // measure 39
0010
0000
0100
0000
1000
0000
0001
0000
0100
0000
0000
0100
0000
0000
0010
0000
,  // measure 40
0000
0010
0000
0000
1000
0000
0000
1000
0000
0000
0001
0000
0010
0000
0100
0000
,  // measure 41
0010
0000
0001
0000
0100
0000
0010
0000
0100
0000
0000
0100
0000
0000
0010
0000
,  // measure 42
0000
0010
0000
0000
1000
0000
0000
1000
0000
0000
0100
0000
0010
0000
0001
0000
,  // measure 43
1000
0000
0010
0000
1000
0000
0001
0000
0010
0000
0000
0010
0000
0000
0100
0000
,  // measure 44
1000
1000
1000
0000
0001
0001
0001
0000
,  // measure 45
1000
1100
0000
1001
0000
1100
0000
1001
,  // measure 46
0000
1100
0000
1001
0000
1100
0000
1001
,  // measure 47
0000
0011
0000
1001
0000
0011
0000
1001
,  // measure 48
0000
0011
0000
1001
0100
0010
0001
0000
,  // measure 49
0100
0001
1000
0001
0100
0001
1000
0001
,  // measure 50
0010
0100
1000
0100
0010
0100
1000
0100
,  // measure 51
0010
0001
1000
0001
0010
0001
1000
0001
,  // measure 52
0100
0100
0100
0100
0100
0000
0110
0000
,  // measure 53
1002
0000
0000
0000
,  // measure 54
1000
0000
0000
1003
,  // measure 55
0101
0000
0001
1000
0100
0001
1000
0010
,  // measure 56
0001
1000
0010
0100
0100
0000
1001
0000
,  // measure 57
1000
0100
0010
0001
1000
0001
0100
1000
,  // measure 58
0001
0010
1000
0001
0010
0100
0010
0001
,  // measure 59
0201
0000
0000
0302
0000
1003
0100
0020
,  // measure 60
0000
0000
0000
0030
,  // measure 61
1001
0000
0201
0000
0301
0010
0001
1000
,  // measure 62
0100
0001
1000
0010
0001
1000
0100
0000
,  // measure 63
1001
0000
1000
0100
0010
0001
0100
1000
,  // measure 64
0001
0010
1000
0001
0001
0000
1001
0000
,  // measure 65
0100
0100
1100
0000
1000
0001
0010
0001
,  // measure 66
0100
1000
0001
0010
1000
0001
0010
0100
,  // measure 67
1002
0000
0000
0103
0010
0100
0001
2000
,  // measure 68
0000
0000
0000
3000
,  // measure 69
1020
0000
0000
0000
0000
0000
0100
0000
0130
0000
0000
0000
0001
0000
1000
0100
,  // measure 70
1000
0000
0001
0000
0010
0000
0200
0000
0000
0000
0000
0000
0310
0000
0001
0100
,  // measure 71
0002
0000
0000
0013
0100
1000
0010
2000
,  // measure 72
0000
0001
0001
3001
,  // measure 73
0021
0000
0000
0000
0000
0000
0001
0000
0031
0000
0000
0000
1000
0000
0010
0100
,  // measure 74
0010
0000
1000
0000
0100
0000
0020
0000
0000
0000
0000
0000
0031
0000
1000
0010
,  // measure 75
2000
0000
0000
3001
0010
0100
1000
0001
,  // measure 76
0100
0100
0100
0100
0100
0000
0101
0000
,  // measure 77
2002
0000
0000
0000
,  // measure 78
3003
0000
0000
0000
;

//---------------dance-single - ----------------
#NOTES:
     dance-single:
     :
     Challenge:
     17:
     0.902,1.000,0.373,0.439,0.692: // measure 1
1200
0000
0000
0000
0000
0000
0320
0000
0000
0000
0000
0000
0031
0000
0100
0010
,  // measure 2
0100
0000
0001
0000
0010
0000
0200
0000
0000
0000
0000
0000
0310
0000
0001
1000
,  // measure 3
0002
0000
0000
0013
0100
1000
0001
0020
,  // measure 4
0000
0000
0000
0031
,  // measure 5
1000
0100
0001
0100
1000
0010
0001
0010
,  // measure 6
1000
0100
0001
0100
1000
0010
0001
0010
,  // measure 7
1000
0100
0001
0100
1000
0010
0001
0010
,  // measure 8
1000
0100
0010
0001
0001
0000
1001
0000
,  // measure 9
1000
0100
1000
0100
1000
0100
1000
0100
0010
0001
0010
0001
0010
0001
0010
0001
,  // measure 10
0010
0100
0010
0100
0010
0100
0010
0100
1000
0010
1000
0010
1000
0010
1000
0010
,  // measure 11
2000
3002
0023
0230
2300
3002
0203
0320
,  // measure 12
0130
0100
0100
0100
0110
0000
1001
0000
,  // measure 13
1100
0000
0010
0000
0002
0000
0000
0000
0103
0010
0100
0000
0001
1000
0100
1000
,  // measure 14
0001
1000
0100
1000
0001
1000
0100
1000
0001
0010
0100
1000
0001
0010
0100
0000
,  // measure 15
1020
0000
0000
0000
0130
0001
0100
0000
0001
0010
0100
0010
0001
0010
0100
0010
,  // measure 16
0001
0010
0100
0010
0002
0000
0100
0000
0103
0000
0000
0000
1001
0000
0000
0000
,  // measure 17
0021
0000
0130
0000
2000
0000
3100
0000
0010
0100
0010
0000
0001
0100
0010
0100
,  // measure 18
0001
0100
0010
0100
0001
0100
0010
0100
0001
0010
0100
1000
0001
0010
0100
0000
,  // measure 19
1020
0000
0000
0130
0001
0010
0100
0020
,  // measure 20
0000
0000
0000
0000
0000
0000
0000
0000
0000
0000
0000
0000
0031
0100
0001
0000
,  // measure 21
0110
0000
1000
0000
0020
0000
0000
0000
0130
0010
0100
0000
0001
1000
0100
1000
,  // measure 22
0001
1000
0100
1000
0001
1000
0100
1000
0001
0100
0010
0100
0001
1000
0100
0000
,  // measure 23
1001
0000
0000
0000
0001
0100
0001
0000
1000
0100
0010
0100
1000
0100
0010
0100
,  // measure 24
1000
0100
0010
0001
0100
0000
0010
0000
0110
0000
1000
0000
1001
0000
0000
0000
,  // measure 25
0011
0000
0100
0000
2000
0000
0000
0000
3010
0100
0010
0000
0100
0001
0010
0001
,  // measure 26
0100
0001
0010
0001
0100
0001
0010
0100
1000
0001
0010
0100
0010
0001
0100
0000
,  // measure 27
1020
0000
0000
0130
0001
0010
0100
2000
,  // measure 28
0000
0000
0000
3010
,  // measure 29
1000
0000
0001
0000
0010
0000
0100
0000
1000
0000
0000
1000
0000
0000
0010
0000
,  // measure 30
0000
0010
0000
0000
0100
0000
0000
0100
0000
0000
0001
0000
0010
0000
0100
0000
,  // measure 31
0010
0000
0001
0000
0100
0000
0010
0000
1000
0000
0000
1000
0000
0000
0001
0000
,  // measure 32
0000
0001
0000
0000
0010
0000
0000
0010
0000
0000
0100
0000
1000
0000
0010
0000
,  // measure 33
1000
0000
0001
0000
0010
0000
0100
0000
1000
0010
1000
0010
1000
0000
0000
0000
,  // measure 34
0100
0000
0010
0000
0001
0000
0100
0000
0010
0100
0010
0100
0010
0000
0000
0000
,  // measure 35
0100
0000
0001
0000
0010
0000
0100
0000
1000
0010
1000
0010
1000
0000
0000
0000
,  // measure 36
0001
0010
0100
1000
,  // measure 37
0100
0000
0010
0000
0001
0000
0100
0000
0010
0100
0010
0100
0010
0000
0100
0000
,  // measure 38
0001
0000
0010
0000
0100
0000
0010
0000
0001
0100
0001
0100
0001
0000
1000
0000
,  // measure 39
0010
0000
1000
0000
0001
0000
0100
0000
0010
0100
0010
0100
0010
0000
0100
0000
,  // measure 40
0001
0000
1000
0000
0100
0000
1000
0000
0001
0100
0001
0100
0001
0000
1000
0000
,  // measure 41
0100
0000
0001
0000
0100
0000
1000
0000
0001
0010
0001
0010
0001
0000
1000
0000
,  // measure 42
0010
0000
0001
0000
0010
0000
1000
0000
0001
0100
0001
0100
0001
0000
1000
0000
,  // measure 43
0100
0000
0001
0000
0100
0000
1000
0000
0010
0100
0010
0100
0010
0000
1000
0000
,  // measure 44
0100
0000
0010
0000
1001
0000
0000
0000
0010
0100
0010
0000
1001
0000
0000
0000
,  // measure 45
0001
0100
1000
0100
0001
0010
1000
0010
,  // measure 46
0001
0100
1000
0100
0001
0010
1000
0010
,  // measure 47
0001
0100
1000
0100
0001
0010
1000
0010
,  // measure 48
0001
0100
1000
0100
0001
0000
1001
0000
,  // measure 49
1000
0100
1000
0100
1000
0100
1000
0100
0010
0001
0010
0001
0010
0001
0010
0001
,  // measure 50
0100
0010
0100
0010
0100
0010
0100
0010
1000
0001
1000
0001
1000
0001
1000
0001
,  // measure 51
2000
3020
0230
0302
2003
3020
0230
0320
,  // measure 52
0130
0100
0100
0100
0110
0000
1001
0000
,  // measure 53
0011
0100
2000
0000
0000
0000
0000
0000
,  // measure 54
0100
0000
0000
0000
0000
0100
3100
0000
,  // measure 55
1001
0000
0000
0000
0001
0100
0001
0000
1000
0100
0010
0100
1000
0001
0100
0001
,  // measure 56
1000
0100
0010
0100
1000
0000
0010
0000
0110
0000
0000
0000
1001
0000
0000
0000
,  // measure 57
0021
0000
0130
0000
2000
0000
3100
0000
0010
0100
0010
0000
0001
0100
0010
0100
,  // measure 58
0001
1000
0100
1000
0001
0010
0100
0010
0001
1000
0010
0100
0001
1000
0010
0000
,  // measure 59
0102
0000
0000
0023
0000
0130
1000
0020
,  // measure 60
1000
0000
1000
0000
1000
0000
0000
0000
0100
0000
0100
0000
0130
0001
1000
0000
,  // measure 61
1100
0000
0010
0000
0002
0000
0000
0000
1003
0010
1000
0000
0100
0010
0001
0010
,  // measure 62
0100
1000
0010
1000
0100
0010
0001
0100
0010
0100
0001
0010
0001
0100
0010
0000
,  // measure 63
1001
0000
0000
0000
1000
0100
1000
0000
0001
0100
0010
0100
0001
1000
0100
0010
,  // measure 64
0100
1000
0001
0100
0010
0000
1000
0000
1100
0000
0000
0000
1001
0000
0000
0000
,  // measure 65
0101
0000
0001
0000
1001
0000
0000
0000
1000
0010
1000
0000
0001
0010
0100
0010
,  // measure 66
0001
1000
0010
1000
0001
0010
0100
0010
0001
0100
0010
1000
0100
1000
0001
0100
,  // measure 67
0020
0000
0000
0130
0001
0010
0100
2000
,  // measure 68
0100
0000
0100
0000
0100
0000
0000
0000
0001
0000
0001
0000
3001
1000
0100
0000
,  // measure 69
1001
0000
0010
0000
0100
0000
1010
0000
0220
0000
0000
0000
0330
0000
0100
0001
,  // measure 70
1000
0000
0100
0000
0011
0000
2002
0000
0000
0000
0000
0000
3003
0000
0001
0100
,  // measure 71
0010
0100
0001
0010
1000
0010
0001
2000
,  // measure 72
0001
0100
0001
3100
,  // measure 73
0011
0000
0100
0000
1000
0000
1010
0000
0220
0000
0000
0000
0330
0000
0001
0010
,  // measure 74
0100
0000
0010
0000
0011
0000
2002
0000
0000
0000
0000
0000
3003
0000
1000
0100
,  // measure 75
0020
0000
0000
0031
0100
1000
0100
0001
,  // measure 76
0010
0010
0010
0010
0110
0000
1010
0000
,  // measure 77
2002
0000
0000
0000
,  // measure 78
3003
0000
0000
0000
;

//---------------dance-single - ----------------
#NOTES:
     dance-single:
     :
     Beginner:
     3:
     0.131,0.157,0.091,0.000,0.000:
1001
0000
0000
0000
,
1000
0000
0000
0000
,
1001
0000
0000
0000
,
0000
0000
0000
0000
,
0001
0000
0000
0000
,
0100
0000
0000
0000
,
0001
0000
0000
0000
,
1000
0000
0000
0000
,
0100
0000
0100
0000
,
0010
0000
0010
0000
,
0100
0000
0100
0000
,
0010
0000
0000
0000
,
0001
0000
0100
0000
,
0001
0000
0100
0000
,
0001
0000
1000
0000
,
0001
0000
0000
0000
,
1000
0000
0100
0000
,
1000
0000
0100
0000
,
1000
0000
0000
0000
,
0000
0000
0000
0000
,
0010
0000
0100
0000
,
0010
0000
0100
0000
,
0001
0000
1000
0000
,
0001
0000
0000
0000
,
0010
0000
0001
0000
,
0010
0000
0001
0000
,
0100
0000
0000
0000
,
0000
0000
0000
0000
,
1001
0000
0000
0000
,
0000
0000
0000
0000
,
1001
0000
0000
0000
,
0000
0000
0000
0000
,
1000
0000
0000
0000
,
0100
0000
0000
0000
,
0010
0000
0000
0000
,
0001
0000
0000
0000
,
1000
0000
0010
0000
,
1000
0000
0010
0000
,
0100
0000
0001
0000
,
0100
0000
0001
0000
,
0010
0000
0100
0000
,
0010
0000
0100
0000
,
1000
0000
0001
0000
,
1000
0000
0000
0000
,
1001
0000
0000
0000
,
0001
0000
0000
0000
,
1001
0000
0000
0000
,
1000
0000
0000
0000
,
0001
0000
0010
0000
,
0001
0000
0010
0000
,
0100
0000
1000
0000
,
0100
0000
0000
0000
,
1001
0000
0000
0000
,
0000
0000
0000
0000
,
1000
0000
1000
0000
,
1000
0000
0000
0000
,
0010
0000
0100
0000
,
0100
0000
0100
0000
,
0100
0000
0000
0000
,
0000
0000
0000
0000
,
0001
0000
1000
0000
,
1000
0000
1000
0000
,
0001
0000
0010
0000
,
0010
0000
0010
0000
,
0100
0000
1000
0000
,
1000
0000
1000
0000
,
0010
0000
0000
0000
,
0000
0000
0000
0000
,
0100
0000
0000
0000
,
0110
0000
0000
0000
,
0010
0000
0000
0000
,
0110
0000
0000
0000
,
1000
0000
0000
0000
,
1001
0000
0000
0000
,
0001
0000
0000
0000
,
0000
0000
0000
0000
,
0110
0000
0000
0000
;
