#TITLE:Pet Peeve;
#SUBTITLE:;
#ARTIST:Hirayasu Matsudo;
#TITLETRANSLIT:;
#SUBTITLETRANSLIT:;
#ARTISTTRANSLIT:;
#CREDIT:DigiMindAxel;
#BANNER:Pet Peeve.png;
#BACKGROUND:Pet Peeve-bg.png;
#LYRICSPATH:;
#CDTITLE:SOUND VOLTEX.png;
#MUSIC:Pet Peeve.ogg;
#METERTYPE:DDR X;
#OFFSET:-7.626;
#SAMPLESTART:14.469;
#SAMPLELENGTH:12.000;
#SELECTABLE:YES;
#BPMS:0.000=140.000;
#STOPS:174.000=0.428571
;
#BGCHANGES:;

//---------------dance-single - ----------------
#NOTES:
     dance-single:
     :
     Easy:
     6:
     0.267,0.286,0.059,0.161,0.000:
1000
0100
0010
0001
,
1000
0010
1000
0001
,
1000
0100
0010
0001
,
0100
0000
0000
0000
,
1001
0001
0001
0001
,
0001
0010
0100
1000
,
1001
0001
0001
0001
,
0100
0010
1000
0100
,
1001
1000
1000
1000
,
1000
0100
0010
0001
,
1001
1000
1000
1000
,
0020
0000
0000
0000
,
0130
0001
1000
0100
,
0010
0010
0001
0001
,
0010
0100
1000
0100
,
0010
0010
0001
0001
,
0100
0010
0100
0001
,
1000
1000
0100
0100
,
0010
0100
1000
0010
,
0100
0000
0000
0000
,
1002
0000
2003
0000
,
3020
0000
0230
0000
,
0302
0000
0000
0000
,
2003
0000
0000
0000
,
3002
0000
0023
0000
,
0230
0000
2300
0000
,
3002
0000
0000
0000
,
0203
0000
0000
0000
,
0301
1000
0000
1000
,
0000
0100
0000
0100
,
0000
0010
0000
0010
,
0000
0001
0000
0001
,
1000
0100
1000
0000
,
0001
1000
0001
0000
,
0100
0010
0100
0000
,
0001
1000
0100
0000
,
0010
0001
0010
0001
,
0010
0001
0010
0001
,
0100
0010
0100
0010
,
0100
0010
0100
0010
,
1000
0100
1000
0100
,
0010
0001
0010
0001
,
0100
0100
0100
0100
,
2002
0000
3003
1000
,
1000
0010
0010
0100
,
0001
0010
0100
1000
,
1000
0010
0010
1000
,
0100
0010
0001
0100
,
0100
0001
0001
0010
,
0100
1000
0001
0100
,
0100
0001
0001
1000
,
0100
0010
0000
0001
,
0001
0100
0100
0010
,
0010
1000
1000
0001
,
0001
0010
0010
0100
,
0100
1000
1000
0001
,
0001
0100
0100
0010
,
0010
1000
1000
0001
,
0001
0010
0010
0200
,
0000
0000
0000
2300
,
0000
0000
0000
0000
3000
0000
0000
2002
,
0000
0000
3003
0000
;

//---------------dance-single - ----------------
#NOTES:
     dance-single:
     :
     Medium:
     11:
     0.483,0.468,0.592,0.203,0.000:
2000
3020
0032
0023
,
2030
3002
0203
0320
,
2030
3200
0302
0203
,
2300
0000
0000
3000
,
0101
0110
0101
0110
,
0101
0000
0110
0000
0010
1000
0100
0000
,
1100
1001
1100
1001
,
1100
0000
1001
0000
1000
0001
0010
0000
,
0011
0110
0011
0110
,
0011
0000
0110
0000
0100
1000
0010
0000
,
1010
0110
1010
0110
,
2020
0000
0000
3030
,
1000
0001
1000
0001
0100
0001
0100
0000
,
0010
1000
0010
1000
0010
0100
0010
0000
,
1000
0001
1000
0001
0010
0001
0010
0000
,
0100
1000
0100
1000
0010
0100
0010
0000
,
0100
0001
0100
0001
1000
0100
1000
0000
,
0100
0010
0100
0010
0001
0100
0001
0000
,
0010
0100
0010
0100
1000
0010
1000
0000
,
0002
0000
0000
0003
,
0011
0110
1100
0011
,
0110
1100
0011
0110
,
1100
1000
0010
0001
,
0010
1000
0001
0100
,
0010
1010
0110
0101
,
1010
0110
0101
1010
,
0110
0101
1001
0110
,
2002
0000
0000
3003
,
0001
1000
0100
0000
0010
0100
0010
0000
,
0001
1000
0100
0000
0010
0100
0010
0000
,
0001
0100
0010
0000
1000
0001
0010
0000
,
0001
0100
0010
0000
1000
0001
0010
0000
,
0100
1000
0010
0000
0100
0001
0010
0000
,
0100
1000
0010
0000
0100
0001
0010
0000
,
0001
0010
0100
0000
0010
0100
1000
0000
,
0010
0100
0001
0000
0010
0001
1000
0000
,
0001
0010
0000
0100
1000
0000
0001
0100
,
0000
0010
1000
0000
0001
0000
0010
0001
,
0000
0001
1000
0000
0010
0000
0010
0100
,
0000
0100
0001
0000
0010
0000
0010
0100
,
1000
0001
1000
0001
0100
0010
0100
0010
,
1000
0100
1000
0100
0010
0001
0010
0001
,
1000
0100
0010
0001
1000
0100
0010
0001
,
0220
0000
0330
0101
,
1001
0101
1001
0101
,
1001
0000
1000
0001
0010
0000
0011
0000
,
0110
0011
0110
0011
,
0110
0000
0100
1000
0001
0000
1001
0000
,
1010
1001
1010
1001
,
1010
0000
1000
0001
0010
0000
0011
0000
,
0110
0011
0110
0011
,
0110
0000
0100
1000
0001
0000
0010
0001
,
0010
0100
0010
0001
0010
0000
0100
1000
,
0001
1000
0100
1000
0001
0000
0010
0100
,
1000
0001
0010
0100
1000
0000
0010
0100
,
0001
1000
0010
0100
0001
0000
1000
0001
,
0010
0001
1000
0001
0010
0000
0100
0010
,
0001
1000
0010
1000
0001
0000
0010
0100
,
1000
0001
0100
0001
1000
0000
0002
0000
,
0000
0000
0000
0200
,
0000
0000
0000
0000
0303
0000
0000
0220
,
0000
0000
0330
0000
;

//---------------dance-single - ----------------
#NOTES:
     dance-single:
     :
     Hard:
     13:
     0.602,0.702,0.237,0.093,0.431: // measure 1
0000
0000
0001
0000
0000
0010
0000
0000
0100
0000
0000
1000
0000
0000
0000
0001
,  // measure 2
0000
0100
0000
0010
0000
0010
0000
0000
,  // measure 3
1000
0100
0010
0000
0001
1000
0010
0200
,  // measure 4
0020
0000
0000
0330
,  // measure 5
1000
0100
0001
0100
1000
0100
0001
0100
,  // measure 6
1000
0000
0010
0000
0200
0000
0000
0000
0301
0000
0000
1000
0000
0000
0100
0000
,  // measure 7
1000
0010
0001
0010
1000
0010
0001
0010
,  // measure 8
1000
0000
0100
0000
0020
0000
0000
0000
0130
0000
0000
1000
0000
0000
0001
0000
,  // measure 9
1000
0100
0001
0100
1000
0010
0001
0010
,  // measure 10
1000
0000
0100
0000
0020
0000
0000
0000
0031
0000
0000
0100
0000
0000
0001
0000
,  // measure 11
1000
0010
0001
0010
1000
0100
0001
0100
,  // measure 12
1000
0000
0001
0010
0001
0000
1000
0010
0000
1000
0010
0000
0100
0000
0001
0000
,  // measure 13
1000
1000
0100
0100
0010
0010
0001
1000
,  // measure 14
0000
0010
0100
0100
0001
0001
0010
0000
,  // measure 15
0001
0001
0010
0010
0100
0100
1000
0010
,  // measure 16
0000
0100
0010
0010
1000
1000
0100
0000
,  // measure 17
0010
0010
0001
0001
0100
0100
0010
1000
,  // measure 18
0000
0100
0010
0010
0001
0001
0100
0000
,  // measure 19
0010
0010
1000
1000
0100
0100
0010
0100
,  // measure 20
1000
0000
0001
0100
0001
0000
0010
0100
0000
0010
0100
0000
1000
0000
0001
0000
,  // measure 21
0010
0000
0010
0001
1000
0010
0100
0010
1000
0001
0100
0001
,  // measure 22
1000
0000
1000
0001
0100
0010
1000
0001
0010
0100
0000
0000
,  // measure 23
1000
0000
0000
0010
0000
0000
0001
0000
0000
0100
0000
0000
1000
0000
0000
0100
,  // measure 24
0000
0000
0001
0000
0000
0010
0000
0000
1000
0000
0000
0001
0000
0000
0010
0000
,  // measure 25
0100
0000
0100
1000
0010
0100
0001
0010
0001
0100
0010
0100
,  // measure 26
0001
0000
0001
1000
0010
0100
0010
1000
0100
0010
0000
0000
,  // measure 27
0001
0000
0000
0100
0000
0000
1000
0000
0000
0010
0000
0000
0001
0000
0000
0100
,  // measure 28
0010
0000
1000
0100
1000
0000
0001
0100
0000
0001
0100
0000
0010
0000
1000
0000
,  // measure 29
0100
0010
0011
0000
0100
1000
0001
0010
,  // measure 30
0100
1000
0001
0000
1000
0001
0100
0010
,  // measure 31
1000
0001
1001
0000
1000
0010
0100
1000
,  // measure 32
0100
0010
1000
0000
0001
1000
0100
0010
,  // measure 33
0011
0000
0000
1001
0000
0000
0011
0000
0000
1001
0000
0000
1010
0000
0000
1001
,  // measure 34
0000
0000
1010
0000
0000
1001
0000
0000
0110
0000
0000
1001
0000
0000
0110
0000
,  // measure 35
0000
1001
0000
0000
0011
0000
0000
0110
0000
0000
1100
0000
0000
0110
0000
0000
,  // measure 36
0011
0000
0000
0110
0000
0000
1100
0000
0000
1001
0000
0000
1002
0000
0000
0000
,  // measure 37
0103
0000
0100
0000
0100
0000
0000
0001
0000
0100
0000
1000
0000
0001
0000
0010
,  // measure 38
0000
1000
0001
0000
0001
0000
0000
1000
0000
0100
0000
0001
0000
1000
0000
0010
,  // measure 39
0000
0001
1000
0000
1000
0000
0000
0001
0000
0100
0000
1000
0000
0001
0000
0010
,  // measure 40
0000
1000
0001
0000
0001
0000
0000
1000
0000
0100
0000
0010
0000
0001
1000
0000
,  // measure 41
0001
0010
1000
0010
0001
0100
1000
0100
,  // measure 42
0001
1000
0100
0001
1000
0100
0010
1000
,  // measure 43
0001
0100
0001
0100
0001
0100
0001
0100
0001
1000
0001
1000
0001
1000
0001
1000
,  // measure 44
0100
0010
0001
1000
0002
0000
0000
0000
2003
0000
0000
0000
3001
0000
0010
0000
,  // measure 45
1000
0010
0001
0100
1000
0100
0001
0010
,  // measure 46
1100
0000
1000
0000
0001
0000
0010
0100
0000
1000
0001
0000
1000
0000
0010
0000
,  // measure 47
0001
0010
1000
0100
0001
0100
1000
0010
,  // measure 48
0101
0000
0001
0000
1000
0000
0100
0010
0000
0001
1000
0000
0001
0000
0100
0000
,  // measure 49
1000
0100
0001
0010
1000
0010
0001
0010
,  // measure 50
1100
0000
1000
0000
0010
0000
0100
0001
0000
1000
0100
0000
1000
0000
0100
0000
,  // measure 51
0001
0100
1000
0010
0001
0010
1000
0100
,  // measure 52
0011
0000
0001
0000
2000
0000
0000
0010
0000
0000
3010
0000
0100
0000
0100
0000
,  // measure 53
0001
0001
1000
1000
0100
0010
0000
0001
,  // measure 54
0100
0100
0001
0001
1000
0000
0100
0100
,  // measure 55
0010
0010
0001
0001
0100
0010
0000
0100
,  // measure 56
0001
0001
0010
0010
0100
0000
1000
1000
,  // measure 57
0001
0001
0010
0010
0100
1000
0000
0010
,  // measure 58
0100
0100
0001
0001
0010
0000
0001
0001
,  // measure 59
0100
0000
0100
0000
0010
0000
0010
0000
1000
0000
0100
0000
0010
0000
0001
0100
,  // measure 60
0001
0000
1000
0100
0000
1000
0100
0000
0010
0000
0001
0000
0100
0000
0100
0000
,  // measure 61
0010
0100
0010
0000
0100
0000
0001
1000
0000
0001
1000
0000
0100
0000
0022
0000
,  // measure 62
0000
0000
0033
0000
;

//---------------dance-single - ----------------
#NOTES:
     dance-single:
     :
     Beginner:
     2:
     0.103,0.129,0.008,0.000,0.000:
1000
0000
0000
0000
,
1000
0000
0000
0000
,
0001
0000
0000
0000
,
0001
0000
0000
0000
,
0010
0000
0100
0000
,
0010
0000
0000
0000
,
0100
0000
1000
0000
,
0100
0000
0000
0000
,
0010
0000
0100
0000
,
0010
0000
0000
0000
,
0100
0000
1000
0000
,
0100
0000
0000
0000
,
0010
0000
0001
0000
,
0010
0000
0000
0000
,
0001
0000
1000
0000
,
0001
0000
0000
0000
,
0010
0000
0001
0000
,
0010
0000
0000
0000
,
0001
0000
1000
0000
,
0001
0000
0000
0000
,
0100
0000
0000
0000
,
0100
0000
0000
0000
,
0010
0000
0000
0000
,
0010
0000
0000
0000
,
1000
0000
0000
0000
,
1000
0000
0000
0000
,
0001
0000
0000
0000
,
0001
0000
0000
0000
,
1000
0000
0000
0000
,
0100
0000
0000
0000
,
0010
0000
0000
0000
,
0001
0000
0000
0000
,
1000
0000
0000
0000
,
0010
0000
0000
0000
,
0100
0000
0000
0000
,
0001
0000
0000
0000
,
1000
0000
0000
0000
,
0100
0000
0000
0000
,
1000
0000
0000
0000
,
0001
0000
0000
0000
,
0010
0000
0100
0000
,
0010
0000
0100
0000
,
0010
0000
0000
0000
,
0010
0000
0000
1001
,
0000
1000
0000
1000
,
0000
1000
0000
0001
,
0000
0001
0000
0001
,
0000
0001
0000
1000
,
0000
1000
0000
1000
,
0000
1000
0000
0001
,
0000
0001
0000
0001
,
0000
0001
0000
0010
,
0000
0100
0000
0010
,
0000
0000
0000
0100
,
0000
1000
0000
0100
,
0000
0000
0000
1000
,
0000
0001
0000
1000
,
0000
0000
0000
0001
,
0000
0100
0000
0001
,
0000
0000
0000
1000
,
0000
0000
0000
0000
0000
0000
0000
0100
;
