#VERSION:0.83;
#TITLE:Pale Garden;
#SUBTITLE:;
#ARTIST:Dirty Androids;
#TITLETRANSLIT:;
#SUBTITLETRANSLIT:;
#ARTISTTRANSLIT:;
#GENRE:;
#ORIGIN:;
#CREDIT:DigiMindAxel;
#BANNER:Pale Garden.png;
#BACKGROUND:Pale Garden-bg.png;
#PREVIEWVID:;
#JACKET:Pale Garden-jacket.png;
#CDIMAGE:;
#DISCIMAGE:;
#LYRICSPATH:;
#CDTITLE:jubeat.png;
#MUSIC:Pale Garden.ogg;
#OFFSET:-12.533000;
#SAMPLESTART:36.500000;
#SAMPLELENGTH:12.000000;
#SELECTABLE:YES;
#BPMS:0.000=160.000,
96.000=80.000,
112.000=160.000,
144.000=80.000,
160.000=160.000;
#STOPS:;
#DELAYS:;
#WARPS:;
#TIMESIGNATURES:0.000=4=4;
#TICKCOUNTS:0.000=4;
#COMBOS:0.000=1;
#SPEEDS:0.000=1.000=0.000=0;
#SCROLLS:0.000=1.000;
#FAKES:;
#LABELS:0.000=Song Start;
#BGCHANGES:;
#KEYSOUNDS:;
#ATTACKS:
;

//---------------dance-single - ----------------
#NOTEDATA:;
#CHARTNAME:;
#STEPSTYPE:dance-single;
#DESCRIPTION:;
#CHARTSTYLE:;
#DIFFICULTY:Easy;
#METER:5;
#RADARVALUES:0.234131,0.310532,0.211727,0.196043,0.019604,209.000000,182.000000,27.000000,25.000000,0.000000,0.000000,0.000000,0.000000,0.000000,0.234131,0.310532,0.211727,0.196043,0.019604,209.000000,182.000000,27.000000,25.000000,0.000000,0.000000,0.000000,0.000000,0.000000;
#CREDIT:;
#NOTES:
// measure 0
0001
0001
0001
0001
,  // measure 1
0100
0100
0100
0100
,  // measure 2
0001
0001
0001
0001
,  // measure 3
1000
1000
1000
1000
,  // measure 4
0100
0010
0100
0010
,  // measure 5
0001
1000
0001
1000
,  // measure 6
0100
0010
0100
0010
,  // measure 7
0002
0000
1000
1003
,  // measure 8
2002
0000
0000
0000
0000
3003
0000
0110
,  // measure 9
0000
0000
0010
0000
0000
0010
0000
0000
,  // measure 10
0000
0000
2002
0000
0000
3003
0000
1000
,  // measure 11
0000
0001
0000
0000
0000
0000
1000
0000
,  // measure 12
2002
0000
0000
3003
0000
0000
0000
1001
,  // measure 13
0000
0000
0001
0000
0000
0001
0000
0000
,  // measure 14
0001
0000
0000
0010
0000
0000
2002
0000
,  // measure 15
0000
0000
0000
3003
,  // measure 16
1000
0000
0000
0000
1001
0000
0000
0010
,  // measure 17
0000
0000
0010
0000
0000
0010
0000
0000
,  // measure 18
0000
0000
1000
0000
1001
0000
0000
0010
,  // measure 19
0000
0010
0000
0010
0000
0000
0000
0000
,  // measure 20
2002
0000
0000
3003
0000
0000
0000
1001
,  // measure 21
0000
0000
1000
0000
0000
1000
0000
0000
,  // measure 22
0010
0000
0000
0100
0000
0000
0220
0000
,  // measure 23
0000
0000
0000
0330
,  // measure 24
1001
0000
0000
0000
0000
0001
0010
0100
,  // measure 25
1000
0000
0000
0000
0000
0100
1000
0010
,  // measure 26
0100
0000
0000
0000
0000
0001
0010
0100
,  // measure 27
0010
0000
0000
0010
0000
0000
0000
0001
0000
1000
0000
0001
0000
1000
0000
0000
,  // measure 28
0100
0010
0100
0000
,  // measure 29
0010
0001
0010
0000
,  // measure 30
0001
1000
0001
0000
,  // measure 31
1000
0010
1000
0000
,  // measure 32
0001
0100
0001
0000
,  // measure 33
1000
0000
0001
0000
1000
0000
0000
1001
,  // measure 34
0000
0000
0000
0001
0000
0000
0001
0000
,  // measure 35
0000
1000
0000
0000
1000
0000
0000
0000
,  // measure 36
0200
0000
0000
0000
,  // measure 37
2300
0000
0000
0000
,  // measure 38
3020
0000
0000
0000
,  // measure 39
0230
0000
0000
0000
,  // measure 40
0310
0010
0010
0010
,  // measure 41
1000
1000
1000
1000
,  // measure 42
0001
0001
0001
0001
,  // measure 43
0010
0010
0010
0010
,  // measure 44
0001
1000
0001
1000
,  // measure 45
0100
0010
0100
0010
,  // measure 46
0001
1000
0001
1000
,  // measure 47
0100
0010
0001
1000
,  // measure 48
1001
0000
0000
0001
0000
0000
0000
0110
,  // measure 49
0000
0000
0100
0000
0000
0100
0000
0000
,  // measure 50
0000
0000
0001
0000
1000
0000
0000
1001
,  // measure 51
0000
0001
0010
0000
,  // measure 52
1001
0000
0000
1000
0000
0000
0000
0110
,  // measure 53
0000
0000
0100
0000
0000
0100
0000
0000
,  // measure 54
0002
0000
0000
2003
0000
0000
3001
0000
,  // measure 55
0000
0000
0100
0100
,  // measure 56
0110
0000
0000
0100
0000
0000
0000
1001
,  // measure 57
0000
0000
1000
0000
0000
1000
0000
0000
,  // measure 58
0000
0000
0100
0000
0010
0000
0000
0002
,  // measure 59
0000
2000
0000
0000
0000
0000
3003
0000
,  // measure 60
0000
0000
1000
0000
0010
0000
0000
0110
,  // measure 61
0000
0000
0100
0000
0000
0100
0000
0000
,  // measure 62
1001
0000
0000
0001
0000
0000
1001
0000
,  // measure 63
0000
2002
0000
0000
0000
0000
3003
0000
,  // measure 64
1001
0000
0000
1000
0000
0000
0220
0000
,  // measure 65
0000
0000
0000
0330
,  // measure 66
1001
0000
0000
0000
;

//---------------dance-single - ----------------
#NOTEDATA:;
#CHARTNAME:;
#STEPSTYPE:dance-single;
#DESCRIPTION:;
#CHARTSTYLE:;
#DIFFICULTY:Medium;
#METER:11;
#RADARVALUES:0.446978,0.491676,0.470503,0.329352,0.137230,399.000000,339.000000,60.000000,42.000000,0.000000,0.000000,0.000000,0.000000,0.000000,0.446978,0.491676,0.470503,0.329352,0.137230,399.000000,339.000000,60.000000,42.000000,0.000000,0.000000,0.000000,0.000000,0.000000;
#CREDIT:;
#NOTES:
// measure 0
1000
0100
0010
0001
1000
0000
1000
0001
,  // measure 1
1000
0100
0010
0001
1000
0000
1000
0000
,  // measure 2
0001
0010
0100
1000
0001
0000
0001
1000
,  // measure 3
0001
0010
0100
1000
0001
0000
0001
0000
,  // measure 4
0100
0100
0100
0100
0001
1000
0100
0000
,  // measure 5
0010
0010
0010
0010
0001
1000
0010
0000
,  // measure 6
0100
0010
0100
0010
1000
0100
0010
0001
,  // measure 7
1000
0000
0010
0000
1000
0000
0001
0000
0010
0000
0001
0000
0100
0000
0000
0000
0000
0000
0100
0000
0000
0010
0000
0000
,  // measure 8
2002
0000
3003
0000
0000
0100
0000
0101
,  // measure 9
0000
0000
0101
0000
0000
0101
0000
0220
,  // measure 10
0000
0330
1001
0000
1000
0001
1000
0100
,  // measure 11
0000
0011
1000
0001
1000
0010
0100
0000
,  // measure 12
1001
0000
0000
1001
0000
0000
2002
0000
0000
0000
0000
0000
3003
0000
0110
0000
,  // measure 13
0000
0000
0110
0000
0000
0110
0000
0000
,  // measure 14
0110
0000
0000
1100
0000
0000
0010
0001
,  // measure 15
1000
0001
1000
0010
0100
0000
0100
0000
,  // measure 16
0010
0000
0000
1000
0000
0000
0010
0000
0100
0000
0001
0000
0010
0000
1100
0000
,  // measure 17
0000
0000
1001
0000
0000
1001
0000
0220
,  // measure 18
0000
0330
1001
0000
0001
0100
0001
1000
,  // measure 19
0000
1010
0000
0010
0100
0010
1000
0000
,  // measure 20
1001
0000
0000
1001
0000
0000
2002
0000
0000
0000
3003
0000
0000
0000
0101
0000
,  // measure 21
0000
0000
0101
0000
0000
0101
0000
0000
,  // measure 22
2001
0000
0000
3020
0000
0000
1030
0001
,  // measure 23
1000
0100
1000
0001
0100
0100
0000
0000
,  // measure 24
0110
0000
0000
1000
0000
0000
0100
0000
0000
0000
1000
0000
0000
0000
0002
0000
0000
0000
0000
0000
0000
0000
0000
0000
0103
0000
0000
0000
0000
0000
0000
0000
,  // measure 25
0001
0000
0000
0010
0000
0000
0001
0000
0000
0000
1000
0000
0000
0000
0020
0000
0000
0000
0000
0000
0000
0000
0000
0000
0000
0000
0000
0000
0030
0000
0000
0000
,  // measure 26
1000
0000
0000
0001
0000
0000
1000
0000
0000
0000
0001
0000
0000
0000
0020
0000
0000
0000
0000
0000
0000
0000
0000
0000
0130
0000
0000
0000
0000
0000
0000
0000
,  // measure 27
1001
0000
0000
1000
0000
0000
0001
0000
0000
0000
1000
0000
0000
0000
0100
0000
0000
0000
0100
0000
0000
0000
1100
0000
0000
0000
1100
0000
0000
0000
0000
0000
,  // measure 28
1001
0000
0000
0001
0000
0000
0001
0000
0000
0000
0100
0000
0000
0000
0110
0000
,  // measure 29
0000
1000
0100
0010
0001
1000
0001
0000
,  // measure 30
0100
0000
0000
0100
0000
0000
0100
0000
0000
0000
0001
0000
0000
0000
1001
0000
,  // measure 31
0000
1000
1000
0010
0010
0100
0001
0000
,  // measure 32
0010
0000
0000
0010
0000
0000
0010
0000
0000
0000
0100
0000
0000
0000
1100
0000
,  // measure 33
0000
1000
1000
0010
0010
0100
0001
1000
,  // measure 34
0000
0100
0010
0001
0000
0010
0100
0000
,  // measure 35
1000
0100
0000
0010
0100
1000
0001
0000
,  // measure 36
0002
0000
0000
0000
0000
0000
0000
0200
0000
0000
0000
0000
0000
0000
0303
0000
,  // measure 37
0020
0000
0000
0000
0000
0000
0000
0200
0000
0000
0000
0000
0000
0000
0330
0000
,  // measure 38
0002
0000
0000
0000
0000
0000
0000
2000
0000
0000
0000
0000
0000
0000
3003
0000
,  // measure 39
0200
0000
0000
0000
0000
0000
0000
2000
0000
0000
0000
0000
0000
0000
3300
0000
,  // measure 40
1000
0010
0100
0001
1000
0000
1000
0001
,  // measure 41
1000
0010
0100
0001
1000
0000
1000
0000
,  // measure 42
0001
0010
0100
1000
0001
0000
0001
1000
,  // measure 43
0001
0010
0100
1000
0001
0000
0001
0000
,  // measure 44
0100
0001
1000
0100
1000
0000
0010
0100
,  // measure 45
0001
1000
0100
1000
0100
1000
0100
0000
,  // measure 46
0010
0001
0010
0001
1000
0010
1000
0001
,  // measure 47
0001
0010
0000
0010
0000
0010
0100
1000
,  // measure 48
0020
0000
0000
1030
0001
1000
0000
1001
,  // measure 49
0000
0000
1001
0000
0000
0001
1000
0100
,  // measure 50
0000
0000
0011
0000
0001
1000
0010
1010
,  // measure 51
0000
0010
0100
0010
1000
0100
0010
0100
,  // measure 52
1000
0000
0000
1000
0000
0000
0002
0000
2000
0000
0000
0000
3003
0000
1001
0000
,  // measure 53
0000
0000
0011
0000
0000
1100
0000
0000
,  // measure 54
2002
0000
3003
0220
0000
0330
0001
2000
,  // measure 55
0000
0000
0010
3010
,  // measure 56
1001
0000
0000
0001
0000
0000
0001
0000
0100
0000
0010
0000
0000
0000
1001
0000
,  // measure 57
0000
0000
1010
0000
0000
0101
0000
0000
,  // measure 58
0001
0010
0100
1000
0001
0100
0000
1001
,  // measure 59
0000
1000
0100
0010
0001
1000
0001
0000
,  // measure 60
0000
0000
0100
0001
1000
1100
0000
1001
,  // measure 61
0000
0000
0011
0000
0000
1100
0000
0000
,  // measure 62
2002
0000
3003
0202
0000
0303
2020
0000
,  // measure 63
3030
0010
0100
0010
1000
0100
0010
0001
,  // measure 64
2200
0000
3300
0022
0000
0033
0001
2000
,  // measure 65
0000
0000
0000
0000
3100
0010
0100
0010
,  // measure 66
1001
0000
0000
0000
;

//---------------dance-single - ----------------
#NOTEDATA:;
#CHARTNAME:;
#STEPSTYPE:dance-single;
#DESCRIPTION:;
#CHARTSTYLE:;
#DIFFICULTY:Hard;
#METER:15;
#RADARVALUES:0.723679,0.776331,0.501870,0.297985,0.721438,646.000000,582.000000,64.000000,38.000000,0.000000,0.000000,0.000000,0.000000,0.000000,0.723679,0.776331,0.501870,0.297985,0.721438,646.000000,582.000000,64.000000,38.000000,0.000000,0.000000,0.000000,0.000000,0.000000;
#CREDIT:;
#NOTES:
// measure 0
0001
0010
0100
1000
0001
0010
0100
0000
,  // measure 1
1000
0100
0010
0001
1000
0100
0010
0001
,  // measure 2
1000
0010
0001
0010
1000
0100
0010
0000
,  // measure 3
0001
0100
1000
0100
0001
0010
0100
1000
,  // measure 4
0001
0000
0001
0000
1000
0000
1000
0000
0010
0000
0010
0000
0100
0000
0100
0001
,  // measure 5
1000
0000
1000
0000
0010
0000
0010
0000
0100
0000
0100
0000
0001
1000
0001
1000
,  // measure 6
0100
0100
0010
0010
0001
0001
1000
1000
,  // measure 7
0010
0000
0000
0000
1000
0000
0000
0000
0100
0000
0000
0000
0001
0000
0000
0000
0100
0000
0000
0000
1000
0000
0000
0000
0001
0000
0000
0010
0000
0000
0000
0000
0000
0001
0000
0000
0100
0000
0000
0000
0000
0000
0100
0000
0000
0000
0000
0000
,  // measure 8
2001
0000
0000
0000
3010
0000
0100
0001
1000
0100
0010
0001
0100
0010
2000
0000
,  // measure 9
0000
0000
3010
0000
0110
0000
0000
0000
0001
0000
0011
0000
0000
0000
0001
0010
,  // measure 10
0100
1000
0100
0010
0002
0000
0000
0000
0103
0000
0100
0000
0100
0000
0110
0000
,  // measure 11
0000
0000
0000
0000
0000
0000
1001
0000
0000
0000
0000
0000
0000
0000
0000
0001
0000
0000
1000
0000
0000
0010
0000
0000
0100
0000
0000
0001
0000
0000
1000
0000
0000
0100
0000
0000
0010
0000
0000
0000
0000
0000
0001
0000
1000
0000
0001
0000
,  // measure 12
1000
0000
0000
1001
0000
0000
1001
0000
0010
0001
0100
0010
1000
0100
0020
0000
,  // measure 13
0000
0000
0031
0000
1001
0000
0000
0000
0100
0000
1100
0000
0000
0000
0010
0100
,  // measure 14
0001
0000
0100
0001
1000
0100
0010
0001
1000
0010
0100
0010
1000
0000
1002
0000
,  // measure 15
0000
0000
0000
0000
0000
0000
0000
0000
0103
0001
0010
0001
0100
0000
0100
0000
,  // measure 16
1001
0000
0000
1010
0000
0000
0101
0000
0010
1000
0001
0010
0100
1000
0002
0000
,  // measure 17
0000
0000
1003
0000
0110
0000
0000
0000
0001
0000
0110
0000
0000
0000
0000
1000
,  // measure 18
0100
0001
0100
1000
0002
0000
0000
0000
0103
0000
0100
0000
0100
0000
0110
0000
,  // measure 19
0000
0000
0000
0000
0000
0000
0000
0000
0000
0000
0000
0000
0000
0000
0000
0000
0000
0000
0000
0000
0000
0000
0000
0000
1001
0000
0000
0000
0000
0000
0000
0000
0000
0000
0000
0000
0000
0000
0000
0000
0000
0000
0000
0000
0000
0000
0000
0000
0000
0000
0000
0000
0000
0000
0000
0000
0000
0000
0000
0000
0000
0000
0000
0000
0000
0000
0000
0000
0000
0000
0000
0000
1000
0000
0000
0000
0000
0000
0000
0000
0000
0000
0000
0000
0000
0000
0000
0000
0000
0000
0000
0000
0000
0000
0000
0000
0010
0000
0000
0000
0000
0000
0000
0000
0000
0000
0000
0000
1000
0000
0000
0000
0000
0000
0000
0000
0000
0000
0000
0000
0001
0000
0000
0000
0000
0000
0000
0000
0000
0000
0000
0000
0010
0000
0000
0000
0000
0000
0000
0000
0000
0000
0000
0000
0100
0000
0000
0000
0000
0000
0000
0000
1000
0000
0000
0000
0000
0000
0000
0000
0000
0000
0100
0000
0000
0000
0000
0000
1000
0000
0000
0000
0000
0000
0000
0000
0000
0000
0000
0000
0000
0000
0000
0000
0000
0000
0000
0000
0000
0000
0000
0000
,  // measure 20
0101
0000
0000
1010
0000
0000
1001
0000
0010
0001
0100
0010
1000
0100
0020
0000
,  // measure 21
0000
0000
0031
0000
0110
0000
0000
0000
1000
0000
0110
0000
0000
0000
0001
1000
,  // measure 22
0010
0000
0000
0100
0010
1000
0100
0010
0001
1000
0010
0001
0010
1000
0002
0000
,  // measure 23
0000
0000
0000
0000
0100
0103
0000
0000
,  // measure 24
0010
0000
0000
1000
0000
0000
0010
0000
0000
0000
0200
0000
0000
0000
0302
0000
0000
0000
1003
0000
0100
0000
0001
0000
1000
0000
0010
0000
0001
0000
1000
0000
,  // measure 25
0001
0000
0000
0010
0000
0000
0001
0000
0000
0000
2000
0000
0000
0000
3020
0000
0000
0000
1030
0000
0100
0000
0001
0000
1000
0000
0010
0000
0001
0000
1000
0000
,  // measure 26
0010
0000
0000
0100
0000
0000
0010
0000
0000
0000
2000
0000
0000
0000
3002
0000
0000
0000
0013
0000
0100
0000
1000
0000
0010
0000
0100
0000
0010
0000
0100
0010
,  // measure 27
1000
0000
0000
1000
0000
0000
1001
0000
0000
0000
0001
0000
0000
0000
1100
0000
0000
0000
1100
0000
0000
0000
0011
0000
0000
0000
0011
0000
0100
0000
1000
0001
,  // measure 28
2000
0000
0000
3020
0000
0000
1030
0000
0000
0000
1010
0000
0000
0000
1001
0000
,  // measure 29
0000
0001
0010
1000
0010
0001
0100
0010
,  // measure 30
2000
0000
0000
3002
0000
0000
1003
0000
0000
0000
1001
0000
0000
0000
0011
0000
,  // measure 31
0000
0000
0100
0010
0100
0000
1000
0100
1000
0000
0001
0010
0001
0000
1000
0000
,  // measure 32
0020
0000
0000
0230
0000
0000
0310
0000
0000
0000
1010
0000
0000
0000
1001
0000
,  // measure 33
0000
0000
0010
1000
0010
0000
1000
0000
0001
0000
0010
0000
0100
0000
2001
0000
,  // measure 34
0000
0000
3001
0010
0100
0000
1000
0000
0001
0000
0010
0100
1000
0000
0010
0000
,  // measure 35
0110
0000
1000
0000
0100
0000
0011
0000
0100
0000
1000
0001
0100
0000
0010
0000
,  // measure 36
2000
0000
3001
1000
0000
0100
0000
0010
0000
0001
0000
0001
0000
0001
0100
0010
,  // measure 37
1000
0100
0001
0100
0000
1000
0000
0010
0000
0100
0000
0001
0000
2000
0000
0000
,  // measure 38
3001
0100
1000
0100
0000
0001
0000
0010
0000
0100
0000
1000
0000
0002
0000
1003
,  // measure 39
0100
0010
0001
1000
0000
0010
0000
0001
0000
0010
0000
1000
0000
0002
0000
0000
,  // measure 40
1003
0100
0010
0001
1000
0100
0010
0001
,  // measure 41
1000
0100
0001
0100
1000
0010
0001
0010
,  // measure 42
1000
0010
0100
0001
1000
0010
0100
0001
,  // measure 43
1000
0100
0001
0100
1000
0010
0001
0010
,  // measure 44
1000
0000
1000
0000
0001
0000
0001
0000
0100
0000
0100
0000
0010
0000
0010
1000
,  // measure 45
0001
0000
0000
0000
0000
0000
0001
0000
0000
0000
0000
0000
1000
0000
0000
0000
0000
0000
1000
0000
0000
0000
0000
0000
0100
0000
0000
0000
0000
0000
0010
0000
0000
0000
0000
0000
0001
0000
0100
0000
0001
0000
0100
0000
0000
0001
0000
0000
,  // measure 46
1000
0100
0010
0001
0010
0100
1000
0010
,  // measure 47
0110
0000
0001
0000
0010
0000
0100
0000
1000
0001
0000
1000
0010
0000
0010
0000
,  // measure 48
2001
0000
0000
0000
3010
0000
0110
0000
0001
0100
0010
1000
0100
0010
0002
0000
,  // measure 49
0000
0000
1003
0000
0110
0000
0000
0000
0001
0000
0110
0000
1000
0000
0001
0100
,  // measure 50
0010
0100
0001
0000
2001
0000
0000
0000
3010
0000
0010
0000
0010
0000
0110
0000
,  // measure 51
0000
0000
0001
0000
0100
0010
1000
0000
1001
0000
0001
0000
0010
0100
1000
0100
,  // measure 52
0010
0000
0000
0011
0000
0000
1001
0000
0100
1000
0010
0100
0001
0010
0200
0000
,  // measure 53
0000
0000
1300
0000
0110
0000
0000
0000
0001
0000
0110
0000
1000
0000
0100
1000
,  // measure 54
0020
0000
0000
0000
0130
0001
0010
0100
1000
0001
0100
0010
0100
0001
2000
0000
,  // measure 55
0000
0000
0000
0000
0000
0000
0000
0000
3001
1000
0000
0001
0100
0000
0100
0000
,  // measure 56
1010
0000
0000
0101
0000
0000
0110
0000
1010
0000
0100
0000
0010
0000
0002
0000
,  // measure 57
0000
0000
0000
0000
0000
0000
0103
0000
0000
0000
0000
0000
0110
0000
0000
0000
0000
0000
0000
0000
0000
0000
0000
0000
1000
0000
0000
0000
0000
0000
1100
0000
0000
0000
0000
0000
0010
0000
0001
0000
0010
0000
0001
0000
0000
0100
0000
0000
,  // measure 58
0010
0100
0010
0000
1001
0000
0000
0000
0001
0000
0011
0000
0000
0000
1010
0000
,  // measure 59
0000
0000
0000
1001
0000
0000
0100
0000
0000
0010
0000
0000
0101
0000
0000
0010
0000
0000
0100
0000
0000
1000
0001
1000
,  // measure 60
0001
0000
0000
0000
0010
0001
0100
0010
1000
0100
0010
0001
0100
0000
0110
0000
,  // measure 61
0000
0000
0000
0000
0000
0000
0001
0000
0000
0000
0000
0000
0011
0000
0000
0000
0000
0000
0000
0000
0000
0000
0000
0000
0100
0000
0000
0000
0000
0000
1000
0000
0100
0000
1000
0000
0100
0000
0000
1000
0000
0000
0001
0000
0000
0000
0000
0000
,  // measure 62
2001
0000
0000
0000
3010
0100
0002
0000
0000
0000
0013
0100
2000
0000
0000
0000
,  // measure 63
3100
0010
0001
0000
1000
0010
0100
0010
1000
0010
0100
0001
0010
0000
0100
1000
,  // measure 64
0002
0000
0000
0000
0013
0100
2000
0000
0000
0000
3010
0100
0001
0000
1001
0000
,  // measure 65
0000
0000
0010
1000
0010
1000
0010
0100
0001
0010
1000
0010
0001
0000
0100
0000
,  // measure 66
1001
0000
0000
0000
;

//---------------dance-single - ----------------
#NOTEDATA:;
#CHARTNAME:;
#STEPSTYPE:dance-single;
#DESCRIPTION:;
#CHARTSTYLE:;
#DIFFICULTY:Beginner;
#METER:2;
#RADARVALUES:0.090740,0.129388,0.023525,0.000000,0.000000,81.000000,78.000000,3.000000,0.000000,0.000000,0.000000,0.000000,0.000000,0.000000,0.090740,0.129388,0.023525,0.000000,0.000000,81.000000,78.000000,3.000000,0.000000,0.000000,0.000000,0.000000,0.000000,0.000000;
#CREDIT:;
#NOTES:
// measure 0
1000
0000
0000
0000
,  // measure 1
0001
0000
0000
0000
,  // measure 2
1000
0000
0000
0000
,  // measure 3
0001
0000
0000
0000
,  // measure 4
0010
0000
0010
0000
,  // measure 5
0010
0000
0000
0000
,  // measure 6
0100
0000
0100
0000
,  // measure 7
0100
0000
0000
0000
,  // measure 8
1001
0000
0000
0000
0000
0000
0000
1000
,  // measure 9
0000
0000
0000
0000
,  // measure 10
0000
0001
0000
0000
,  // measure 11
0000
1000
0000
0000
0000
0000
0000
0000
,  // measure 12
0100
0000
0000
0000
0000
0000
0000
0100
,  // measure 13
0000
0000
0000
0000
,  // measure 14
1001
0000
0000
0000
0000
0000
0000
0001
,  // measure 15
0000
0000
0000
0000
,  // measure 16
0010
0000
0010
0000
,  // measure 17
0000
0000
0000
0000
,  // measure 18
0000
0000
0100
0000
,  // measure 19
0000
0000
0000
0000
,  // measure 20
0001
0000
0001
0000
,  // measure 21
0000
0000
0000
0000
,  // measure 22
1000
0000
0000
1000
,  // measure 23
0000
0000
0000
0000
,  // measure 24
0100
0000
0000
0000
,  // measure 25
0010
0000
0000
0000
,  // measure 26
0001
0000
0000
0000
,  // measure 27
1000
0000
0000
0000
,  // measure 28
0001
0000
0001
0000
,  // measure 29
0001
0000
0000
0000
,  // measure 30
1000
0000
1000
0000
,  // measure 31
1000
0000
0000
0000
,  // measure 32
0010
0000
0010
0000
,  // measure 33
0010
0000
0000
0000
,  // measure 34
0100
0000
0010
0000
,  // measure 35
0100
0000
0000
0000
,  // measure 36
0001
0000
0000
0000
,  // measure 37
0010
0000
0000
0000
,  // measure 38
0100
0000
0000
0000
,  // measure 39
1000
0000
0000
0000
,  // measure 40
0001
0000
0000
0000
,  // measure 41
0001
0000
0000
0000
,  // measure 42
1000
0000
0000
0000
,  // measure 43
1000
0000
0000
0000
,  // measure 44
0100
0000
0100
0000
,  // measure 45
0100
0000
0000
0000
,  // measure 46
0010
0000
0010
0000
,  // measure 47
0010
0000
0000
0000
,  // measure 48
0001
0000
0000
0000
,  // measure 49
0100
0000
0000
0000
,  // measure 50
0000
0010
0000
0000
,  // measure 51
0000
1000
0000
0000
,  // measure 52
0001
0000
0000
0000
,  // measure 53
0010
0000
0000
0000
,  // measure 54
0100
0000
0000
0000
,  // measure 55
1000
0000
0000
0000
,  // measure 56
0001
0000
0001
0000
,  // measure 57
0000
0000
0100
0000
,  // measure 58
0000
0000
0010
0000
,  // measure 59
0000
0000
1000
0000
,  // measure 60
0100
0000
0010
0000
,  // measure 61
0000
0000
0001
0000
,  // measure 62
1000
0000
0000
1000
0000
0000
1000
0000
,  // measure 63
0000
0000
0000
0000
,  // measure 64
0001
0000
0000
0001
0000
0000
0001
0000
,  // measure 65
0000
0000
0000
0000
,  // measure 66
1001
0000
0000
0000
;
