#VERSION:0.83;
#TITLE:Ψです I LIKE YOU;
#SUBTITLE:;
#ARTIST:でんぱ組.inc;
#TITLETRANSLIT:PSI DESU I LIKE YOU;
#SUBTITLETRANSLIT:;
#ARTISTTRANSLIT:DEMPAGUMI.inc;
#GENRE:;
#ORIGIN:;
#CREDIT:DigiMindAxel;
#BANNER:PSI DESU I LIKE YOU.png;
#BACKGROUND:PSI DESU I LIKE YOU-bg.png;
#PREVIEWVID:;
#JACKET:PSI DESU I LIKE YOU-jacket.png;
#CDIMAGE:;
#DISCIMAGE:;
#LYRICSPATH:PSI DESU I LIKE YOU.lrc;
#CDTITLE:DigiMindAxel original simfile.png;
#MUSIC:PSI DESU I LIKE YOU.ogg;
#OFFSET:-0.185000;
#SAMPLESTART:54.145000;
#SAMPLELENGTH:12.000000;
#SELECTABLE:YES;
#BPMS:0.000=220.000;
#STOPS:;
#DELAYS:;
#WARPS:;
#TIMESIGNATURES:0.000=4=4;
#TICKCOUNTS:0.000=4;
#COMBOS:0.000=1;
#SPEEDS:0.000=1.000=0.000=0;
#SCROLLS:0.000=1.000;
#FAKES:;
#LABELS:0.000=Song Start;
#BGCHANGES:-2.000=PSI DESU I LIKE YOU.avi=1.000=1=0=0=StretchNoLoop==CrossFade==,
99999=-nosongbg-=1.000=0=0=0 // don't automatically add -songbackground-
;
#KEYSOUNDS:;
#ATTACKS:
;

//---------------dance-single - ----------------
#NOTEDATA:;
#CHARTNAME:;
#STEPSTYPE:dance-single;
#DESCRIPTION:;
#CHARTSTYLE:;
#DIFFICULTY:Easy;
#METER:6;
#RADARVALUES:0.275821,0.354160,0.079972,0.000000,0.000000,169.000000,162.000000,7.000000,0.000000,0.000000,0.000000,0.000000,0.000000,0.000000,0.275821,0.354160,0.079972,0.000000,0.000000,169.000000,162.000000,7.000000,0.000000,0.000000,0.000000,0.000000,0.000000,0.000000;
#CREDIT:;
#NOTES:
0000
0000
0000
0000
,
0000
0000
0000
0000
,
0000
0000
0000
0000
,
0000
0000
0000
0000
,
0000
0000
0000
0000
,
1000
0000
0001
0000
,
0010
0000
0000
0000
,
0001
0000
0001
0000
,
1000
0000
1000
0000
,
0001
0001
0001
0000
,
0010
0000
0100
0000
,
1000
1000
1000
0000
,
0010
0000
0100
0000
,
0001
0001
0001
0000
,
0100
0000
0010
0000
,
1000
0001
1000
0000
,
1000
0000
0000
0000
,
0001
0001
0001
0000
,
0010
0000
0100
0000
,
1000
1000
1000
0000
,
0100
0000
0010
0000
,
0001
0001
0001
0000
,
0100
0000
0010
0000
,
1000
0001
1000
0000
,
0001
0000
1001
0000
,
1000
0000
0100
0000
,
0010
0000
0001
0000
,
1000
0000
0100
0000
,
0010
0000
0000
0000
,
0001
0000
0100
0000
,
0010
0000
1000
0000
,
0001
0000
0100
0000
,
0010
0000
0000
0000
,
1000
0001
1000
0000
,
0001
1000
0001
0000
,
1000
0001
1000
0000
,
0001
1000
0001
0000
,
0100
0010
0100
0000
,
0010
0100
0010
0000
,
1000
0100
0010
0001
,
1000
0000
1000
0000
,
1001
0000
0000
0000
,
0000
0000
0000
0000
,
0001
0000
0000
0000
,
0000
0000
0000
0000
,
0100
0000
0000
0000
,
0000
0000
0000
0000
,
1001
0000
1001
0000
,
1001
0000
0000
0000
,
0001
1000
0100
0000
,
0010
0010
0010
0000
,
0001
0001
0001
0000
,
1000
0100
0010
0000
,
0001
0010
0100
0000
,
1000
1000
1000
0000
,
0001
0001
0001
0000
,
1001
0000
0010
0000
,
1001
0000
0000
0000
,
1000
1000
1000
0000
,
0001
0001
0001
0000
,
0100
0010
1000
0000
,
0010
0100
0001
0000
,
1000
0000
0100
0000
,
0010
0000
0000
0000
,
0100
0000
0010
0000
,
0001
0000
0000
0000
,
1000
0000
0010
0000
,
0100
0000
0000
0000
,
0010
0100
0010
0000
,
0100
0001
0100
0000
,
0001
0000
1000
0000
,
0100
0010
0001
0000
,
1000
0000
0001
0000
,
0100
0010
1000
0000
,
0010
0000
0100
0000
,
0001
1000
0100
0000
,
0010
0001
0010
0000
,
0100
0010
0100
0000
;

//---------------dance-single - ----------------
#NOTEDATA:;
#CHARTNAME:;
#STEPSTYPE:dance-single;
#DESCRIPTION:;
#CHARTSTYLE:;
#DIFFICULTY:Medium;
#METER:10;
#RADARVALUES:0.453717,0.621113,0.491255,0.171368,0.102821,278.000000,235.000000,43.000000,15.000000,0.000000,0.000000,0.000000,0.000000,0.000000,0.453717,0.621113,0.491255,0.171368,0.102821,278.000000,235.000000,43.000000,15.000000,0.000000,0.000000,0.000000,0.000000,0.000000;
#CREDIT:;
#NOTES:
0000
0000
0000
0000
,
0000
0000
0000
0000
,
0000
0000
0000
0000
,
0000
0000
0000
0000
,
0000
0000
0000
0000
,
1000
0010
1000
0010
,
0100
0001
0010
0000
,
0001
1000
0100
0000
,
1000
0100
0010
0001
,
0100
0000
0000
0100
0000
0000
0100
0000
0000
0000
0000
0101
,
0000
0001
0010
0100
,
1000
0000
0000
1000
0000
0000
1000
0000
0000
0000
0000
1100
,
0000
0100
0010
0001
,
0010
0000
0000
0010
0000
0000
0010
0000
0000
0000
0000
0011
,
0000
0001
0010
0100
,
1000
0000
0000
0010
0000
0000
0100
0000
0000
0000
0000
0001
,
1000
0100
0010
0001
,
0010
0000
0000
0010
0000
0000
0010
0000
0000
0000
0000
0011
,
0000
0001
0100
0010
,
0100
0000
0000
0100
0000
0000
0100
0000
0000
0000
0000
0110
,
0000
0010
1000
0001
,
0010
0000
0000
0010
0000
0000
0010
0000
0000
0000
0000
0110
,
0000
0100
1000
0100
,
0010
0000
0000
0001
0000
0000
0100
0000
0000
0000
0000
0010
,
0100
0000
2002
3003
,
2000
0000
3020
0000
,
0230
0000
0302
0000
,
0203
0000
0320
0000
,
2030
0000
3000
0000
,
0002
0000
0023
0000
,
0230
0000
2300
0000
,
3200
0000
0320
0000
,
0031
0000
1001
0000
,
1000
0100
1000
0100
,
1000
0001
1000
0001
,
0100
0010
0100
0010
,
1000
0100
0010
0001
,
0100
0100
0100
0100
,
0001
0001
0001
0001
,
0010
0100
1000
0001
,
0101
0000
0110
0000
,
1010
0000
1000
0000
,
0100
0010
0001
0010
,
0100
0000
1000
0000
,
0010
0100
0001
0100
,
0010
0000
1000
0000
,
0100
0010
0001
0010
,
1001
0000
1001
0000
,
0110
0110
0110
0000
,
0100
0010
1001
0000
,
1010
1000
1010
1000
,
1010
1010
1001
0000
,
0001
0001
0011
0000
,
0010
0010
0110
0000
,
0100
1000
0100
0001
,
0100
1000
1001
0000
,
0110
0000
1010
0000
,
0110
0100
0010
0100
,
1001
0001
1001
0001
,
1001
1001
1100
0000
,
0100
0100
0110
0000
,
0010
0010
0011
0000
,
1001
0000
1100
0000
,
0010
0001
0100
0000
,
1001
0000
0011
0000
,
0100
1000
0010
0000
,
0110
0000
1001
0000
,
1000
0100
0010
0000
,
0101
0001
0010
0100
,
1000
1000
0010
0010
,
0101
0001
0010
0100
,
1000
0000
0000
0010
0000
0100
0000
0000
0010
0000
0000
0000
,
0100
0001
0010
0100
,
1000
0000
0000
0001
0000
0100
0000
0000
0001
0000
0000
0000
,
0010
0001
0100
0010
,
1000
0000
0000
0100
0000
1000
0000
0000
0100
0000
0000
0000
,
0010
0000
0000
0001
0000
1000
0000
0000
0010
0000
0000
0000
,
0100
0000
0000
0001
0000
0010
0000
0000
0100
0000
0000
0000
;

//---------------dance-single - ----------------
#NOTEDATA:;
#CHARTNAME:;
#STEPSTYPE:dance-single;
#DESCRIPTION:;
#CHARTSTYLE:;
#DIFFICULTY:Hard;
#METER:13;
#RADARVALUES:0.654462,0.767157,0.993934,0.228490,0.462693,401.000000,314.000000,87.000000,20.000000,0.000000,0.000000,0.000000,0.000000,0.000000,0.654462,0.767157,0.993934,0.228490,0.462693,401.000000,314.000000,87.000000,20.000000,0.000000,0.000000,0.000000,0.000000,0.000000;
#CREDIT:;
#NOTES:
0000
0000
0000
0000
,
0000
0000
0000
0000
,
0000
0000
0000
0000
,
0000
0000
0000
0000
,
0000
0000
0000
0000
,
0001
0100
0010
0100
,
0001
0000
1000
0100
0000
1000
0000
0000
1000
0000
0000
0000
,
0010
0000
0000
0100
0000
0001
0000
0000
0001
0000
0000
0000
,
0010
0000
0000
0100
0000
1000
0000
0000
1000
0000
0000
0000
,
1001
0000
0000
1001
0000
0000
1001
0000
0000
0000
0102
0000
,
0000
0103
0010
1000
,
0110
0000
0000
0110
0000
0000
0110
0000
0000
0000
0102
0000
,
0000
1003
0100
0010
,
1001
0000
0000
1001
0000
0000
1001
0000
0000
0000
2010
0000
,
0000
3001
0010
0100
,
1000
0000
0000
0010
0000
0000
2000
0000
0000
0000
0000
3001
,
0100
0000
0000
0001
0000
1000
0100
0000
1000
0100
0000
0000
,
0011
0000
0000
0011
0000
0000
1001
0000
0000
0000
0000
1020
,
0000
0130
0101
0001
,
1001
0000
0000
1001
0000
0000
1100
0000
0000
0000
0000
1002
,
0000
0103
0110
0010
,
1001
0000
0000
1001
0000
0000
1001
0000
0000
0000
0000
2100
,
0000
3010
0110
0100
,
0001
0000
0000
1000
0000
0000
0200
0000
0000
0000
0000
1300
,
0001
0000
2002
3003
,
0011
0000
0110
0000
,
1100
1000
1001
0000
,
0101
0000
0110
0000
,
1010
0010
1001
0000
,
1100
0000
0110
0000
,
0011
0001
1001
0000
,
1010
0000
0000
0000
0000
0000
0110
0000
0000
0000
0100
0000
,
0001
0000
1001
0000
,
1000
0000
0000
0100
0000
0000
1000
0000
0001
0100
0000
0000
,
0001
0000
0000
0010
0000
0000
0100
0000
0010
0001
0000
0000
,
1000
0000
0000
0010
0000
0000
0100
0000
0010
1000
0000
0000
,
0100
0000
0000
0010
0000
0000
0100
0000
1000
0010
0000
0000
,
0101
0101
0101
0101
,
1001
1001
1001
1001
,
1000
0000
0001
0000
0000
0100
0001
0000
0000
0101
0000
0000
,
0010
0000
0100
0000
0000
1000
0010
0000
0000
1010
0000
0000
,
1001
0001
0010
0100
,
1000
0000
0001
0100
0000
0000
0001
0000
1000
0100
0000
0000
,
1000
0010
0100
0001
,
1000
0000
0010
0100
0000
0000
0010
0000
1000
0100
0000
0000
,
0010
0001
0100
0010
,
1000
0000
0001
0010
0000
0000
0001
0000
1000
0010
0000
0000
,
2002
3003
0220
0330
,
1001
0000
0000
0001
0000
0000
1000
0000
0000
0100
0000
0010
,
0001
0000
0100
0010
0000
0000
0110
0000
0000
0000
0000
0000
,
1000
0000
0001
0100
0000
0000
0001
0000
1000
0100
0000
0000
,
0011
1100
1001
0000
,
0010
0000
0001
0010
0000
0001
1000
0000
0000
1000
0000
0100
,
0010
0000
0100
0010
0000
0001
0100
0000
0000
0000
0000
0000
,
0001
0000
1000
0100
0000
0000
0011
0000
0000
1001
0000
0000
,
1000
0000
0001
0100
0000
0000
1010
0000
0000
0000
0000
0000
,
2002
3003
0220
0330
,
1001
0000
0000
0001
0000
0000
0100
0000
0010
1000
0000
0000
,
0001
0000
1000
0010
0000
0000
1000
0000
0001
0010
0000
0000
,
1100
0011
1001
0000
,
0010
0000
1000
0010
0000
1000
0001
0000
0000
0001
0000
0010
,
0100
0000
0010
0100
0000
1000
0001
0000
0000
0000
0000
0000
,
0011
0000
0000
0100
0000
0000
1000
0000
0000
0001
0000
1000
,
0010
0000
1000
0010
0000
1000
0001
0000
0000
0000
0000
0000
,
0010
0000
0000
0100
0000
0000
1000
0000
0000
0001
0000
0100
,
0001
0000
0100
0001
0000
0010
0100
0000
0000
0000
0000
0000
,
1000
0000
0000
0010
0000
0000
0100
0000
0000
0001
0000
1000
,
0100
0000
1000
0100
0000
0010
0100
0000
0000
1000
0001
1000
,
0001
0000
0000
0010
0000
0010
0100
0000
0000
1000
0000
1000
,
0010
0100
0010
0100
0000
0000
0001
0010
0001
0010
0000
0000
,
1100
1000
1001
0101
,
0001
0000
1000
0100
0000
0010
0000
0000
0011
0000
0000
0000
,
1001
1000
1010
0110
,
0100
0000
0001
0010
0000
0100
0000
0000
1100
0000
0000
0000
,
1001
0001
0011
0110
,
0100
0000
1000
0010
0000
0100
0000
0000
0101
0000
0000
0000
,
1001
0000
0000
0001
0000
0010
0000
0000
1100
0000
0000
0000
,
1001
0000
0000
0001
0000
0010
0000
0000
2200
0000
0000
0000
,
0000
0000
0000
0000
,
3300
0000
0000
0000
;

//---------------dance-single - ----------------
#NOTEDATA:;
#CHARTNAME:;
#STEPSTYPE:dance-single;
#DESCRIPTION:;
#CHARTSTYLE:;
#DIFFICULTY:Beginner;
#METER:2;
#RADARVALUES:0.094660,0.175938,0.022849,0.000000,0.000000,58.000000,56.000000,2.000000,0.000000,0.000000,0.000000,0.000000,0.000000,0.000000,0.094660,0.175938,0.022849,0.000000,0.000000,58.000000,56.000000,2.000000,0.000000,0.000000,0.000000,0.000000,0.000000,0.000000;
#CREDIT:;
#NOTES:
0000
0000
0000
0000
,
0000
0000
0000
0000
,
0000
0000
0000
0000
,
0000
0000
0000
0000
,
0000
0000
0000
0000
,
1000
0000
0000
0000
,
0100
0000
0000
0000
,
1000
0000
0000
0000
,
1000
0000
0000
0000
,
0001
0000
0000
0000
,
0010
0000
0000
0000
,
0001
0000
0000
0000
,
0010
0000
0000
0000
,
0100
0000
0000
0000
,
1000
0000
0000
0000
,
0100
0000
0000
0000
,
0000
0000
0000
0000
,
1000
0000
0000
0000
,
0001
0000
0000
0000
,
1000
0000
0000
0000
,
0001
0000
0000
0000
,
0100
0000
0000
0000
,
0001
0000
0000
0000
,
0100
0000
0000
0000
,
0000
0000
0000
0000
,
0001
0000
0000
0000
,
0000
0000
0000
0000
,
0010
0000
0000
0000
,
0000
0000
0000
0000
,
0100
0000
0000
0000
,
0000
0000
0000
0000
,
1000
0000
0000
0000
,
0000
0000
0000
0000
,
0001
0000
0000
0000
,
0000
0000
0000
0000
,
0100
0000
0000
0000
,
0000
0000
0000
0000
,
0010
0000
0000
0000
,
0010
0000
0000
0000
,
0010
0000
0000
0000
,
0000
0000
0000
0000
,
1000
0000
0000
0000
,
0000
0000
0000
0000
,
1000
0000
0000
0000
,
0000
0000
0000
0000
,
0001
0000
0000
0000
,
0000
0000
0000
0000
,
1001
0000
0000
0000
,
0000
0000
0000
0000
,
0000
0000
0000
0000
,
0001
0000
0000
0000
,
0010
0000
0000
0000
,
0001
0000
0000
0000
,
0001
0000
0000
0000
,
1000
0000
0000
0000
,
0100
0000
0000
0000
,
1000
0000
0000
0000
,
1000
0000
0000
0000
,
0010
0000
0000
0000
,
0100
0000
0000
0000
,
0010
0000
0000
0000
,
0010
0000
0000
0000
,
0100
0000
0000
0000
,
0000
0000
0000
0000
,
0100
0000
0000
0000
,
0000
0000
0000
0000
,
0100
0000
0000
0000
,
0000
0000
0000
0000
,
1001
0000
0000
0000
,
0001
0000
0000
0000
,
1000
0000
0000
0000
,
0100
0000
0000
0000
,
1000
0000
0000
0000
,
0001
0000
0000
0000
,
1000
0000
0000
0000
,
0001
0000
0000
0000
,
0010
0000
0000
0000
,
0100
0000
0000
0000
;

//---------------dance-single - ----------------
#NOTEDATA:;
#CHARTNAME:;
#STEPSTYPE:dance-single;
#DESCRIPTION:;
#CHARTSTYLE:;
#DIFFICULTY:Challenge;
#METER:14;
#RADARVALUES:0.719745,0.902537,0.845415,0.217066,0.719745,441.000000,367.000000,74.000000,19.000000,0.000000,0.000000,0.000000,0.000000,0.000000,0.719745,0.902537,0.845415,0.217066,0.719745,441.000000,367.000000,74.000000,19.000000,0.000000,0.000000,0.000000,0.000000,0.000000;
#CREDIT:;
#NOTES:
// measure 0
0000
0000
0000
0000
,  // measure 1
0000
0000
0000
0000
,  // measure 2
0000
0000
0000
0000
,  // measure 3
0000
0000
0000
0000
,  // measure 4
0000
0000
0000
0000
,  // measure 5
1000
0100
1000
0001
,  // measure 6
1000
0000
0010
0100
0000
0001
0000
0000
0101
0000
0000
0000
,  // measure 7
1000
0000
0000
0100
0000
0010
0000
0000
0011
0000
0000
0000
,  // measure 8
1000
0000
0000
0100
0000
0010
0000
0000
0101
0000
0000
0000
,  // measure 9
1001
0000
0000
1000
0000
0000
1000
0000
0010
0000
0000
0100
,  // measure 10
0001
0010
0100
1000
,  // measure 11
0020
0000
1030
0100
0000
0000
0020
0000
0031
0100
0000
0001
,  // measure 12
0200
0310
0220
0330
,  // measure 13
1001
0000
0000
0001
0000
0000
0001
0000
0010
0000
0000
0100
,  // measure 14
1000
0010
0100
0001
,  // measure 15
1000
0010
0001
0010
,  // measure 16
1000
0000
0001
0010
0000
0001
0010
0000
0100
1000
0000
0000
,  // measure 17
1001
1001
0011
0011
,  // measure 18
0100
0000
1000
0100
0000
0010
0000
0000
0101
0000
0000
0000
,  // measure 19
1001
1001
1100
1100
,  // measure 20
0010
0000
0001
0100
0000
0010
0000
0000
1010
0000
0000
0000
,  // measure 21
0110
0110
1001
1001
,  // measure 22
0001
0000
0010
0001
0000
0100
0000
0000
0110
0000
0000
0000
,  // measure 23
1010
0000
0000
0010
0000
0100
0000
0000
0011
0000
0000
0000
,  // measure 24
1001
0000
2002
3003
,  // measure 25
1000
0000
0000
0000
0000
0010
0100
0000
0000
0001
0000
0000
,  // measure 26
0020
0001
0031
0000
,  // measure 27
0100
0000
0000
0000
0000
1000
0010
0000
0000
0100
0000
0000
,  // measure 28
0002
0010
0013
0000
,  // measure 29
0100
0000
0000
0000
0000
0010
0001
0000
0000
0100
0000
0000
,  // measure 30
0020
1000
1030
0000
,  // measure 31
0001
0000
0000
0000
0000
0010
0001
0000
0000
0100
0000
0000
,  // measure 32
0010
0000
0110
0000
,  // measure 33
1100
0000
0000
0001
0000
0000
1000
0000
0010
0100
0000
0000
,  // measure 34
0011
0000
0000
1000
0000
0000
0001
0000
0100
0010
0000
0000
,  // measure 35
1100
0000
0000
0001
0000
0000
1000
0000
0100
0010
0000
0000
,  // measure 36
0011
0000
0000
1000
0000
0000
0001
0000
0010
0100
0000
0000
,  // measure 37
1010
1010
1010
1010
,  // measure 38
1001
1001
1001
1001
,  // measure 39
0001
0000
0010
0000
0000
0001
1000
0000
0000
1001
0000
0000
,  // measure 40
1000
0000
0100
0000
0000
1000
0001
0000
0000
1001
0000
0000
,  // measure 41
0011
0100
1000
0001
,  // measure 42
1000
0000
0010
0100
0000
0002
0000
0000
0103
0010
0000
0000
,  // measure 43
1000
0100
0001
0100
,  // measure 44
1000
0000
0001
0010
0000
0002
0000
0000
0103
0010
0000
0100
,  // measure 45
0010
1000
0100
0010
,  // measure 46
0001
0000
1000
0010
0000
0200
0000
0000
0310
1000
0000
0000
,  // measure 47
2002
3003
2002
3003
,  // measure 48
0110
0000
0000
0110
0000
0000
0110
0000
0000
0001
0000
1000
,  // measure 49
0010
0000
1000
0001
0000
0000
0101
0000
0000
0000
0000
0000
,  // measure 50
0001
0000
0001
0100
0000
0100
0010
0000
0010
1000
0000
0000
,  // measure 51
0001
0000
0001
0010
0000
0010
0100
0000
1000
0001
0000
0000
,  // measure 52
1000
0000
1000
0100
0000
0100
0010
0000
0010
0001
0000
0000
,  // measure 53
1000
0000
1000
0010
0000
0010
0100
0000
0001
1000
0000
0000
,  // measure 54
0001
0000
1000
0100
0000
1000
0100
0000
0010
0001
0000
0000
,  // measure 55
0100
0000
0010
1000
0000
0010
1000
0000
0001
0010
0000
0000
,  // measure 56
0100
0000
0100
0000
0000
1000
0100
0000
1000
0100
0000
0000
,  // measure 57
0010
0000
0010
0000
0000
0001
0010
0001
0010
0001
0010
0001
,  // measure 58
1000
0000
1000
0010
0000
0010
0100
0000
0100
0001
0000
0000
,  // measure 59
1000
0000
1000
0100
0000
0100
0010
0000
0001
1000
0000
0000
,  // measure 60
0001
0000
0001
0010
0000
0010
0100
0000
0100
1000
0000
0000
,  // measure 61
0001
0000
0001
0100
0000
0100
0010
0000
1000
0001
0000
0000
,  // measure 62
1001
0000
0000
0000
0000
0001
0100
0000
0000
0100
0000
0000
,  // measure 63
0110
0001
0001
0101
,  // measure 64
1001
0000
0000
0000
0000
1000
0100
0000
0000
0100
0000
0000
,  // measure 65
0110
1000
1000
1010
,  // measure 66
1001
0000
0000
0000
0000
0001
0100
0000
0000
0100
0000
0000
,  // measure 67
0010
0100
0010
0100
0010
1000
0001
1000
0001
0010
0100
0010
,  // measure 68
0100
0000
1000
0010
0000
1000
0010
0000
1000
0001
0000
0000
,  // measure 69
1000
0001
1000
0001
1000
0100
0010
0100
0010
0100
0010
0100
,  // measure 70
0010
0110
1001
1001
,  // measure 71
1000
0000
0010
0100
0000
0001
0000
0000
0011
0000
0000
0000
,  // measure 72
0110
0110
1001
1001
,  // measure 73
0100
0000
1000
0010
0000
0100
0000
0000
0110
0000
0000
0000
,  // measure 74
1001
1001
1100
1100
,  // measure 75
0010
0000
0001
0100
0000
0010
0000
0000
1010
0000
0000
0000
,  // measure 76
1001
0000
0000
0001
0000
0011
0000
0000
0110
0000
0000
0000
,  // measure 77
1001
0000
0000
1000
0000
1100
0000
0000
0220
0000
0000
0000
,  // measure 78
0000
0000
0000
0000
,  // measure 79
0330
0000
0000
0000
;
