#TITLE:ピコピコゲームミュージック;
#SUBTITLE:;
#ARTIST:神前暁;
#TITLETRANSLIT:PICO PICO GAME MUSIC;
#SUBTITLETRANSLIT:;
#ARTISTTRANSLIT:SATORU KOUSAKI;
#CREDIT:DigiMindAxel;
#BANNER:PICO PICO GAME MUSIC.png;
#BACKGROUND:PICO PICO GAME MUSIC-bg.png;
#LYRICSPATH:;
#CDTITLE:DigiMindAxel original simfile.png;
#MUSIC:PICO PICO GAME MUSIC.ogg;
#METERTYPE:DDR X;
#OFFSET:-3.828;
#SAMPLESTART:3.660;
#SAMPLELENGTH:12.000;
#SELECTABLE:YES;
#BPMS:0.000=142.000;
#STOPS:;
#BGCHANGES:;

//---------------dance-single - ----------------
#NOTES:
     dance-single:
     :
     Beginner:
     3:
     0.171,0.186,0.000,0.000,0.000:
0001
0000
1000
0000
,
0001
0001
0000
0000
,
0010
0000
0100
0000
,
0010
0010
0000
0000
,
0100
0000
1000
0000
,
0100
0100
0000
1000
,
0001
0000
0010
0000
,
0100
0100
0000
1000
,
0001
0000
0010
0000
,
0100
0100
0000
1000
,
0001
0000
0010
0000
,
0100
0100
0000
0000
,
1000
0000
0001
0000
,
0100
0010
0100
0010
,
0100
0000
0001
0000
,
1000
1000
0000
0000
,
0001
0001
0000
0000
,
1000
1000
0000
0000
,
0010
0000
0100
0000
,
0010
0000
0000
0000
,
1000
0000
0100
0000
,
0010
0010
0000
0000
,
0001
0000
0010
0000
,
0100
0100
0000
0000
,
1000
0000
0010
0000
,
0100
0100
0000
0000
,
0001
0000
1000
0000
,
0010
0010
0000
1000
,
0001
0000
0100
0000
,
0010
0010
0000
1000
,
0001
0000
0010
0000
,
0100
0100
0000
0000
,
1000
0000
0010
0000
,
0100
0010
0100
0010
,
0100
0000
0001
0000
,
1000
1000
0000
0000
,
0001
0001
0000
0000
,
1000
1000
0000
0000
;

//---------------dance-single - ----------------
#NOTES:
     dance-single:
     :
     Medium:
     8:
     0.407,0.350,0.498,0.342,0.000:
0020
0000
0100
0000
0230
0000
0000
0010
,
0310
1001
0001
0001
,
0200
0000
0010
0000
0320
0000
0000
1000
,
1030
1001
0001
0001
,
2000
0000
0010
0000
3020
0000
0000
0100
,
0130
1001
1000
1000
,
1001
0001
0110
1000
,
0110
0110
0000
0001
,
1001
1000
0110
0001
,
0110
0000
0110
0000
0000
0000
1000
0010
,
0200
0000
0000
0000
0302
0000
0000
0100
,
0103
0000
0110
0000
1000
0001
1000
0000
,
0020
0000
0000
0000
0230
0000
0000
0001
,
0301
1001
0010
0110
,
2000
0000
0000
0000
3200
0000
0000
1000
,
1300
0000
0110
0000
0000
0000
0010
0100
,
0010
0000
0110
0000
0000
0000
0001
1000
,
0001
1001
0000
0000
,
1000
0000
0100
1000
0010
0000
0010
0000
,
0100
0000
0001
0010
0100
0000
0100
0000
,
2000
0000
0000
0000
3020
0000
0000
0100
,
0130
1001
0001
0001
,
0020
0000
0000
0000
0032
0000
0000
0100
,
0103
0110
0010
0010
,
2000
0000
0000
0000
3200
0000
0000
1000
,
1300
1001
0001
1000
,
0110
0001
0110
1000
,
1001
1001
0000
0001
,
0110
1000
0110
0001
,
1001
0000
1001
0000
0000
0000
1000
0100
,
0020
0000
0000
0000
0032
0000
0000
0100
,
0103
0110
0000
0000
,
0020
0000
0000
0000
0230
0000
0000
0001
,
0301
1001
1000
0110
,
1002
0000
0000
0000
0203
0000
0000
0010
,
0310
0000
1001
0000
0000
0000
0100
1000
,
0010
0000
1010
0000
0000
0000
0100
0001
,
0010
0000
0011
0000
0100
0000
1000
0010
;

//---------------dance-single - ----------------
#NOTES:
     dance-single:
     :
     Hard:
     13:
     0.679,0.675,0.157,0.441,0.569: // measure 1
1200
0000
0000
0000
0320
0000
0000
0001
,  // measure 2
0031
2002
3003
0000
,  // measure 3
0021
0000
0000
0000
0230
0000
0000
1000
,  // measure 4
1300
2002
3003
0000
,  // measure 5
0201
0000
0000
0000
0320
0000
0000
1000
,  // measure 6
1030
1001
0000
1200
,  // measure 7
2300
3020
0032
0023
,  // measure 8
1030
2002
3003
0021
,  // measure 9
0032
0203
2300
3200
,  // measure 10
0301
2002
3003
0120
,  // measure 11
2030
0000
3001
0100
0010
0100
0001
0000
,  // measure 12
0020
0000
0031
0010
0100
1000
0001
0000
,  // measure 13
0020
0000
0031
1000
0100
1000
0001
0000
,  // measure 14
0020
0000
0130
1000
0001
0010
0100
0000
,  // measure 15
0020
0000
0031
1000
0010
0100
0001
0000
,  // measure 16
2000
0000
3100
0010
0001
0010
0100
0000
,  // measure 17
1000
0001
1000
0100
0001
0100
1000
0000
,  // measure 18
0001
1000
0001
0010
1000
0010
0001
0000
,  // measure 19
1000
0001
1000
0001
1000
0000
0000
0000
0100
1000
0100
1000
0100
0000
0000
0000
,  // measure 20
0010
0100
0010
0100
0010
0000
0000
0000
0001
1000
0001
1000
0001
0000
0000
0000
,  // measure 21
0100
0010
0100
0010
0100
0000
0000
0000
0001
1000
0001
1000
0001
0000
0010
0000
,  // measure 22
0100
1000
0100
1000
0100
0000
0010
0000
0001
1000
0001
1000
0001
0000
0000
0000
,  // measure 23
0100
0010
0100
0010
0100
0000
0000
0000
0001
0100
0001
0100
0001
0000
0000
0000
,  // measure 24
1000
0010
1000
0010
1000
0000
0001
0000
0010
0001
0010
0001
0010
0000
0000
0000
,  // measure 25
0001
1000
0001
1000
0001
0000
0000
0000
1000
0100
1000
0100
1000
0000
0000
0000
,  // measure 26
0010
0100
0010
0100
0010
0000
0100
0000
0001
1000
0001
1000
0001
0000
0000
0000
,  // measure 27
0100
0000
0000
0100
0001
0000
0000
0001
1000
0000
0000
1000
0100
0000
0000
0100
,  // measure 28
0010
0000
0000
0010
0001
0000
0000
0000
1000
0001
1000
0001
1000
0000
0000
0000
,  // measure 29
0010
0000
0000
0010
1000
0000
0000
1000
0100
0000
0000
0100
0010
0000
0000
0010
,  // measure 30
0001
0000
0000
0001
0100
0000
0000
0000
0010
0100
0010
0100
0010
0000
0100
0000
,  // measure 31
0001
1000
0001
1000
0001
0000
0000
0000
1000
0010
1000
0010
1000
0000
0001
0000
,  // measure 32
0010
0001
0010
0000
0100
0010
0100
0000
1000
0001
1000
0001
1000
0000
0100
1000
,  // measure 33
0010
0100
0010
0100
0010
0000
0000
0000
0100
0001
0100
0001
0100
0000
0010
0000
,  // measure 34
1000
0100
1000
0000
0001
1000
0001
0000
0010
0001
0010
0000
0001
1000
0001
0000
,  // measure 35
0100
0010
0100
0010
0100
0000
0000
0000
0001
1000
0001
1000
0001
0000
0010
0000
,  // measure 36
0100
0010
0100
0000
1000
0100
1000
0000
0010
0100
0010
0100
0010
0000
1000
0000
,  // measure 37
0001
0010
0001
0000
1000
0100
1000
0000
0010
0100
0010
0100
0010
0000
1000
0000
,  // measure 38
0001
0100
0001
0000
1000
0010
1000
0000
0100
0010
0100
0010
0100
0000
1000
0010
;

//---------------dance-single - ----------------
#NOTES:
     dance-single:
     :
     Easy:
     6:
     0.338,0.376,0.356,0.470,0.000:
1000
0001
1000
0000
,
1001
1001
0000
0000
,
0001
0100
0001
0000
,
1001
1001
0000
0000
,
0010
0100
0010
0000
,
1001
1001
0000
1000
,
0200
2300
3020
0230
,
0301
1001
0000
0001
,
0020
0032
0203
0320
,
1030
1001
0000
0200
,
1300
0001
1000
0000
,
1001
1001
0000
0000
,
0010
0100
0010
0000
,
2000
3002
0023
0230
,
1300
0001
1000
0000
,
1001
1001
0000
0010
,
0110
0110
0000
1000
,
1001
1001
0000
0000
,
0010
0000
0100
0000
,
0010
0100
0010
0100
,
0002
0000
2003
0000
,
3010
0110
0000
0000
,
2000
0000
3002
0000
,
0103
0110
0000
0000
,
2000
0000
3002
0000
,
0103
0110
0000
1000
,
0200
2300
3020
0230
,
0301
1001
0000
0010
,
0002
0203
0320
2030
,
3001
1001
0000
1000
,
0020
0000
0230
0000
,
0310
1001
0000
0000
,
0020
0000
0230
0000
,
0301
0010
0100
1000
,
0020
0000
0230
0000
,
0310
1001
0000
0010
,
0010
1001
0000
0010
,
0010
1001
1000
0010
;
