#TITLE:PAC-MAN;
#SUBTITLE:ghost mix;
#ARTIST:Power-Pill;
#TITLETRANSLIT:;
#SUBTITLETRANSLIT:;
#ARTISTTRANSLIT:;
#CREDIT:DigiMindAxel;
#BANNER:PAC-MAN ghost mix.png;
#BACKGROUND:PAC-MAN ghost mix-bg.png;
#LYRICSPATH:;
#CDTITLE:DigiMindAxel original simfile.png;
#MUSIC:PAC-MAN ghost mix.ogg;
#METERTYPE:DDR X;
#OFFSET:-7.353;
#SAMPLESTART:49.990;
#SAMPLELENGTH:12.000;
#SELECTABLE:YES;
#BPMS:0.000=135.000;
#STOPS:;
#BGCHANGES:;

//---------------dance-single - ----------------
#NOTES:
     dance-single:
     :
     Beginner:
     3:
     0.167,0.199,0.086,0.000,0.000:
1000
0000
0000
0000
,
0001
0000
0000
0000
,
1000
0000
0000
0000
,
0100
0000
0000
0000
,
0010
0000
0100
0000
,
1000
0000
0100
0000
,
0100
0000
0010
0000
,
0001
0000
1000
0000
,
0100
0000
0010
0000
,
0001
0000
1000
0000
,
0010
0000
0100
0000
,
0010
0000
0010
0000
,
0000
0000
0000
0000
,
0000
0000
0000
0000
,
0000
0000
0000
0000
,
0000
0000
0000
0000
,
1001
0000
0010
1000
,
0010
0000
1000
0001
,
1000
0000
0100
1000
,
0100
0000
0010
0001
,
0010
0000
0001
1000
,
0001
0000
0010
0100
,
0010
0000
0001
0100
,
0001
0000
0100
0010
,
0100
0000
0100
0000
,
0100
0000
0110
0000
,
0001
0000
0001
0000
,
0001
0000
1001
0000
,
0010
0000
0010
0000
,
0010
0000
0110
0000
,
1000
0000
1000
0000
,
1000
0000
1001
0000
,
0001
0000
0001
0000
,
0001
0000
1001
0000
,
0100
0000
0100
0000
,
0100
0000
0110
0000
,
0010
0000
0010
0000
,
0010
0000
0110
0000
,
1000
0000
1000
0000
,
1000
0000
1001
0000
,
0001
0010
0001
0000
,
1000
0100
1000
0000
,
0010
0100
0010
0000
,
1000
0001
1000
0000
,
0001
0010
0100
0000
,
0010
0100
1000
0000
,
0010
0100
0001
0000
,
0100
0010
1000
0000
,
0100
0010
0001
0000
,
1000
0010
0100
0000
,
0001
1000
0100
0000
,
0010
0001
1000
0000
,
0010
0000
0000
0000
;

//---------------dance-single - ----------------
#NOTES:
     dance-single:
     :
     Hard:
     13:
     0.620,0.698,0.105,0.134,0.335: // measure 1
0001
0000
0000
0100
0001
0000
0000
1000
,  // measure 2
0000
0000
0000
0100
1000
0000
0000
0010
,  // measure 3
0000
0000
0000
1000
0001
0000
0000
0010
,  // measure 4
0000
0000
0000
0100
1000
0000
0000
0010
,  // measure 5
0100
0100
0100
0000
0001
0001
0001
0000
,  // measure 6
0100
0100
0100
0000
0001
0001
0010
0010
,  // measure 7
0100
0100
0100
0000
0010
0010
0010
0000
,  // measure 8
0100
0100
0100
0000
1000
1000
0010
0010
,  // measure 9
0100
0100
0100
0000
0001
0001
0001
0000
,  // measure 10
0010
0010
0010
0000
0100
0100
0010
0010
,  // measure 11
0001
0001
0001
0000
1000
1000
1000
0000
,  // measure 12
0010
0010
0010
0000
0100
0100
0001
0001
,  // measure 13
1000
1000
1000
1000
,  // measure 14
1000
1000
1000
1000
,  // measure 15
0001
0001
0001
0001
,  // measure 16
0001
0001
0001
0001
,  // measure 17
0010
0001
0100
1000
0100
0002
0000
1003
,  // measure 18
0100
1000
0010
0001
0010
2000
0000
3010
,  // measure 19
0100
0001
0010
0100
1000
0002
0000
0103
,  // measure 20
0010
1000
0100
0001
0100
2000
0000
3010
,  // measure 21
0100
0001
0010
0100
1000
0002
0000
0103
,  // measure 22
0010
1000
0100
0001
0100
2000
0000
3010
,  // measure 23
0100
0000
0001
0000
0010
0000
0001
0000
1000
0010
0200
0000
0000
0000
0301
0000
,  // measure 24
1000
0000
0100
0000
1000
0000
0010
0000
0100
0001
0020
0000
0000
0000
0130
0000
,  // measure 25
1000
0001
1000
0000
0001
0000
0010
0000
0100
0010
0100
0000
1000
0000
0010
0000
,  // measure 26
0100
0010
0100
0000
0010
0000
1000
0000
0100
0000
0100
0000
0100
0000
0100
0000
,  // measure 27
0010
0001
0010
0000
0100
0000
1000
0000
0001
0100
0001
0000
1000
0000
0001
0000
,  // measure 28
0010
0001
0010
0000
0100
0000
1000
0000
0010
0000
0010
0000
0010
0000
0010
0000
,  // measure 29
1000
0100
1000
0000
0001
0000
0100
0000
0010
0100
0010
0000
0100
0000
0001
0000
,  // measure 30
0010
0100
0010
0000
0001
0000
0100
0000
0010
0000
0010
0000
0010
0000
0010
0000
,  // measure 31
1000
0001
1000
0000
0100
0000
1000
0000
0010
0100
0010
0000
0100
0000
0001
0000
,  // measure 32
1000
0100
1000
0000
0100
0000
0010
0000
0001
0000
0001
0000
0001
0000
0001
0000
,  // measure 33
0100
0001
0100
0001
0100
0000
0010
0000
1000
0001
1000
0001
1000
0000
0100
0000
,  // measure 34
0010
0100
0010
0100
0010
0000
0001
0000
1000
0000
1000
0000
0010
0000
0010
0000
,  // measure 35
0100
0001
0100
0001
0100
0000
0010
0000
1000
0100
1000
0100
1000
0000
0001
0000
,  // measure 36
0010
0100
0010
0100
0010
0000
0001
0000
1000
0000
1000
0000
0010
0000
0010
0000
,  // measure 37
0100
0001
0100
0001
0100
0000
0010
0000
1000
0100
1000
0100
1000
0000
0001
0000
,  // measure 38
0010
0001
0010
0001
0010
0000
0100
0000
2000
0000
0010
0000
0010
0000
3010
0000
,  // measure 39
0100
0010
0100
0010
0100
0000
0001
0000
1000
0100
1000
0100
1000
0000
0010
0000
,  // measure 40
0100
0010
0100
0010
0100
0000
0001
0000
0200
0000
0010
0000
0010
0000
0310
0000
,  // measure 41
1000
0100
0010
0000
0100
0000
1000
0010
1000
0010
1000
0000
0001
0000
0010
0000
,  // measure 42
0100
0010
0001
0000
1000
0000
0010
0100
0010
0100
0010
0000
1000
0000
0001
0000
,  // measure 43
1000
0010
0100
0000
0010
0000
1000
0001
1000
0001
1000
0000
0100
0000
0010
0000
,  // measure 44
0100
1000
0010
0000
0100
0000
0001
1000
0001
1000
0001
0000
0100
0000
0010
0000
,  // measure 45
0100
0001
1000
0000
0100
0000
0010
0100
0010
0100
0010
0000
0001
0000
1000
0000
,  // measure 46
0010
0100
0001
0000
0010
0000
0100
0010
0100
0010
0100
0000
1000
0000
0010
0000
,  // measure 47
0100
0001
0010
0000
0100
0000
1000
0001
1000
0001
1000
0000
0100
0000
0010
0000
,  // measure 48
0001
1000
0100
0000
0010
0000
0001
0100
0001
0100
0001
0000
1000
0000
0100
0000
,  // measure 49
0011
0000
0011
0000
0011
0000
0100
1000
0100
1000
0020
0000
0000
0000
0130
0000
,  // measure 50
1001
0000
1001
0000
1001
0000
0100
0001
0100
0001
2000
0000
0000
0000
3010
0000
,  // measure 51
0101
0000
0101
0000
0101
0000
0010
1000
0010
1000
0002
0000
0000
0000
0013
0000
,  // measure 52
1100
0000
0100
0000
0100
0000
0010
0001
0010
0001
0200
0000
0000
0000
0310
0000
,  // measure 53
1001
1000
0000
0000
0000
0000
0000
0000
;

//---------------dance-single - ----------------
#NOTES:
     dance-single:
     :
     Medium:
     10:
     0.426,0.424,0.038,0.258,0.000:
2000
0000
0000
0100
3100
0000
0000
0000
,
0020
0000
0000
0001
0031
0000
0000
0000
,
0200
0000
0000
0010
0310
0000
0000
0000
,
2000
0000
0000
0001
3001
0000
0000
0000
,
0010
0001
0100
0000
0100
0001
0010
0000
,
0010
0001
0100
0000
0002
0000
0000
0000
,
1003
0100
0010
0000
0010
0100
1000
0000
,
1000
0100
0010
0000
0200
0000
0000
0000
,
1300
0001
0010
0000
0010
0001
1000
0000
,
1000
0001
0010
0000
0200
0000
0000
0000
,
1300
0010
0100
0000
0100
0010
1000
0000
,
1000
0010
0100
0000
0020
0000
0000
0000
,
0230
0000
0001
0000
,
0302
0000
1000
0000
,
2003
0000
0100
0000
,
3200
0000
0010
0000
,
0310
0000
1001
0000
0001
0100
0000
0001
,
1000
0000
1100
0000
0010
0001
0000
1000
,
0010
0000
0110
0000
0100
0001
0000
1000
,
0100
0000
1100
0000
0010
0001
0000
0100
,
0010
1000
0100
0000
1000
0100
0000
0010
,
0001
0100
0010
0000
0100
0001
0000
1000
,
0100
0010
0100
0000
1000
0010
0000
0100
,
0010
1000
0100
0000
0010
0100
0000
1000
,
0020
0100
0130
0000
0002
0100
0103
0000
,
0020
0100
0130
0000
0001
0010
0100
1000
,
0020
0100
0130
0000
0002
0100
0103
0000
,
0020
0100
0130
0000
0001
0010
0100
1000
,
0002
0100
0103
0000
0020
1000
1030
0000
,
0002
0100
0103
0000
0010
1000
0100
0010
,
0002
0100
0103
0000
0020
1000
1030
0000
,
0002
0100
0103
0000
0010
1000
0100
0010
,
0001
0001
0001
0000
0100
0100
0100
0000
,
0001
0001
0001
0000
0010
0100
1000
0100
,
0010
0010
0010
0000
0100
0100
0100
0000
,
0010
0010
0010
0000
0001
0100
0010
0100
,
0001
0001
0001
0000
1000
1000
1000
0000
,
0100
0100
0100
0000
0010
0100
1000
0010
,
0100
0100
0100
0000
0001
0001
0001
0000
,
1000
1000
1000
0000
0100
0010
0001
0010
,
0100
1000
0010
0100
0100
0000
0000
0100
,
0010
1000
0100
0010
0010
0000
0000
0010
,
0001
1000
0010
0100
0100
0000
0000
0100
,
0010
1000
0001
0010
0010
0000
0000
0010
,
0100
1000
0010
0100
0100
0000
0000
0100
,
0001
0010
0100
1000
1000
0000
0000
1000
,
0010
0100
0010
1000
1000
0000
0000
1000
,
0001
0010
0100
0010
0010
0000
0000
0010
,
0001
0100
0020
1000
1000
0000
0000
1030
,
0001
0010
0200
0010
0010
0000
0000
0310
,
0001
1000
0200
1000
1000
0000
0000
1300
,
0001
0010
0100
0000
1000
0000
1000
0000
,
0010
0010
0000
0000
0000
0000
0000
0000
;

//---------------dance-single - ----------------
#NOTES:
     dance-single:
     :
     Easy:
     6:
     0.307,0.349,0.143,0.105,0.000:
1000
0000
1000
0000
,
0001
0000
0002
0000
,
0103
0000
0100
0000
,
0010
0000
0020
0000
,
0130
0100
0100
0100
,
0100
0100
0100
0000
,
0001
0001
0001
0001
,
0001
0001
0001
0000
,
1000
1000
1000
1000
,
1000
1000
1000
0000
,
0100
0100
0100
0100
,
0100
0100
0100
0000
,
0020
0000
0000
0000
,
0000
0000
0000
0000
,
0000
0000
0000
0000
,
0000
0000
0000
0030
,
1001
0001
0100
0001
,
1000
0100
1000
0100
,
1000
0001
1000
0001
,
0100
0010
0100
0010
,
0100
0001
0100
0001
,
0010
0100
0010
0100
,
1000
0010
0100
0010
,
1000
0100
0010
0100
,
1000
0001
1000
0000
0001
1000
0001
0000
,
1000
0001
1000
0000
0002
0000
0000
0000
,
0103
0010
0100
0000
0010
0100
0010
0000
,
0100
0010
0100
0000
0020
0000
0000
0000
,
1030
0001
1000
0000
0001
1000
0001
0000
,
1000
0001
1000
0000
0200
0000
0000
0000
,
0310
0100
0010
0000
0100
0010
0100
0000
,
0010
0100
0010
0000
0002
0000
0000
0000
,
0103
0001
0100
0000
0001
0100
0001
0000
,
0100
0001
0100
0000
0002
0000
0000
0000
,
1003
0100
1000
0000
0100
1000
0100
0000
,
1000
0100
1000
0000
0020
0000
0000
0000
,
0130
0010
0100
0000
0010
0100
0010
0000
,
0100
0010
0100
0000
0002
0000
0000
0000
,
1003
0100
1000
0000
0100
1000
0100
0000
,
1000
0100
1000
0000
0020
0000
0000
0000
,
0130
0110
0001
0010
,
0100
1001
1000
0001
,
0100
0110
0010
1000
,
0001
1001
1000
0100
,
0010
0110
0100
0010
,
0001
1001
1000
0010
,
0100
0110
0010
0100
,
0001
1001
1000
0100
,
1001
1001
0001
0100
,
1001
1001
1000
0010
,
1001
1001
0001
0010
,
0100
0100
0010
0001
,
1000
0001
0000
0000
0000
0000
0000
0000
;
