#TITLE:Onion man;
#SUBTITLE:;
#ARTIST:Jimmy Weckl;
#TITLETRANSLIT:;
#SUBTITLETRANSLIT:;
#ARTISTTRANSLIT:;
#CREDIT:DigiMindAxel;
#BANNER:Onion man.png;
#BACKGROUND:Onion man-bg.png;
#LYRICSPATH:;
#CDTITLE:GUITARFREAKS & drummania.png;
#MUSIC:Onion man.ogg;
#METERTYPE:DDR X;
#OFFSET:-7.216;
#SAMPLESTART:54.173;
#SAMPLELENGTH:12.000;
#SELECTABLE:YES;
#BPMS:0.000=143.000;
#STOPS:;
#BGCHANGES:-20.000=Onion man.avi=1.000=1=1=0,
99999=-nosongbg-=1.000=0=0=0 // don't automatically add -songbackground-
;

//---------------dance-single - ----------------
#NOTES:
     dance-single:
     :
     Easy:
     5:
     0.251,0.255,0.055,0.165,0.000:
0001
0010
0002
0000
,
1003
0001
2000
0000
,
3100
1000
0200
0000
,
1300
0000
0001
0001
,
1001
1000
0100
1000
,
0100
1000
0100
0000
,
0010
0001
0010
0001
,
0010
0001
0010
0000
,
0001
1000
0001
1000
,
0001
1000
0001
0000
,
0100
0001
0100
0001
,
0100
0001
1000
0000
,
0010
0100
0010
0100
,
0010
0100
0010
0000
,
1000
0010
1000
0010
,
1000
0010
1000
0000
,
0100
0010
0100
0010
,
0100
0010
0100
0000
,
1000
0001
1000
0001
,
1000
1000
0001
0001
,
2001
0000
0000
0000
,
3002
0000
0000
0000
,
2003
0000
0000
0000
,
3002
0000
0000
0000
,
0203
0000
0000
0000
,
0320
0000
0000
0000
,
2030
0000
0000
0000
,
3001
0001
0001
0001
,
1001
1000
0001
1000
,
0001
1000
0001
1000
,
0100
1000
0100
1000
,
0100
1000
0100
1000
,
0010
0100
0010
0100
,
0010
0100
0010
0100
,
0001
0010
0001
0010
,
0001
0000
1000
0000
0100
0000
0000
2002
,
0000
0000
0000
0000
,
0000
3003
0000
0000
;

//---------------dance-single - ----------------
#NOTES:
     dance-single:
     :
     Medium:
     8:
     0.376,0.358,0.069,0.165,0.000:
0001
0100
0010
0100
,
0001
0010
0100
0010
,
0001
0100
0010
0100
,
1001
0000
0000
0000
1000
0001
1000
0000
,
0001
0200
0000
0001
0000
0301
0000
1000
,
0000
0100
0000
1000
0010
0100
0010
0000
,
0000
2000
0000
0001
0000
3001
0000
1000
,
0000
0001
0100
0010
0100
0010
0100
0000
,
0000
0020
0000
0100
0000
0130
0000
0001
,
0000
1000
0100
0010
0100
0000
1000
0002
,
0000
0000
1003
0002
0000
0000
1000
0000
,
1003
0000
0010
0100
0010
0100
0010
0000
,
1000
0002
0000
0100
0000
0103
0000
0001
,
0000
1000
0100
1000
0010
0100
0010
0000
,
0000
2000
0000
0001
0000
3001
0000
1000
,
0000
0001
0010
0001
0100
0010
0100
0000
,
0001
2000
0000
0001
0000
3001
0000
1000
,
0000
0001
0010
0100
0010
0000
0001
0200
,
0000
0000
0310
2000
0000
0000
0001
0000
,
3001
0011
1100
1000
,
1001
0000
0001
0000
0100
0001
0010
0100
,
0000
1000
0000
1000
0000
0010
0100
0000
,
0010
1000
0100
0010
0001
0000
0100
0000
,
1000
0000
0100
0000
0001
1000
0000
0010
,
0000
0010
0100
0001
0010
0000
0100
0000
,
1000
0010
0100
0000
0001
1000
0000
0010
,
0000
0010
0100
0001
0000
1000
0100
1000
,
0001
0000
0010
0100
0010
0100
0010
0000
,
1001
0001
1000
0001
,
1000
0000
0001
0000
1000
0100
0010
0000
,
0001
0100
0001
0100
,
0001
0000
0100
0000
0001
0010
0100
0000
,
1000
0100
1000
0100
,
1000
0000
0100
0000
1000
0001
0100
0000
,
0001
1000
0001
1000
,
0001
0010
0100
0000
0010
0000
0002
2000
,
0000
0000
0000
0000
,
0000
3003
0000
0000
;

//---------------dance-single - ----------------
#NOTES:
     dance-single:
     :
     Hard:
     10:
     0.504,0.485,0.069,0.315,0.055: // measure 1
1000
0100
1000
0002
0000
2003
0000
0000
,  // measure 2
3001
0010
0001
2000
0000
0000
3010
0000
,  // measure 3
1000
0000
0001
0000
0100
0000
0002
0000
0000
0000
0000
0000
1003
0100
1000
0000
,  // measure 4
0001
0000
0010
0000
0100
0000
1000
0000
0001
1000
0001
0000
0100
0001
0100
0000
,  // measure 5
0001
2000
0000
0100
0000
3100
0000
1000
,  // measure 6
0001
0010
0100
0010
0001
0001
1000
0000
,  // measure 7
0000
0002
0000
0100
0000
0103
0000
0020
,  // measure 8
0000
0000
1030
0010
1000
0000
0100
0000
0010
0000
0100
0000
1000
0000
0000
0000
,  // measure 9
0000
0020
0000
0100
0000
0130
0000
0001
,  // measure 10
1000
0001
0010
0000
0100
0010
0001
0020
,  // measure 11
0000
0000
0130
2000
0000
0000
0000
3020
,  // measure 12
0000
0100
0100
0130
0001
0010
0100
1000
,  // measure 13
0001
2000
0000
0100
0000
3100
0000
1000
,  // measure 14
0001
0010
0001
1000
0010
0010
0100
0000
,  // measure 15
0000
0002
0000
0010
0000
0013
0000
0002
,  // measure 16
0000
0000
1003
0000
0010
1000
0010
0000
0100
0000
0001
0000
0010
0000
0000
0000
,  // measure 17
0001
2000
0000
0100
0000
3100
0000
0010
,  // measure 18
0001
0000
0100
0010
0100
0000
0000
0000
0010
0000
1000
0000
0001
0000
0020
0000
,  // measure 19
0000
0000
0130
2000
0000
0001
3001
0100
,  // measure 20
0110
0000
0000
0000
0110
0000
0000
0000
1000
0000
0100
0010
0001
0000
0001
0000
,  // measure 21
1000
0100
1000
0001
0001
0100
0010
0100
,  // measure 22
0001
1000
1000
0100
0010
0100
1000
0000
,  // measure 23
0001
0100
0001
1000
1000
0100
0010
0100
,  // measure 24
1000
0010
0010
0100
0001
0010
0100
0000
,  // measure 25
0010
0001
0010
0100
0100
0010
0001
1000
,  // measure 26
0010
0100
0100
0010
1000
0100
0010
0000
,  // measure 27
0001
1000
0100
1000
1000
0010
0100
0001
,  // measure 28
0010
0000
0100
0100
0100
0100
0110
0000
,  // measure 29
0001
0100
1000
0200
0000
0001
0000
0301
,  // measure 30
1000
0100
0010
0000
0001
0001
0001
0000
,  // measure 31
1000
0010
0001
0020
0000
1000
0000
1030
,  // measure 32
0001
0100
1000
0100
0001
0001
0001
0000
,  // measure 33
1000
0100
0001
0200
0000
1000
0000
1300
,  // measure 34
0001
0100
0010
0000
1000
1000
1000
0000
,  // measure 35
0001
0010
1000
0020
0000
0001
0000
0031
,  // measure 36
1000
0000
0010
1000
0010
0000
0000
0000
0110
0000
0100
0000
0010
0000
2002
0000
,  // measure 37
0000
0000
0000
0000
,  // measure 38
0000
3003
0000
0000
;

//---------------dance-single - ----------------
#NOTES:
     dance-single:
     :
     Beginner:
     1:
     0.096,0.148,0.096,0.000,0.000:
0001
0000
0000
0000
,
0000
0000
0000
0000
,
1000
0000
0000
0000
,
0000
0000
0000
0000
,
1001
0000
0000
0000
,
0000
0000
0000
0000
,
0100
0000
0000
0000
,
0000
0000
0000
0000
,
0010
0000
0000
0000
,
0000
0000
0000
0000
,
0100
0000
0000
0000
,
0000
0000
0000
0000
,
1001
0000
0000
0000
,
0001
0000
0000
0000
,
1000
0000
0000
0000
,
0001
0000
0000
0000
,
1001
0000
0000
0000
,
0001
0000
0000
0000
,
0010
0000
0000
0000
,
0100
0000
0000
0000
,
1001
0000
0001
0000
,
0001
0000
0001
0000
,
0001
0000
0001
0000
,
0001
0000
0001
0000
,
1001
0000
1000
0000
,
1000
0000
1000
0000
,
1000
0000
1000
0000
,
1001
0000
0000
0000
,
0010
0000
0100
0000
,
0010
0000
0000
0000
,
0100
0000
0010
0000
,
0100
0000
0000
0000
,
0001
0000
1000
0000
,
0001
0000
0000
0000
,
1000
0000
0001
0000
,
1000
0000
0000
0000
0000
0000
0000
1001
;
