#TITLE:One Kiss;
#SUBTITLE:;
#ARTIST:Calvin Harris & Dua Lipa;
#TITLETRANSLIT:;
#SUBTITLETRANSLIT:;
#ARTISTTRANSLIT:;
#CREDIT:DigiMindAxel;
#BANNER:One Kiss.png;
#BACKGROUND:One Kiss-bg.png;
#LYRICSPATH:One Kiss.lrc;
#CDTITLE:DigiMindAxel original simfile.png;
#MUSIC:One Kiss.ogg;
#METERTYPE:DDR X;
#OFFSET:-0.032;
#SAMPLESTART:46.439;
#SAMPLELENGTH:12.000;
#SELECTABLE:YES;
#BPMS:0.000=124.000;
#STOPS:;
#BGCHANGES:-0.500=One Kiss.avi=1.000=1=1=0,
99999=-nosongbg-=1.000=0=0=0 // don't automatically add -songbackground-
;

//---------------dance-single - ----------------
#NOTES:
     dance-single:
     :
     Easy:
     3:
     0.176,0.253,0.084,0.260,0.000:
0000
0000
0000
0000
,
0000
0000
0000
0000
,
0000
0000
0000
0000
,
0000
0000
0000
0000
,
0002
0000
0003
0000
,
0200
0000
0300
0000
,
0002
0000
0003
0000
,
2000
0000
3002
0000
,
1003
0000
0100
0000
,
1000
0000
0010
0000
,
0100
0000
0010
0000
,
0100
0000
0001
0000
,
0010
0000
0001
0000
,
0100
0000
0010
0000
,
1000
0000
0100
0000
,
1000
0000
0001
0000
,
0020
0000
0000
0030
,
0200
0000
0000
0300
,
0020
0000
0000
0030
,
0200
0000
0000
0300
,
2000
0000
0000
3000
,
0002
0000
0000
0003
,
0020
0000
0000
0030
,
0002
0000
0003
0000
,
1000
0000
0100
1000
,
0010
0000
0010
0000
,
0100
0001
0010
0100
,
1000
0000
1000
0000
,
0001
0000
0010
0001
,
0100
0000
0100
0000
,
0010
1000
0100
0010
,
0001
0000
0100
0000
,
0220
0000
0000
0330
,
0010
0100
0010
0100
,
2002
0000
0000
3003
,
1001
0000
0000
0000
,
0220
0000
0000
0330
,
0100
0010
0100
0010
,
2002
0000
0000
3003
,
1001
0000
0000
0000
,
2000
0000
0000
3000
,
0200
0000
0000
0300
,
0020
0000
0000
0030
,
0002
0000
0000
0003
,
0200
0000
0000
0300
,
0020
0000
0000
0030
,
2000
0000
0000
3000
,
0002
0000
0000
0003
,
1000
0000
1000
0000
,
0010
0000
0000
0000
,
0100
0000
0100
0000
,
0001
0000
0000
0000
,
0010
0000
0010
0000
,
0100
0000
0000
0000
,
1000
0000
1000
0000
,
0001
0000
0000
0000
,
0010
0001
0100
0010
,
0100
0000
0100
0000
,
0010
1000
0010
0100
,
0001
0000
0001
0000
,
0010
0100
1000
0001
,
1000
0000
1000
0000
,
0100
1000
0100
0010
,
0001
0000
0001
0000
,
2002
0000
0000
3003
,
1000
0001
1000
0001
,
0220
0000
0000
0330
,
0110
0000
0000
0000
,
2002
0000
0000
3003
,
0001
1000
0001
1000
,
0220
0000
0000
0330
,
0110
0000
0010
0010
,
0100
0000
0000
0000
;

//---------------dance-single - ----------------
#NOTES:
     dance-single:
     :
     Medium:
     8:
     0.385,0.405,0.436,0.112,0.000:
0000
0000
0000
0000
,
0000
0000
0000
0000
,
0000
0000
0000
0000
,
0000
0000
0000
0000
,
1001
0000
1000
0000
0000
0000
1000
0001
,
0100
0000
0100
0000
0000
0000
0100
0001
,
0010
0000
0010
0000
0000
0000
0010
0100
,
1000
0000
0100
1000
0100
0000
0100
0000
,
1001
0001
0010
0100
,
1010
0100
0010
0001
,
0110
1000
0010
0100
,
0101
0000
0100
0001
0010
0000
0001
0010
,
0001
0100
0010
1000
,
1100
0010
0001
1000
,
0110
0001
0100
0010
,
1100
0000
0100
1000
0010
0000
1000
0010
,
1000
1000
1000
1000
,
0100
0100
0100
0100
,
0010
0010
0010
0010
,
0001
0000
0001
0000
0001
1000
0010
0000
,
0100
0100
0100
0100
,
0010
0010
0010
0010
,
2000
0001
0001
0001
,
3002
0000
0100
0103
,
1001
0000
1100
0000
0010
0001
0100
0010
,
1000
0000
0001
1000
0001
0000
1001
0000
,
0010
0000
0100
0010
0100
0001
1000
0000
,
0200
0000
2300
0000
3010
0010
0010
0000
,
1001
0000
1100
0000
0100
1000
0010
0100
,
0001
0000
1000
0001
1000
0000
1001
0000
,
0001
0000
0010
0001
0010
0100
1000
0000
,
0020
0000
0230
0000
0301
1000
0001
0000
,
1001
1001
1001
1001
,
1000
0100
0010
0001
1000
0000
0010
0000
,
0110
0110
0110
0110
,
1001
0000
0000
0000
1000
0100
0010
0000
,
1001
1001
1001
1001
,
0001
0010
0100
1000
0001
0000
0100
0000
,
0110
0110
0110
0110
,
1001
0000
1100
0100
,
1001
0000
0001
0000
0001
0000
0001
0100
,
0010
0010
0010
0010
,
0100
0000
0100
0001
1000
0000
1000
0000
,
0001
0000
0001
0000
0001
0010
0100
0000
,
0100
0000
0100
1000
0010
0000
0010
0000
,
0100
0100
0100
0100
,
0001
0000
0001
1000
0100
0000
0100
0000
,
0010
0000
0010
0001
1000
0000
1000
0000
,
1002
0000
0100
0000
,
2003
0000
3100
0000
,
0020
0000
0001
0000
,
0230
0000
1300
0000
,
0010
0010
0010
0010
,
0100
0100
0100
0100
,
0001
0001
0001
0001
,
1000
1000
2000
0000
,
3010
0000
1010
0000
0100
0001
1000
0100
,
0010
0000
0001
1000
0001
1000
0100
0000
,
1001
0000
0001
1000
0100
0000
1100
0000
,
0020
0032
0203
0310
,
1001
0000
0011
0000
0100
1000
0010
0000
,
0110
0000
0100
0001
1000
0100
0010
0000
,
1001
0000
1000
0100
1000
0001
0100
0000
,
0020
0000
2030
0000
3100
0100
0100
0000
,
1001
1001
1001
1001
,
1000
0010
0100
0001
0010
0000
0100
0000
,
0110
0110
0110
0110
,
1001
0000
0101
1010
,
1001
1001
1001
1001
,
1000
0010
0100
0001
0010
0000
0100
0000
,
0110
0110
0110
0110
,
1001
0000
0000
0000
1000
0100
1000
0010
,
0100
0000
0000
0000
;

//---------------dance-single - ----------------
#NOTES:
     dance-single:
     :
     Hard:
     11:
     0.464,0.506,0.077,0.394,0.162:
0000
0000
0000
0000
,
0000
0000
0000
0000
,
0000
0000
0000
0000
,
0000
0000
0000
0000
,
0201
0000
0000
0000
0000
0000
0301
1000
,
0020
0000
0000
0000
0000
0000
0130
0001
,
2000
0000
0000
0000
0000
0000
3100
0010
,
0001
0000
0000
0000
0000
0000
0010
0000
0000
0001
0000
0010
0100
0000
0010
0100
0000
0000
1000
0000
0000
0000
0000
0000
,
1200
0000
0001
0000
1000
0000
0301
1000
,
0020
0000
1000
0000
0001
0000
1030
0001
,
0200
0000
0001
0000
1000
0000
0301
1000
,
0010
0000
0000
0000
0000
0000
0100
0000
0000
0001
0000
1000
0100
0000
1000
0100
0000
0000
0010
0000
0000
0000
0000
0000
,
0021
0000
1000
0000
0001
0000
1030
0001
,
0200
0000
0001
0000
1000
0000
0301
1000
,
0020
0000
1000
0000
0001
0000
1030
0001
,
0100
0000
0000
0000
0000
0000
0010
0000
0000
1000
0000
0001
0010
0000
0001
0010
0000
0000
0100
0000
0000
0000
0000
0000
,
2000
0100
0100
3100
,
0020
0001
0001
0031
,
2000
0001
0001
3001
,
1000
0000
0000
0000
0000
0000
0010
0000
0000
0000
0000
0100
0001
0000
0100
0000
0000
0000
0000
0000
0000
0000
0000
0000
,
0020
0100
0100
0130
,
0002
1000
1000
1003
,
0200
1000
1000
1300
,
0010
0000
0000
0000
0000
0000
0100
0000
0000
0000
0000
0001
1000
0000
0001
1000
0000
0000
0100
0000
0000
0000
0000
0000
,
1000
0100
0010
0100
1000
0010
2000
0001
,
3001
0000
0000
1000
0000
0010
1000
0000
0001
0000
0010
0000
0200
0000
1000
0000
,
1300
0000
0001
0100
1000
0100
0001
0010
,
0200
0000
0000
1000
0000
0000
1300
0000
0020
0000
0000
0100
0000
0000
0130
0000
,
0001
0010
0100
0010
0001
1000
0020
0100
,
0130
0000
0000
0001
0000
0010
0001
0000
1000
0000
0010
0000
0200
0000
0010
0000
,
0310
0000
1000
0010
0001
0010
1000
0100
,
0020
0000
0000
0001
0000
0000
0031
0000
0200
0000
0000
0010
0000
0000
0310
0000
,
1002
0023
0230
1000
,
1300
0001
0010
1000
0010
0000
0001
0100
,
1020
0230
0302
0010
,
0013
0000
0000
0000
0000
0000
0000
0000
0000
0000
0000
0100
1000
0000
0100
1000
0000
0000
0010
0000
0000
0000
0000
0000
,
1002
0023
0230
1000
,
1300
0001
0010
1000
0010
0000
0001
1000
,
1200
0320
0032
0100
,
0103
0000
0000
0000
0000
0000
0000
0000
0000
0000
0000
0010
1000
0000
0010
1000
0000
0000
0001
0000
0000
0000
0000
0000
,
2001
0000
0000
0000
0100
0000
0000
0000
3100
0000
0000
0010
0001
0000
1000
0000
,
0020
0100
0100
0130
,
0002
0000
0000
0000
0000
0000
0010
0000
0013
0000
0000
0100
0010
0000
0000
0000
,
0100
0000
0000
0000
0000
0000
1000
0000
0000
0000
0000
0010
0100
0000
0010
0100
0000
0000
0001
0000
0000
0000
0000
0000
,
0020
0000
0000
0000
0000
0000
0001
0000
0031
0000
0000
0100
0010
0000
0000
0000
,
0200
0001
0001
0301
,
2000
0000
0000
0000
0000
0000
0100
0000
3100
0000
0000
0010
0100
0000
0000
0000
,
0020
0000
0000
0000
0000
0000
0001
0000
0031
0000
0000
0110
0000
0000
0000
0000
,
1002
0100
1000
0100
,
2003
0010
0100
3010
,
0200
0001
0010
0001
,
0310
0000
0000
0000
0000
0000
1000
0000
0000
0000
0000
0001
0010
0000
0001
0000
0000
0000
0000
0000
0000
0000
0000
0000
,
2000
0100
0100
0100
,
3200
0010
0010
0010
,
0320
0001
0001
0001
,
0032
1000
2000
3003
,
0001
0000
0100
0010
0100
0000
0001
0000
0010
0000
0100
0000
2000
0000
0010
0000
,
3010
0000
0000
1000
0000
0001
1000
0000
0100
0000
0010
0000
0002
0000
0100
0000
,
0103
0000
0010
0100
0001
1000
0100
0010
,
0100
0000
0000
1000
0010
0000
1000
0000
0001
0000
0000
0100
0001
0000
1000
0000
,
0001
0000
0010
0000
0100
0000
1000
0010
1000
0000
0010
0000
0200
0000
0001
0000
,
0301
0000
0000
1000
0000
0100
1000
0000
0001
0000
0010
0000
0200
0000
0010
0000
,
0310
0000
0001
0010
1000
0010
0001
0010
,
0100
0000
0000
1000
0010
0000
1000
0000
0200
0000
0000
0010
0000
0000
0310
0000
,
0001
0100
1000
0100
0001
0100
1000
0100
,
0000
0001
1000
0100
0010
0000
0100
1000
,
0001
0010
1000
0010
0001
0010
1000
0010
,
0002
0000
0000
0000
0000
0000
0003
0000
0000
0000
0000
0100
0010
0000
0100
0010
0000
0000
0100
0000
0000
0001
0000
0000
,
1000
0100
0001
0100
1000
0100
0001
0100
,
0000
1000
0010
0100
0001
0000
0010
0100
,
1000
0010
0001
0010
1000
0010
0001
0010
,
1000
0000
0000
0000
0000
0000
0000
0000
0000
0001
0000
0000
0010
0000
0000
0000
0000
0000
0001
0000
0000
0000
0100
0000
0010
0000
0000
0000
0100
0000
0010
0000
0000
0000
0000
0000
1000
0000
0000
0000
0000
0000
0000
0000
0000
0000
0000
0000
,
1001
0000
0000
0000
;

//---------------dance-single - ----------------
#NOTES:
     dance-single:
     :
     Beginner:
     2:
     0.075,0.127,0.049,0.000,0.000: // measure 1
0000
0000
0000
0000
,  // measure 2
0000
0000
0000
0000
,  // measure 3
0000
0000
0000
0000
,  // measure 4
0000
0000
0000
0000
,  // measure 5
1000
0000
0000
0000
,  // measure 6
0001
0000
0000
0000
,  // measure 7
1000
0000
0000
0000
,  // measure 8
0001
0000
0000
0000
,  // measure 9
0100
0000
0000
0000
,  // measure 10
0010
0000
0000
0000
,  // measure 11
0100
0000
0000
0000
,  // measure 12
0001
0000
0000
0000
,  // measure 13
1000
0000
0000
0000
,  // measure 14
0100
0000
0000
0000
,  // measure 15
1000
0000
0000
0000
,  // measure 16
0001
0000
0000
0000
,  // measure 17
0010
0000
0000
0000
,  // measure 18
0000
0000
0000
0000
,  // measure 19
0010
0000
0000
0000
,  // measure 20
0000
0000
0000
0000
,  // measure 21
0100
0000
0000
0000
,  // measure 22
0000
0000
0000
0000
,  // measure 23
0100
0000
0000
0000
,  // measure 24
0000
0000
0000
0000
,  // measure 25
1000
0000
0000
0000
,  // measure 26
0010
0000
0000
0000
,  // measure 27
0100
0000
0000
0000
,  // measure 28
0001
0000
0001
0000
,  // measure 29
0001
0000
0000
0000
,  // measure 30
0010
0000
0000
0000
,  // measure 31
0100
0000
0000
0000
,  // measure 32
1000
0000
1000
0000
,  // measure 33
1001
0000
0000
0000
,  // measure 34
0000
0000
0000
0000
,  // measure 35
0010
0000
0000
0000
,  // measure 36
0110
0000
0000
0000
,  // measure 37
1001
0000
0000
0000
,  // measure 38
0000
0000
0000
0000
,  // measure 39
0100
0000
0000
0000
,  // measure 40
0010
0000
0000
0000
,  // measure 41
1001
0000
0000
0000
,  // measure 42
0001
0000
0000
0000
,  // measure 43
0010
0000
0000
0000
,  // measure 44
0100
0000
0100
0000
,  // measure 45
1000
0000
0000
0000
,  // measure 46
0001
0000
0000
0000
,  // measure 47
0100
0000
0000
0000
,  // measure 48
0010
0000
0010
0000
,  // measure 49
1000
0000
0000
0000
,  // measure 50
0000
0000
0000
0000
,  // measure 51
1000
0000
0000
0000
,  // measure 52
0000
0000
0000
0000
,  // measure 53
0001
0000
0000
0000
,  // measure 54
0000
0000
0000
0000
,  // measure 55
0001
0000
0000
0000
,  // measure 56
0000
0000
0000
0000
,  // measure 57
1001
0000
0000
0000
,  // measure 58
1000
0000
0000
0000
,  // measure 59
0100
0000
0000
0000
,  // measure 60
0010
0000
0010
0000
,  // measure 61
0001
0000
0000
0000
,  // measure 62
0010
0000
0000
0000
,  // measure 63
0100
0000
0000
0000
,  // measure 64
1000
0000
1000
0000
,  // measure 65
0010
0000
0000
0000
,  // measure 66
0100
0000
0010
0000
,  // measure 67
0100
0000
0000
0000
,  // measure 68
1001
0000
0000
0000
,  // measure 69
0010
0000
0000
0000
,  // measure 70
0100
0000
0010
0000
,  // measure 71
0100
0000
0000
0000
,  // measure 72
1001
0000
0001
0000
,  // measure 73
1000
0000
0000
0000
;
