#TITLE:音楽;
#SUBTITLE:;
#ARTIST:弁士カンタビレオ;
#TITLETRANSLIT:ONGAKU;
#SUBTITLETRANSLIT:;
#ARTISTTRANSLIT:BENSHI CANTABILEO;
#CREDIT:DigiMindAxel;
#BANNER:ONGAKU.png;
#BACKGROUND:ONGAKU-bg.png;
#LYRICSPATH:;
#CDTITLE:pop'n music.png;
#MUSIC:ONGAKU.ogg;
#METERTYPE:DDR X;
#OFFSET:-5.278;
#SAMPLESTART:17.591;
#SAMPLELENGTH:12.000;
#SELECTABLE:YES;
#BPMS:0.000=245.000,20.000=280.000,36.000=245.000,44.000=230.000,76.000=240.000,104.000=250.000,108.000=260.000,172.000=280.000,252.000=270.000,268.000=280.000,324.000=270.000,436.000=240.000,444.000=210.000,452.000=260.000,500.000=280.000,516.000=290.000,524.000=310.000,540.000=330.000,546.000=340.000,552.000=350.000,555.000=360.000,571.500=240.000;
#STOPS:;
#BGCHANGES:;

//---------------dance-single - ----------------
#NOTES:
     dance-single:
     :
     Easy:
     10:
     0.415,0.495,0.328,0.174,0.000:
0000
0000
0000
0000
,
0000
0000
0000
0000
,
0000
0000
0000
0000
,
0000
0001
1000
0100
,
0010
0001
0010
0100
,
1001
0100
0010
0001
,
1000
0100
0010
0001
,
0100
0010
0100
0001
,
1000
0001
1000
0001
,
0000
0000
2002
0000
,
0000
0000
0000
0000
,
3003
0000
0000
0000
,
0000
0000
0000
0000
,
0001
1000
0001
0000
,
1000
0010
1000
0000
,
0001
0000
1001
0000
,
0000
0001
0010
0100
,
1000
0000
1001
0000
,
0010
0010
0000
1000
,
1001
0000
0110
0000
,
1001
0000
0110
0000
,
0001
0010
0001
0000
,
0000
1000
0100
0010
,
0001
0000
1001
0000
,
0000
0001
0100
0010
,
1000
0000
1001
0000
,
1001
0000
1001
0000
,
0001
0100
0001
0000
,
0000
0010
0100
1000
,
0010
1000
0000
0010
,
0100
0010
0100
0000
,
0001
0100
0010
1000
,
0010
0100
0001
1000
,
0001
0000
1000
0100
,
1000
0001
0010
0100
,
1000
0002
0000
0103
,
0010
2000
0000
3001
,
0100
0020
0000
1030
,
0010
0200
0000
0301
,
1000
0020
0000
0100
,
0130
0000
0000
0000
,
0110
0000
1001
0000
,
0110
0000
1001
0100
,
0010
0001
0000
0001
,
0000
0001
1000
0000
,
1000
0100
0000
0100
,
0000
0100
0010
0000
,
0010
0001
0000
0001
,
0000
0001
0010
0000
,
0010
0100
0000
0100
,
0000
0100
1000
0000
,
0001
2000
0000
3000
,
0100
0020
0000
0030
,
0001
2000
0000
3000
,
0010
0200
0000
0300
,
0001
2000
0000
3000
,
0001
0010
0100
1000
,
0001
0000
1001
0000
,
1000
0100
0010
0001
,
1000
0010
0000
0010
,
0000
0010
1000
0100
,
0010
0001
0000
0001
,
0000
0001
1000
0010
,
0200
0000
0310
0100
,
0020
0000
0030
0000
,
0200
0000
0310
0100
,
0020
0000
1030
0001
,
1001
0000
1000
0010
,
0100
0000
0110
0000
,
1001
0000
0001
0100
,
0010
0000
0110
0000
,
1001
0000
1000
0100
,
1000
0001
0010
0001
,
1000
0000
1001
0000
,
0110
0000
0010
1000
,
0100
0000
0010
0001
,
0200
0010
0000
0010
,
0000
0310
1000
0100
,
0010
0000
0001
1000
,
0001
0000
1001
0000
,
0110
0000
1001
0000
,
0110
0100
0000
0100
,
0100
0000
0000
0010
,
0010
0000
0000
0001
,
0001
0000
0000
1000
,
1000
0000
0000
0010
,
0100
0000
0000
0001
,
1000
0000
0010
0100
,
0010
0000
0110
0000
,
1001
0000
0000
0001
,
1001
0000
0000
1000
,
1001
0000
0010
0000
,
1001
0000
1001
0000
,
0100
1000
0100
0000
,
1000
0010
1000
0000
,
0010
0100
0010
0000
,
0100
0001
0010
0001
,
1001
0000
0000
1000
,
1001
0000
0000
0010
,
0110
0000
1001
0000
,
1001
0000
0110
0000
,
0001
0010
0001
0000
,
0010
0100
1000
0000
,
0200
0000
0000
1000
,
1300
0000
0000
0000
,
0020
0000
0000
0001
,
0031
0000
0000
1000
,
0200
0000
2300
0000
,
3020
0000
0130
0001
,
0010
0000
1001
0000
,
0000
2000
0000
0000
,
3001
0000
0010
0000
,
0100
0000
1000
0000
,
0001
0000
0010
0000
,
0100
0000
1000
0000
,
0020
0000
0130
0000
,
0000
0001
0010
0100
,
1000
0000
1001
0000
,
0000
1000
0010
0100
,
0001
0000
1001
0000
,
0110
0000
0110
0000
,
1001
0000
0000
0001
,
0010
0000
0100
0000
,
1001
0000
0000
1000
,
0100
0000
0010
0000
,
1001
0000
0001
0010
,
0000
0100
1000
0100
,
0010
0000
0001
0010
,
0100
1000
0000
0100
,
1000
0000
0010
0100
,
0000
0000
0001
0010
,
0100
1000
0000
0000
,
0001
1000
0001
1000
,
0001
1000
0010
0100
,
0010
0100
0010
0100
,
0001
0000
0001
0010
,
0000
0010
0100
0000
,
0100
1000
0000
1000
,
0100
0010
0001
1000
,
0000
0001
0010
0100
,
1000
0001
1000
0001
,
1000
0000
0000
0000
0000
0000
0000
0010
,
0000
0000
0000
0000
0000
0000
0000
2002
,
0000
0000
0000
0000
,
0000
0000
0000
0000
,
0000
0000
0000
0000
,
0000
0000
0000
0000
,
0000
0000
0000
0000
0000
3003
0000
0000
;

//---------------dance-single - ----------------
#NOTES:
     dance-single:
     :
     Medium:
     14:
     0.571,0.693,0.570,0.228,0.040: // measure 1
0000
0000
0000
0000
,  // measure 2
0000
0000
0000
0000
,  // measure 3
0000
0000
0000
0000
,  // measure 4
0000
0001
1000
0100
,  // measure 5
0010
0001
0010
0001
,  // measure 6
0010
0100
1000
0100
,  // measure 7
1000
0000
0010
0000
0100
0010
0100
0010
,  // measure 8
1000
0100
0010
0001
,  // measure 9
1000
0000
0100
0010
0100
0010
0001
0100
,  // measure 10
0000
0000
2002
0000
,  // measure 11
0000
0000
0000
0000
,  // measure 12
3003
0000
0000
0000
,  // measure 13
0000
0000
0000
0000
,  // measure 14
0001
0010
0100
1000
,  // measure 15
1000
0100
0010
0001
,  // measure 16
1000
0001
1001
0000
,  // measure 17
0010
0001
0010
0100
,  // measure 18
0010
0000
0110
0000
,  // measure 19
1000
0001
0100
0001
,  // measure 20
1001
0000
0011
0000
,  // measure 21
0110
0000
1100
0000
,  // measure 22
0001
0010
0200
0000
,  // measure 23
1300
0100
0010
0001
,  // measure 24
0110
0000
1001
0000
,  // measure 25
0000
1000
0100
0010
,  // measure 26
1001
0000
0101
0000
,  // measure 27
0110
0000
1010
0000
,  // measure 28
1001
1000
0001
0010
,  // measure 29
0100
1000
0010
0100
,  // measure 30
0001
0011
0000
0100
,  // measure 31
1000
0100
0010
0001
,  // measure 32
0100
0100
0010
0010
,  // measure 33
1000
1000
0001
0001
,  // measure 34
0010
0100
1000
0100
,  // measure 35
0010
0100
1000
0010
,  // measure 36
0100
0000
1001
0000
0000
0000
0100
0010
,  // measure 37
0100
0000
0101
0000
0000
0000
0010
0100
,  // measure 38
0010
0000
1010
0000
0000
0000
0100
0001
,  // measure 39
0100
0110
0000
0000
,  // measure 40
0001
0000
1001
0000
0000
0000
0010
1000
,  // measure 41
0010
1000
0100
0010
,  // measure 42
0001
0000
0000
0000
0001
0000
0010
0000
0000
0000
0010
0000
,  // measure 43
0100
0000
0000
0000
0100
0000
1000
0000
0010
0000
0100
0000
,  // measure 44
0110
0000
0001
0010
0000
0000
0001
0010
,  // measure 45
0000
0000
0001
0010
0001
0000
1000
0000
,  // measure 46
1001
0000
0010
1000
0000
0000
0010
1000
,  // measure 47
0000
0000
0010
1000
0010
0000
1000
0000
,  // measure 48
1001
0000
0010
0100
0000
0000
0010
0100
,  // measure 49
0000
0000
0010
0100
0010
0000
1000
0000
,  // measure 50
1001
0000
0100
1000
0000
0000
0100
1000
,  // measure 51
0000
0000
0100
1000
0100
0000
0010
0000
,  // measure 52
1001
0200
0000
1300
,  // measure 53
1001
0020
0000
0031
,  // measure 54
1001
0200
0000
1300
,  // measure 55
1001
0020
0000
0031
,  // measure 56
1001
2002
0000
3003
,  // measure 57
0001
1000
0100
0010
,  // measure 58
1001
0000
0100
0010
0100
0000
0001
0000
,  // measure 59
1001
1001
0110
0110
,  // measure 60
1001
0000
1000
0100
0000
0000
1000
0100
,  // measure 61
0000
0000
0010
0001
0010
0000
0001
0000
,  // measure 62
1001
0000
1000
0010
0000
0000
1000
0010
,  // measure 63
0000
0000
0100
0001
0100
0000
0001
0000
,  // measure 64
2001
0000
3001
0010
,  // measure 65
0100
0000
0110
0000
,  // measure 66
1002
0000
0013
0100
,  // measure 67
1000
0000
0000
0000
0010
0100
0010
0000
,  // measure 68
1001
0000
0100
0100
,  // measure 69
1100
0000
0000
0010
0100
0000
0000
0000
,  // measure 70
0210
0000
0301
0001
,  // measure 71
0011
0000
0000
0100
0010
0000
0000
0000
,  // measure 72
0120
0000
1030
0001
,  // measure 73
0100
1000
0100
0001
,  // measure 74
0010
0000
0110
0000
,  // measure 75
0002
0000
0013
0100
,  // measure 76
2000
0000
3010
0100
,  // measure 77
0001
0000
1000
0001
1000
0000
0001
1000
,  // measure 78
0001
0010
0100
1000
,  // measure 79
1002
0000
0103
0100
,  // measure 80
0101
0000
0000
0010
1000
0000
0000
0000
,  // measure 81
1001
0000
0110
0000
,  // measure 82
1001
0020
0000
0130
,  // measure 83
2000
0000
0000
3100
,  // measure 84
0010
0002
0000
1003
,  // measure 85
0010
0200
0000
0310
,  // measure 86
1000
0200
0000
0310
,  // measure 87
0001
2000
0000
3010
,  // measure 88
0110
0000
0100
0010
,  // measure 89
1000
0100
0010
0001
,  // measure 90
1001
0000
1000
0001
1000
0000
0010
0000
,  // measure 91
0110
0000
0001
1000
0001
0000
0100
0000
,  // measure 92
0110
0000
1001
0000
,  // measure 93
0101
0000
1010
0000
,  // measure 94
0100
0000
0001
0010
0000
0000
0010
0100
,  // measure 95
0000
0000
0100
1000
0000
0000
1000
0010
,  // measure 96
1000
0000
0100
0010
0000
0000
0001
0010
,  // measure 97
0000
0000
0100
0010
0100
0010
0100
0000
,  // measure 98
1001
0000
0010
1000
0010
0000
0100
0000
,  // measure 99
0110
0000
0001
0100
0001
0000
0100
0000
,  // measure 100
0110
0000
1001
0000
,  // measure 101
1100
0000
0011
0000
,  // measure 102
0001
0010
0001
0010
,  // measure 103
0100
1000
0010
0100
,  // measure 104
1001
0000
0001
0100
,  // measure 105
0101
0000
0010
1000
,  // measure 106
1010
0000
0010
0100
,  // measure 107
0110
0000
1000
0001
,  // measure 108
1001
0000
0000
0000
1000
0000
0100
0000
0000
0000
0100
0000
,  // measure 109
0010
0000
0000
0000
0010
0000
0001
0000
1000
0000
0010
0000
,  // measure 110
0100
0000
0110
0000
,  // measure 111
0000
0000
0000
0001
0000
0000
1000
0000
0100
0000
0010
0000
,  // measure 112
0002
0000
0203
0000
,  // measure 113
0320
0000
0130
0000
,  // measure 114
0001
0100
0001
0100
,  // measure 115
0010
0100
0010
1000
,  // measure 116
0100
0010
0001
0000
,  // measure 117
0100
0010
1000
0100
,  // measure 118
2000
0000
3001
0000
,  // measure 119
1000
0100
0010
0001
,  // measure 120
0200
0000
2300
0000
,  // measure 121
3200
0000
0302
0000
,  // measure 122
1003
0000
0000
0001
,  // measure 123
0011
0000
0110
0000
,  // measure 124
1100
0000
0000
1000
,  // measure 125
1100
0000
0110
0000
,  // measure 126
0010
0001
1000
1001
,  // measure 127
0000
0100
1000
0001
,  // measure 128
1001
0000
0100
0001
,  // measure 129
1000
0010
0010
0100
,  // measure 130
1001
0000
0010
0110
,  // measure 131
0000
0000
1000
0001
,  // measure 132
0100
0101
0000
0010
,  // measure 133
1000
1000
0100
0100
,  // measure 134
0010
0010
0001
0001
,  // measure 135
0100
0100
0010
0010
,  // measure 136
1001
1000
0100
0100
,  // measure 137
0010
0010
0001
0001
,  // measure 138
1000
1001
0001
0010
,  // measure 139
0100
0000
1000
0100
1000
0000
0001
0000
,  // measure 140
0100
0001
0100
0000
0010
0000
1000
0001
,  // measure 141
1000
0100
0010
0011
,  // measure 142
2002
0000
0000
0000
3003
0000
0000
1000
,  // measure 143
0000
0000
0000
0000
0000
0000
0000
2002
,  // measure 144
0000
0000
0000
0000
,  // measure 145
0000
0000
0000
0000
,  // measure 146
0000
0000
0000
0000
,  // measure 147
0000
0000
0000
0000
,  // measure 148
0000
0000
0000
0000
0000
3003
0000
0000
;

//---------------dance-single - ----------------
#NOTES:
     dance-single:
     :
     Hard:
     16:
     0.725,0.841,0.657,0.355,0.060: // measure 1
0000
0000
0000
0000
,  // measure 2
0000
0000
0000
0000
,  // measure 3
0000
0000
0000
0000
,  // measure 4
0000
0000
0001
0000
0010
0001
0010
0001
,  // measure 5
0100
0010
0100
0010
1000
0100
1000
0100
,  // measure 6
0010
0000
0001
0100
0001
0100
0010
1000
,  // measure 7
0010
1000
0100
1000
0010
0100
0001
0010
,  // measure 8
0100
1000
0010
0100
0010
1000
0100
0010
,  // measure 9
0001
1000
0001
1000
0001
0010
0100
1000
,  // measure 10
0000
0000
2002
0000
,  // measure 11
0000
0000
0000
0000
,  // measure 12
3003
0000
0000
0000
,  // measure 13
0000
0000
0000
0000
,  // measure 14
0001
1000
0002
0000
,  // measure 15
0013
0100
2000
0000
,  // measure 16
3010
0100
0002
0000
,  // measure 17
0000
0013
0100
1000
,  // measure 18
0010
0000
1001
0000
,  // measure 19
1000
1000
0001
0010
,  // measure 20
0200
0000
2300
0000
,  // measure 21
3020
0000
2030
0000
,  // measure 22
3100
0010
2002
0000
,  // measure 23
3003
0000
0010
0100
1000
0000
0010
0000
,  // measure 24
0100
0000
2002
0000
,  // measure 25
3003
0000
1000
0010
0100
0000
0001
0000
,  // measure 26
0100
0000
1001
0000
,  // measure 27
0110
0000
1001
0000
,  // measure 28
1001
0000
1000
0001
1000
0000
0001
0010
,  // measure 29
0001
0000
0100
0010
0100
0001
1000
0000
,  // measure 30
1001
0000
0001
1000
0001
0000
1000
0100
,  // measure 31
1000
0000
0010
0100
0010
1000
0001
0000
,  // measure 32
1000
0000
0010
0100
0001
0000
0010
0100
,  // measure 33
1000
0000
0010
0100
0001
0010
0001
0000
,  // measure 34
1001
0000
0100
1000
0100
0000
0010
0000
,  // measure 35
1001
0000
0010
0001
0010
0001
0100
0000
,  // measure 36
1001
0000
0010
0000
0010
0000
0100
0001
,  // measure 37
1000
0000
0010
0000
0010
0000
1000
0100
,  // measure 38
0010
0000
0001
0100
0001
0000
1000
0010
,  // measure 39
0100
0000
0001
0100
0001
0000
1000
0100
,  // measure 40
0010
0000
0001
1000
0020
0000
1000
0000
,  // measure 41
1030
0001
0010
0100
,  // measure 42
1000
0000
0010
0000
1000
0000
0001
0000
1000
0000
0010
0000
,  // measure 43
1000
0000
0001
0000
0010
0000
0100
0000
0010
0000
0001
0000
,  // measure 44
1001
0000
1000
0001
1000
0000
0001
1000
,  // measure 45
0001
0000
1000
0001
1000
0000
0010
0000
,  // measure 46
0110
0000
0100
1000
0100
0000
0010
0001
,  // measure 47
0010
0000
0100
1000
0100
0000
0010
0000
,  // measure 48
0110
0000
0001
0100
0001
0000
1000
0100
,  // measure 49
0010
0000
0100
1000
0100
0000
0010
0000
,  // measure 50
1001
0000
0001
1000
0010
0000
0100
0010
,  // measure 51
0100
0000
0001
1000
0100
0010
0001
0000
,  // measure 52
1001
0000
2020
0000
3030
0000
0100
0001
,  // measure 53
1000
0000
2200
0000
3300
0000
0010
0001
,  // measure 54
0100
0000
0202
0000
0303
0000
0010
1000
,  // measure 55
0100
0000
2200
0000
3300
0000
0010
0001
,  // measure 56
1000
1002
1000
1003
,  // measure 57
1001
0100
0110
0010
,  // measure 58
1001
0000
0001
0100
0010
0000
0100
0000
,  // measure 59
1010
1010
0101
0101
,  // measure 60
1001
0000
0001
0100
0001
0000
0001
1000
,  // measure 61
0001
0000
0001
0100
0001
1000
0100
0000
,  // measure 62
1000
0000
1000
0010
1000
0000
1000
0001
,  // measure 63
1000
0000
1000
0010
1000
0001
0010
0000
,  // measure 64
2001
0000
3001
0010
,  // measure 65
0100
0000
0110
0000
,  // measure 66
1002
0000
1003
0100
,  // measure 67
0010
0001
1000
0010
0100
0001
0100
0000
,  // measure 68
0210
0000
0301
1000
,  // measure 69
1100
0000
0000
0010
0001
0000
0000
0000
,  // measure 70
0120
0000
1030
0001
,  // measure 71
0011
0000
0000
0100
1000
0000
0000
0000
,  // measure 72
0120
0000
1030
0100
,  // measure 73
0010
1001
0001
0100
,  // measure 74
0110
0000
1010
0010
,  // measure 75
2001
0000
3100
0010
,  // measure 76
0002
0000
0013
0100
,  // measure 77
1000
0000
0010
1000
0100
0000
0010
0001
,  // measure 78
0100
0000
0010
1000
0100
0010
0001
0100
,  // measure 79
0002
0000
0013
0011
,  // measure 80
1100
0000
0000
1000
0001
0000
0000
0000
,  // measure 81
0011
0000
0110
0000
,  // measure 82
1001
1000
0001
0010
,  // measure 83
0100
1000
0010
1000
,  // measure 84
0100
0001
0100
1000
,  // measure 85
0100
0010
0100
1000
,  // measure 86
0010
0001
0010
1000
,  // measure 87
0001
0100
0001
0100
,  // measure 88
0110
0000
1001
0000
,  // measure 89
1010
0000
0010
1000
0100
0010
0001
0100
,  // measure 90
0020
0000
1030
0010
0100
0000
1001
0000
,  // measure 91
0002
0000
0013
0100
1000
0000
1001
0000
,  // measure 92
0011
0000
0110
0000
,  // measure 93
1100
0000
1001
0000
,  // measure 94
0100
0000
0100
0001
0010
0000
0010
0100
,  // measure 95
1000
0000
1000
0001
0100
0000
0100
0010
,  // measure 96
1000
0000
1000
0100
0010
0000
0010
0001
,  // measure 97
1000
0000
1000
0001
0010
1000
0010
0001
,  // measure 98
0100
0000
0010
1000
0100
0010
0100
0000
,  // measure 99
1100
0000
0010
0001
0100
0010
1000
0000
,  // measure 100
1001
0000
1010
0000
,  // measure 101
0110
0000
0101
0000
,  // measure 102
1001
0000
1000
0001
0010
0001
1000
0000
,  // measure 103
1001
0000
0001
1000
0100
1000
0001
0000
,  // measure 104
1002
0000
0013
0100
,  // measure 105
2000
0000
3100
0010
,  // measure 106
0002
0000
0000
0000
0103
0000
0010
0100
,  // measure 107
0002
0000
0013
0100
,  // measure 108
1000
0000
0010
0000
0001
0000
0010
0000
1000
0000
0100
0000
,  // measure 109
0010
0000
0001
0000
1000
0000
0100
0000
0001
0000
0100
0000
,  // measure 110
1100
0000
2002
0000
,  // measure 111
3003
0000
0000
1000
0000
0000
1000
0000
0100
0000
0010
0000
,  // measure 112
0002
0000
0000
0000
0000
0003
0020
0000
0000
0000
0000
0000
,  // measure 113
0230
0000
2300
0000
,  // measure 114
3002
0100
2003
0100
,  // measure 115
3001
0000
1000
0100
0010
0001
1000
0100
,  // measure 116
0020
0001
0230
1000
,  // measure 117
0310
0000
0001
0100
0010
1000
0100
0010
,  // measure 118
0200
1000
0320
0001
,  // measure 119
0130
0000
1000
0100
0010
0001
1000
0010
,  // measure 120
0200
0001
0320
1000
,  // measure 121
0130
0001
0010
0100
1000
0001
0010
0000
,  // measure 122
1001
0000
0100
0001
,  // measure 123
0101
0000
0110
0000
,  // measure 124
1000
0100
0010
0001
,  // measure 125
0011
0000
0110
0000
,  // measure 126
1000
1010
0010
0110
,  // measure 127
0000
0000
0001
0100
0010
0000
0110
0000
,  // measure 128
1001
1000
0110
0100
,  // measure 129
0010
0000
1001
0000
1000
0100
0010
0000
,  // measure 130
1001
0000
0010
1001
,  // measure 131
0000
0100
1001
0010
,  // measure 132
1001
1001
0000
0100
,  // measure 133
0101
0001
1001
1000
,  // measure 134
1100
0010
0101
0101
,  // measure 135
1010
1010
0110
0110
,  // measure 136
1001
0000
0010
1000
0010
0000
0100
0000
,  // measure 137
1001
0000
0100
0000
1001
0000
0100
0001
,  // measure 138
0100
0000
0010
1000
0010
1000
0100
0000
,  // measure 139
1001
0000
0010
0001
0010
0000
0011
0000
,  // measure 140
0100
1000
0100
0000
1100
0000
0010
0001
,  // measure 141
0010
0001
1000
0100
0010
0001
1000
0010
,  // measure 142
1000
0000
0000
0000
0000
0000
0000
0100
,  // measure 143
0000
0000
0000
0000
0000
0000
0000
2002
,  // measure 144
0000
0000
0000
0000
,  // measure 145
0000
0000
0000
0000
,  // measure 146
0000
0000
0000
0000
,  // measure 147
0000
0000
0000
0000
,  // measure 148
0000
0000
0000
0000
0000
3003
0000
0000
;

//---------------dance-single - ----------------
#NOTES:
     dance-single:
     :
     Challenge:
     19:
     0.947,1.000,1.000,0.409,0.275:
0000
0000
1000
0000
1000
0100
0010
0001
,
1000
0000
0010
0100
0001
0010
0100
0000
,
0100
1000
0010
0100
0001
0000
0001
1000
,
0010
0100
0001
1000
0100
1000
0100
0010
,
0001
0010
0001
1000
0010
0100
0001
1000
,
0100
0001
0100
1000
0010
0001
0010
1000
,
0001
0000
0000
0010
0000
0000
0100
0000
0000
0010
0000
0000
0001
0000
1000
0000
0010
0000
1000
0000
0010
0000
0100
0000
,
0010
1000
0100
0010
0001
1000
0010
1000
,
0001
0010
1000
0010
0001
1000
0100
0010
,
0000
0000
2002
0000
,
0000
0000
0000
0000
,
3003
0000
0000
0000
,
0000
0000
0000
0000
,
1001
1100
0220
0330
,
1001
0011
0220
0330
,
1001
1010
0220
0000
,
0330
1001
0010
0100
,
1010
0000
0101
0000
,
1001
0001
0010
0100
,
1001
0010
1010
1000
,
1001
0001
0011
0010
,
0100
1000
0010
1000
0200
0000
0000
0000
,
0310
0011
0100
1000
,
2002
3003
0220
0330
,
0010
0000
0100
1000
0010
1000
0100
0000
,
0022
0033
2200
3300
,
1001
0000
1000
0100
0010
0001
0010
0100
,
1000
0000
1000
0010
1000
0000
0010
0100
,
0010
0000
0010
1000
0100
0010
0001
0010
,
0100
0000
1000
0010
1000
0000
1000
0010
,
0100
0001
1000
0100
0001
0100
1000
0000
,
0001
0010
0100
0000
0100
1000
0100
0000
,
1000
0010
0100
0000
0100
0001
0100
0000
,
1001
0000
0001
0010
1000
0010
0001
1000
,
0100
0000
0100
1000
0010
0100
0001
0000
,
1001
0000
1100
0000
0010
0001
1000
0010
,
1010
0000
1001
0000
0001
1000
0100
1000
,
1001
0000
0011
0000
0100
1000
0010
0100
,
0101
0000
1001
0000
1000
0100
0010
0100
,
1100
0000
0000
0000
0000
0000
1000
0000
0000
0001
0000
0000
1000
0000
0000
0000
0000
0000
0100
0000
1000
0000
0010
0000
,
0100
0000
0001
1000
0100
1000
0001
0100
,
1001
0000
1001
0000
1100
0000
1100
0000
0011
0000
0011
0000
,
1001
0000
1001
0000
1010
0000
0010
1000
0100
0010
0001
1000
,
0001
0000
1000
0100
1000
0000
0100
0010
,
0100
0000
0010
0001
0011
0000
1100
0000
,
1001
0000
0001
0010
0001
0000
0010
0100
,
0010
0000
0100
1000
1100
0000
0011
0000
,
1001
0000
0001
0100
0010
1000
0100
0000
,
1100
0000
1000
0010
0100
0001
0010
0000
,
0011
0000
0100
1000
0001
0010
0100
0000
,
0110
0000
0010
0100
1000
0001
0100
0000
,
0101
0000
0001
1000
0100
1000
0001
0000
,
1001
0000
1000
0010
0100
0010
1000
0000
,
1010
0000
0100
0001
0010
0100
0010
0000
,
0011
0000
0100
1000
0001
0100
0010
0000
,
0110
2002
0000
3003
,
0101
0101
0110
0110
,
1010
0000
0010
1000
0001
0000
0101
0000
,
1001
1001
1100
1100
,
1001
0000
0001
0010
0100
0000
0100
1000
,
0001
0000
0000
0000
0000
0000
0001
0000
0000
1000
0000
0000
0100
0000
0000
1000
0000
0000
0010
0000
0100
0000
0001
0000
,
0010
0000
0001
0010
0100
0000
0100
1000
,
0001
0000
0001
1000
0100
0010
0001
1000
,
0020
0000
0230
0001
,
0302
0000
1003
0000
,
0200
0000
2300
0001
,
3001
0010
0100
1000
0001
1000
0001
0100
0001
0010
0100
1000
,
0020
0000
0130
1010
,
1001
0000
0001
1000
0100
0000
0000
0000
,
0021
0000
0130
1100
,
1001
0000
0000
0000
0000
0000
1000
0000
0000
0001
0000
0000
0010
0000
0000
0000
0000
0000
0001
0000
1000
0000
0010
0000
,
2000
0000
3001
0011
,
1100
0000
1000
0001
0100
0001
0010
0100
,
2000
0000
3001
0000
,
0022
0033
1100
0011
,
2200
3300
1010
0101
,
1010
0000
0010
0100
0001
0000
0001
1000
,
0100
0000
0100
0010
0001
0010
0100
1000
,
0002
0000
0103
1010
,
0101
0000
0000
0000
0000
0000
0001
0000
0000
1000
0000
0000
0010
0000
0000
0000
0000
0000
1000
0000
0001
0000
0010
0000
,
0002
0000
0203
0000
,
0310
1000
0100
0011
,
0011
0100
1000
1010
,
1010
0100
0001
1001
,
1001
0100
0010
0011
,
0011
0100
1000
1010
,
1010
0100
0001
0110
,
0110
0000
1001
0001
,
1000
0000
0001
0010
1000
0010
0001
1000
,
1100
0000
0000
0010
0001
0010
0001
0010
0001
0010
0100
1000
,
0001
0000
0000
1000
0010
1000
0010
1000
0010
1000
0100
0010
,
0001
0000
0022
0033
,
0220
0330
2200
3300
,
1000
0001
0100
0001
1000
0010
0001
0010
,
1000
0100
0001
0100
1000
0001
0010
0100
,
1000
0001
1000
0010
0001
0010
1000
0001
,
0010
0100
1000
0010
0001
0010
1000
0100
,
0010
0000
0000
0001
0100
0001
0100
0001
0100
0001
1000
0100
,
0010
0000
0000
0100
1000
0100
1000
0100
1000
0010
0100
0001
,
0100
0000
2020
3030
,
0202
0303
2002
3003
,
1000
0010
1000
0010
0001
0010
0001
0010
,
1000
0001
1000
0001
0010
0100
1000
0000
,
1001
0000
0001
0100
0001
0000
0001
1000
,
0100
0000
0100
1000
0100
0000
0100
0010
,
0001
0000
0001
1000
0001
0000
0001
0100
,
0010
0000
0010
1000
0001
0000
0001
0100
,
0110
0000
0110
0000
1001
0000
1001
0000
0011
0000
0011
0000
,
1100
0000
1100
0000
1001
0000
1001
0000
0110
0000
0110
0000
,
1001
0000
0220
0000
,
0330
0000
0000
1000
0000
0000
0100
0000
0010
0000
0001
0000
,
1100
0000
0110
0000
,
0011
0000
1001
0000
,
1000
0010
1000
0001
0100
1000
0100
0001
,
1000
0000
0100
0000
0010
0000
0001
0000
0000
1000
0000
0000
0010
0000
1000
0000
0001
0000
0100
0000
0000
0001
0000
0000
,
0010
0000
0100
0000
1000
0000
0001
0000
0000
0100
0000
0000
0001
0000
0000
0010
0000
0000
0100
0000
0000
0010
0000
0000
,
0001
1000
0010
0100
0001
0100
0010
1000
,
0100
0000
0010
0000
0001
0000
1000
0000
0000
0010
0000
0000
0100
0000
0001
0000
0010
0000
0100
0000
0000
1000
0000
0000
,
0010
0000
0100
0000
0001
0000
0010
0000
0000
0100
0000
0000
0010
0000
0000
0001
0000
0000
0010
0000
0000
0100
0000
0000
,
0001
0000
1000
0000
0010
0000
0100
0000
0000
0001
0000
0000
0010
0000
0000
1000
0000
0000
0010
0000
0000
0001
0000
0000
,
0100
0000
0001
0000
0010
0000
0100
0000
0000
1000
0000
0000
0010
0000
1000
0000
0100
0000
0010
0000
0000
0001
0000
0000
,
0200
0000
0310
1001
,
1100
0010
0110
0001
,
0012
0000
0013
1001
,
1100
0010
0110
0001
,
0101
0110
1010
2002
,
3003
1100
0110
0011
,
2002
3003
0011
1001
,
1100
0011
0011
0011
,
0001
0100
0010
1000
0100
0000
2002
0000
,
0000
0000
3003
0000
1000
0010
0100
0001
,
0010
2002
0000
3003
,
1001
1010
1001
1010
,
1001
0011
1001
0011
,
0110
1001
0110
1001
,
1001
0000
0100
1000
0001
1000
0100
1000
,
0001
1000
0100
0001
0100
1000
0001
0100
,
0001
1000
0001
0100
0001
1000
0001
0100
,
1000
0100
0001
0100
0010
1000
0100
0010
,
0001
0010
1000
0010
0001
0100
1000
0100
,
0010
1000
0001
0010
1000
0010
0100
1000
,
0001
0000
0000
0000
0000
0000
0000
0100
,
0000
0000
0000
0000
0000
0000
0000
2002
,
0000
0000
0000
0000
,
0000
0000
0000
0000
,
0000
0000
0000
0000
,
0000
0000
0000
0000
,
0000
0000
0000
0000
0000
3003
0000
0000
;

//---------------dance-single - ----------------
#NOTES:
     dance-single:
     :
     Beginner:
     6:
     0.187,0.287,0.208,0.000,0.000:
0000
0000
0000
0000
,
0000
0000
0000
0000
,
0000
0000
0000
0000
,
0000
1000
0000
0100
,
0000
0010
0000
0000
,
0001
0000
0000
0000
,
0000
0000
1000
0000
,
0000
0000
0100
0000
,
0000
0000
0010
0000
,
0000
0000
1001
0000
,
0000
0000
0000
0000
,
0000
0000
0000
0000
,
0000
0000
0000
0000
,
1000
0000
0001
0000
,
1000
0000
0001
0000
,
1000
0000
0000
0000
,
0000
0000
0000
0000
,
0010
0000
0100
0000
,
0010
0000
0000
0000
,
1001
0000
0001
0000
,
1000
0000
0001
0000
,
1000
0000
0000
0000
,
0000
0000
0000
0000
,
0100
0000
1000
0000
,
0000
0000
0000
0000
,
0001
0000
0010
0000
,
0001
0000
0000
0000
,
1001
0000
0000
0000
,
0100
0000
0100
0000
,
0100
0000
0000
0000
,
0010
0000
0010
0000
,
0010
0000
0000
0000
,
0100
0000
0000
0000
,
0010
0000
0000
0000
,
1000
0000
0000
0000
,
1001
0000
0000
0000
,
1000
0000
0000
0000
,
1001
0000
0000
0000
,
0001
0000
0000
0000
,
0110
0000
0000
0000
,
0000
0000
0000
0000
,
1000
0000
0001
0000
,
1000
0000
0001
0000
,
1001
0000
0000
0000
,
0000
0000
0000
0000
,
0001
0000
0000
0000
,
0000
0000
0000
0000
,
1000
0000
0000
0000
,
0100
0000
0000
0000
,
0010
0000
0000
0000
,
0100
0000
0000
0000
,
1001
0000
0000
0000
,
1001
0000
0000
0000
,
0110
0000
0000
0000
,
0110
0000
0000
0000
,
1001
0000
0000
0000
,
1000
0000
0001
0000
,
1000
0000
0000
0000
,
0010
0000
0100
0000
,
0010
0000
0010
0000
,
0010
0000
0000
0000
,
1000
0000
1000
0000
,
1000
0000
0000
0000
,
0001
0000
0000
0000
,
0000
0000
0000
0000
,
0010
0000
0000
0000
,
0000
0000
0000
0000
,
1001
0000
1000
0000
,
1000
0000
0000
0000
,
0100
0000
0100
0000
,
0100
0000
0000
0000
,
0010
0000
0001
0000
,
0010
0000
0010
0000
,
0010
0000
0000
0000
,
1001
0000
0000
0000
,
0110
0000
0000
0000
,
1001
0000
0000
0000
,
0000
0000
0000
0000
,
1001
0000
0000
0000
,
0110
0000
0000
0000
,
0001
0000
1000
0000
,
0001
0000
0000
0000
,
0000
0000
0000
0000
,
0010
0000
0000
0000
,
0000
0000
0000
0000
,
0100
0000
0000
0000
,
0000
0000
0000
0000
,
1000
0000
0000
0000
,
0000
0000
0000
0000
,
1001
0000
0000
0000
,
1001
0000
0000
0000
,
1001
0000
0000
0000
,
0010
0000
0100
0000
,
0001
0000
1000
0000
,
0001
0000
1000
0000
,
0100
0000
1000
0000
,
0100
0000
0010
0000
,
1001
0000
0000
0000
,
1001
0000
0000
0000
,
1001
0000
0000
0000
,
1000
0000
0001
0000
,
0010
0000
0000
0000
,
0010
0000
0000
0000
,
0100
0000
0000
0000
,
0100
0000
0000
0000
,
1000
0000
0000
0000
,
1000
0000
0000
0000
,
0001
0000
0010
0000
,
0100
0000
1000
0000
,
1001
0000
0001
0000
,
0000
0000
0000
0000
,
1000
0000
0000
0000
,
0100
0000
0000
0000
,
0010
0000
0000
0000
,
0001
0000
0000
0000
,
0010
0000
0010
0000
,
0000
0000
0000
0000
,
0100
0000
0000
0000
,
1000
0000
0000
0000
,
0010
0000
0010
0000
,
0100
0000
0100
0000
,
0010
0000
0000
0000
,
0000
0000
0000
0000
,
0100
0000
0000
0000
,
0000
0000
0000
0000
,
0010
0000
0000
1001
,
0000
1000
0000
0000
,
1001
0000
0001
0000
,
0000
1001
0000
0000
,
0100
0000
0000
0110
,
0000
0000
0010
0000
,
0000
0110
0000
0000
,
0100
0000
0000
0001
,
0000
0000
1000
0000
,
0000
0100
0000
0000
,
1000
0000
0000
1000
,
0000
0000
0001
0000
,
0000
0001
0000
0000
,
0010
0000
0000
0100
,
0000
0000
1000
0001
,
1000
0001
1000
0001
,
1000
0000
0000
0000
0000
0000
0000
0100
,
0000
0000
0000
0000
0000
0000
0000
1001
;
