#TITLE:OMAKENO Stroke;
#SUBTITLE:;
#ARTIST:t+pazolite;
#TITLETRANSLIT:;
#SUBTITLETRANSLIT:;
#ARTISTTRANSLIT:;
#GENRE:;
#CREDIT:DigiMindAxel;
#BANNER:OMAKENO Stroke.png;
#BACKGROUND:OMAKENO Stroke-bg.png;
#LYRICSPATH:;
#CDTITLE:GROOVE COASTER.png;
#MUSIC:OMAKENO Stroke.ogg;
#OFFSET:-6.740000;
#SAMPLESTART:34.720001;
#SAMPLELENGTH:12.000000;
#SELECTABLE:YES;
#BPMS:0.000000=240.000000
,48.000000=120.000000
,80.000000=240.000000
,144.000000=120.000000
,176.000000=240.000000
,336.000000=120.000000
;
#STOPS:
;
#BGCHANGES:;
#KEYSOUNDS:;
#ATTACKS:;

//---------------dance-single - ----------------
#NOTES:
     dance-single:
     :
     Easy:
     9:
     0.351877,0.526869,0.068421,0.153946,0.000000,288.000000,280.000000,8.000000,18.000000,0.000000,0.000000,0.351877,0.526869,0.068421,0.153946,0.000000,288.000000,280.000000,8.000000,18.000000,0.000000,0.000000:
// measure 0
0001
0001
0000
0000
,  // measure 1
1000
1000
0000
0000
,  // measure 2
0001
0001
0010
0100
,  // measure 3
2000
0000
0000
0000
,  // measure 4
3001
0100
0001
0100
,  // measure 5
0001
0000
0010
0000
,  // measure 6
0100
1000
0100
1000
,  // measure 7
0001
0000
0100
0000
,  // measure 8
0010
0000
0000
0010
0000
0000
0010
0000
,  // measure 9
0000
0010
0000
0000
0010
0000
0000
0010
,  // measure 10
0000
1000
0100
0010
,  // measure 11
0001
0000
0000
0000
,  // measure 12
0002
0000
0000
0000
,  // measure 13
0023
0000
0000
0130
,  // measure 14
1001
1000
0001
1000
,  // measure 15
0100
0010
0100
0010
,  // measure 16
0001
0100
0010
1000
,  // measure 17
0001
1000
0001
0000
1000
0001
1000
0000
,  // measure 18
0100
1000
0100
0000
0010
0001
0010
0000
,  // measure 19
0001
1000
0001
1000
0002
0000
0000
0000
,  // measure 20
0013
0001
0010
0001
,  // measure 21
0100
0010
0100
0010
,  // measure 22
1000
0100
1000
0100
,  // measure 23
0010
0001
1000
0000
,  // measure 24
0010
1000
0010
1000
,  // measure 25
0001
0010
0001
0010
,  // measure 26
0100
0010
0100
0010
,  // measure 27
0200
0000
0000
0000
,  // measure 28
1300
0001
1000
0001
,  // measure 29
0100
0010
0100
0010
,  // measure 30
1000
0100
1000
0100
,  // measure 31
0010
0001
0010
0001
,  // measure 32
0100
0000
0000
0100
0000
0000
0100
0000
,  // measure 33
0000
0100
0000
0000
0100
0000
0000
0000
,  // measure 34
0001
0010
0100
1000
,  // measure 35
0002
0000
0000
0000
,  // measure 36
0103
0000
0010
0000
,  // measure 37
1000
0000
0100
0000
,  // measure 38
0010
0000
0001
1000
,  // measure 39
0001
0000
0000
0000
,  // measure 40
1000
0100
1000
0100
,  // measure 41
0010
0001
0100
0010
,  // measure 42
0100
0100
0001
0001
,  // measure 43
0010
0100
1000
0000
,  // measure 44
2002
0000
0000
0000
,  // measure 45
3003
0000
0001
0000
0000
0001
0000
0000
,  // measure 46
2002
0000
0000
0000
,  // measure 47
3003
0000
1000
0000
0000
1000
0000
0000
,  // measure 48
2002
0000
0000
3003
,  // measure 49
0220
0000
0000
0330
,  // measure 50
1001
0000
1001
0000
,  // measure 51
1001
0000
0000
0000
,  // measure 52
0001
0100
0001
0100
,  // measure 53
0001
1000
0001
1000
,  // measure 54
0100
0010
0100
0010
,  // measure 55
0001
0100
0010
0000
,  // measure 56
0100
0001
0100
0001
,  // measure 57
1000
0100
1000
0100
,  // measure 58
0010
0001
0010
0001
,  // measure 59
0010
0100
1000
0000
,  // measure 60
0001
0100
0001
0100
,  // measure 61
0010
1000
0010
1000
,  // measure 62
0100
0010
0100
0010
,  // measure 63
0001
0010
0100
0000
,  // measure 64
0010
0001
0010
0001
,  // measure 65
0100
0010
0100
0010
,  // measure 66
1000
0100
0010
0001
,  // measure 67
2000
0000
3001
0000
,  // measure 68
1000
0100
1000
0100
,  // measure 69
0010
0001
0010
0001
,  // measure 70
0100
0010
0100
0010
,  // measure 71
1000
0001
1000
0001
,  // measure 72
0010
0100
1000
0100
,  // measure 73
0010
0001
0010
0100
,  // measure 74
1000
0010
1000
0010
,  // measure 75
0200
0000
0300
0000
,  // measure 76
0001
1000
0001
1000
,  // measure 77
0100
1000
0100
1000
,  // measure 78
0001
0100
0001
0100
,  // measure 79
0010
1000
0010
1000
,  // measure 80
0001
0010
0100
1000
,  // measure 81
0100
0010
0001
0100
,  // measure 82
0010
1000
0010
0100
,  // measure 83
0002
0000
0000
0000
,  // measure 84
1003
0000
0100
0010
,  // measure 85
0001
0000
0000
0100
0010
0000
0100
0000
,  // measure 86
0001
0000
0000
0010
0100
0000
1000
0000
,  // measure 87
0200
0000
0000
0000
,  // measure 88
0000
0300
0000
0000
0000
0000
0000
0000
0000
0000
0000
0000
0000
0000
0000
0000
0000
0000
0000
0000
0000
0000
0000
0000
0000
0000
0000
0000
0000
0000
0000
0000
0000
0000
0000
0000
0000
0000
0000
0000
0000
0000
0000
0000
0000
0000
0000
0000
0000
0000
0000
0000
0000
0000
0000
0000
0000
0000
0000
0000
0000
0000
0000
0000
0000
0000
0000
0000
0000
0000
0000
0000
0000
0000
0000
0000
0000
0000
0000
0000
0000
0000
0000
0000
0000
0000
0000
0000
0000
0000
0000
0000
0000
0000
0000
0000
0000
0000
0000
0000
0000
0000
0000
0000
0000
0000
0000
0000
0000
0000
0000
0000
0000
0000
0000
0000
0000
0000
0000
0000
0000
0000
0000
0000
0000
0000
0000
0000
0000
0000
0000
0000
0000
0000
0000
0000
0000
0000
0000
0000
0000
0000
0000
0000
0000
0000
0000
0000
0000
0000
0000
0000
0000
0000
0000
0000
0000
0000
0000
0000
0000
0000
0000
0000
0000
0000
0000
0000
0000
0000
0000
0000
0000
0000
0000
0000
0000
0000
0000
0000
0000
0000
0000
0000
0000
0000
0000
0000
0000
0000
0000
0000
;

//---------------dance-single - ----------------
#NOTES:
     dance-single:
     :
     Medium:
     13:
     0.553473,1.016044,0.350655,0.239472,0.085526,453.000000,412.000000,41.000000,28.000000,0.000000,0.000000,0.553473,1.016044,0.350655,0.239472,0.085526,453.000000,412.000000,41.000000,28.000000,0.000000,0.000000:
// measure 0
1000
0001
1000
0000
0000
0000
0000
0000
,  // measure 1
0100
1000
0100
0000
0000
0000
0000
0000
,  // measure 2
0010
0001
0010
0001
1000
0010
1000
0010
,  // measure 3
0200
0000
0000
0301
,  // measure 4
1000
0000
0001
0010
0000
0001
1000
0000
,  // measure 5
1010
0000
0010
0100
0010
0100
0001
0000
,  // measure 6
1000
0000
0100
1000
0100
0000
0010
0001
,  // measure 7
1000
0100
0010
0010
,  // measure 8
1001
0000
0000
0101
0000
0000
1001
0000
,  // measure 9
0000
1010
0000
0000
1001
0000
0000
1001
,  // measure 10
0000
0001
1000
0100
1000
0100
1000
0200
,  // measure 11
0000
0000
0000
0300
,  // measure 12
0020
0001
0001
0031
,  // measure 13
0200
0010
0010
0310
,  // measure 14
1001
0000
0000
1100
0000
0000
1001
0000
0000
0000
0101
0000
0100
0010
0100
0000
,  // measure 15
1001
0000
0000
0011
0000
0000
1001
0000
0000
0000
1010
0000
1000
0001
1000
0001
,  // measure 16
0010
0000
0000
0011
0000
0000
1001
0000
0000
0000
1100
0000
0100
1000
0100
1000
,  // measure 17
0001
0000
0100
0010
0100
0000
0001
0000
1000
0000
1100
0000
0100
1000
0100
1000
,  // measure 18
0001
0000
0010
0100
0010
0000
0001
0000
1001
0000
1010
0000
0010
1000
0010
1000
,  // measure 19
0001
0000
0010
0001
1000
0000
0100
0000
0020
0000
0000
0000
0000
0000
0000
0000
,  // measure 20
0031
0000
1000
0100
0000
1000
0100
0000
,  // measure 21
0010
0001
0000
1000
0010
0100
0010
0000
,  // measure 22
1000
0000
0001
0100
0000
0010
1000
0000
,  // measure 23
0001
0100
0001
1000
0100
0000
0000
0000
,  // measure 24
1000
0000
0100
1000
0000
0001
0010
0000
,  // measure 25
0100
0010
0000
0001
0100
0010
0100
0000
,  // measure 26
0001
0000
1000
0100
0000
0010
0100
0000
,  // measure 27
1000
1000
0010
0010
,  // measure 28
1001
0000
0001
0100
0000
0010
0100
0000
,  // measure 29
0001
1000
0000
0100
0010
0001
0010
0000
,  // measure 30
0100
0000
1000
0010
0000
0100
0001
0000
,  // measure 31
1000
0100
1000
0000
0100
1000
0001
0000
,  // measure 32
0011
0000
0000
1001
0000
0000
1100
0000
,  // measure 33
0000
1001
0000
0000
0011
0000
0100
0000
,  // measure 34
1000
0000
0001
0100
0000
0001
1000
0200
,  // measure 35
0000
0000
0000
0000
,  // measure 36
1300
0000
0000
0001
1000
0000
0100
0000
,  // measure 37
0010
0000
0000
0001
0100
0000
0010
1000
,  // measure 38
0001
0000
0000
1000
0001
0000
0010
0000
,  // measure 39
0100
0000
0000
0000
,  // measure 40
1000
0000
0000
1000
0000
0000
0020
0000
0000
0000
0100
0000
0130
0000
0001
0000
,  // measure 41
0010
0000
0000
0010
0000
0000
0200
0000
0000
0000
1000
0000
1300
0000
0000
0000
,  // measure 42
0002
0000
0000
0203
0000
0000
0310
0000
1000
0000
0100
0000
0010
0001
0000
2000
,  // measure 43
0000
0010
0010
3010
,  // measure 44
2001
0000
0000
0001
0000
0000
3002
0000
,  // measure 45
0000
0000
0010
0000
0000
0013
0000
0000
,  // measure 46
1002
0000
0000
1000
0000
0000
2003
0000
,  // measure 47
0000
0000
0100
0000
0000
3100
0000
0000
,  // measure 48
1002
0000
0000
1000
0000
0000
1003
0000
,  // measure 49
0120
0000
0100
0000
,  // measure 50
0130
0000
0110
0000
,  // measure 51
2002
0000
0000
3003
,  // measure 52
1000
0000
0001
1000
0000
0100
0000
0001
,  // measure 53
0000
0100
0000
1000
0010
0100
0010
0100
,  // measure 54
0001
0000
1000
0100
0000
0010
0100
0000
,  // measure 55
1000
1000
0001
0001
,  // measure 56
0110
0000
0100
0000
0010
1000
0100
1000
,  // measure 57
0010
0000
0100
0000
0001
1000
0100
0000
,  // measure 58
1000
0001
0000
0010
0000
1000
0000
0010
,  // measure 59
0002
0000
0000
0003
,  // measure 60
1001
0000
1000
0001
1000
0001
0000
0010
,  // measure 61
0000
0100
0000
1000
0000
0010
0100
0010
,  // measure 62
1000
0000
0001
1000
0001
0000
1001
0000
,  // measure 63
1000
1000
0010
0010
,  // measure 64
1001
0000
1000
0001
1000
0001
1000
0100
,  // measure 65
0010
0011
0100
1000
,  // measure 66
0100
1000
0001
0000
0100
0001
1000
0000
,  // measure 67
0200
0000
1000
1300
,  // measure 68
1001
0000
0001
0100
0000
0001
1000
0000
,  // measure 69
0100
1000
0100
0000
0010
0100
1000
0000
,  // measure 70
1001
0000
1000
0100
0000
1000
0001
0000
,  // measure 71
0100
0001
0010
0000
0100
0010
0100
0010
,  // measure 72
0001
0000
1000
0001
0000
0100
0001
0000
,  // measure 73
1000
0000
0100
0000
0010
0100
0010
0100
,  // measure 74
1000
0001
0100
0001
,  // measure 75
2000
0000
0000
3001
,  // measure 76
1001
0000
1000
0010
0000
0100
0001
0000
,  // measure 77
1000
0100
1000
0000
0001
0010
0001
0000
,  // measure 78
0010
0000
0100
1000
0000
0001
0010
0000
,  // measure 79
0100
0010
0100
0000
1000
0010
0100
0000
,  // measure 80
0001
1000
0001
1000
0001
1000
0001
1000
,  // measure 81
0001
0010
0001
0010
0100
1000
0100
1000
,  // measure 82
0002
0203
0320
2030
,  // measure 83
3002
0000
0000
0000
,  // measure 84
1003
0000
0000
0001
0010
0000
0100
0000
,  // measure 85
1000
0000
0000
0001
1000
0000
0010
0100
,  // measure 86
0001
0000
0000
1000
0001
0000
0100
0000
,  // measure 87
0020
0000
0000
0000
,  // measure 88
0030
0000
0000
0000
;

//---------------dance-single - ----------------
#NOTES:
     dance-single:
     :
     Hard:
     15:
     0.763622,1.241832,0.513154,0.384865,0.299340,625.000000,565.000000,60.000000,45.000000,0.000000,0.000000,0.763622,1.241832,0.513154,0.384865,0.299340,625.000000,565.000000,60.000000,45.000000,0.000000,0.000000:
// measure 0
1000
0010
1000
0000
0001
0000
0001
0000
,  // measure 1
0010
0100
0010
0000
0100
0000
0100
0000
,  // measure 2
1000
0010
1000
0010
0100
0001
0100
0001
,  // measure 3
2000
0000
0010
3010
,  // measure 4
1000
0010
1000
0001
0010
0001
1000
0000
,  // measure 5
1001
0000
0000
0000
0001
0000
0100
0010
0000
0000
0100
0010
0000
0000
1000
0000
,  // measure 6
0010
0100
1000
0100
0010
1000
0001
0100
,  // measure 7
0001
0100
0010
0000
0110
0000
0110
0000
,  // measure 8
1002
0000
0010
0023
0000
0100
0230
0000
,  // measure 9
1000
1300
0010
0100
0002
0000
1000
1003
,  // measure 10
0000
0001
0010
0100
1000
0001
0020
0200
,  // measure 11
0000
0000
0000
0330
,  // measure 12
0010
0000
0000
0010
0000
0000
0001
0100
0000
0001
0000
1000
0000
0000
0100
0000
,  // measure 13
0010
0000
0000
0010
0000
0000
0001
0010
0000
0001
0000
1000
0010
0100
0010
0100
,  // measure 14
0001
0010
0100
1000
0001
0000
0001
0000
0100
0000
0100
0000
0001
1000
0010
1000
,  // measure 15
0001
0010
0100
1000
0001
0000
0001
0000
0100
0000
0100
0000
0001
1000
0010
1000
,  // measure 16
0001
0010
0100
0010
0001
0000
0011
0000
0110
0000
0100
0000
1000
0010
0100
0001
,  // measure 17
1000
0100
0010
0100
1000
0000
1001
0000
0101
0000
0001
0000
0100
0010
1000
0100
,  // measure 18
1100
0000
0010
0001
0101
0000
0010
1000
1100
0000
0010
0001
0010
0100
1000
0001
,  // measure 19
1001
0011
1100
0011
2002
0000
0000
3003
,  // measure 20
1000
0010
0100
0001
0000
0100
0001
0000
,  // measure 21
1000
0020
0000
0130
0001
0010
1000
0010
,  // measure 22
0001
0010
0100
1000
0000
0100
1000
0000
,  // measure 23
0001
0010
1000
0010
0001
0000
1001
0000
,  // measure 24
1000
0010
0100
0001
0000
0100
0001
0000
,  // measure 25
0010
0200
0000
0310
0001
0100
1000
0100
,  // measure 26
0001
0010
0100
1000
0000
0100
1000
0000
,  // measure 27
0110
0110
1001
1001
,  // measure 28
1000
0010
0100
0001
0000
0100
0001
0000
,  // measure 29
0010
0200
0000
1300
0001
0100
1000
0100
,  // measure 30
0001
0010
0100
1000
0000
0100
1000
0000
,  // measure 31
0001
0100
1000
0100
0001
0100
0010
1000
,  // measure 32
1010
0000
0010
0110
0000
0100
0101
0000
,  // measure 33
0001
1001
0000
1000
1100
0000
0011
0000
,  // measure 34
1001
0100
0010
0001
0100
1000
0100
0002
,  // measure 35
0000
0100
0100
0103
,  // measure 36
2001
0000
0000
3001
0200
0000
0320
0000
,  // measure 37
2030
0000
0000
3100
0020
0000
0031
0100
,  // measure 38
0020
0000
0000
0130
0002
0000
0023
0000
,  // measure 39
0230
0000
0000
0300
,  // measure 40
1000
0000
0010
0100
0000
0010
0100
0001
0000
0001
0000
0001
0000
0100
0010
1000
,  // measure 41
0100
0000
0010
0001
0000
0010
0001
1000
0000
1000
0000
1000
0000
0010
0100
0001
,  // measure 42
0010
0000
0100
1000
0000
0100
1000
0000
0001
0100
0001
0100
0010
1000
0010
1000
,  // measure 43
0001
0010
0100
1000
0010
0000
0010
0000
1000
0100
0010
0001
0100
0000
0100
0000
,  // measure 44
1001
0000
0000
0011
0000
0000
2100
0000
,  // measure 45
0000
0000
0001
0000
0000
3001
0000
0000
,  // measure 46
1001
0000
0000
1010
0000
0000
0102
0000
,  // measure 47
0000
0000
1000
0000
0000
1003
0000
0000
,  // measure 48
1100
0000
0000
0110
0000
0000
0011
0000
,  // measure 49
1001
0000
1000
0000
0001
0100
0000
0001
,  // measure 50
1001
0000
1001
0000
,  // measure 51
0220
0000
0000
0330
,  // measure 52
1000
0010
1000
0001
0010
0001
1000
0010
,  // measure 53
1000
0000
0001
0000
0100
0000
1000
0000
0100
0000
0001
1000
0001
0000
0010
0000
,  // measure 54
0100
1000
0100
0010
0002
0000
1003
0010
,  // measure 55
0110
0110
1001
1001
,  // measure 56
0001
0010
0001
1000
0010
1000
0001
0010
,  // measure 57
0001
0000
0100
0000
1000
0000
0100
0000
0001
0000
1000
0001
1000
0000
0100
0000
,  // measure 58
0010
0101
0000
0110
0000
0101
0000
0110
,  // measure 59
2020
0000
0000
3030
,  // measure 60
0010
0100
0001
0010
1000
0010
0001
0010
,  // measure 61
0100
0000
1000
0000
0010
0000
0001
0000
0010
0000
1000
0001
1000
0000
0010
0000
,  // measure 62
0100
0001
0010
0100
2000
0000
3001
0010
,  // measure 63
0011
0011
1100
1100
,  // measure 64
0100
0010
0100
1000
0010
0001
0010
1000
,  // measure 65
0100
0000
0010
0000
0200
0000
0000
0000
0310
0000
0001
1000
0001
0000
0010
0000
,  // measure 66
1000
0010
0001
0100
0010
1000
0001
0010
,  // measure 67
0200
0000
0310
0011
,  // measure 68
0100
1000
0001
0100
0000
0001
1000
0010
,  // measure 69
0001
0000
0010
0000
1000
0000
0100
0000
0010
0000
0001
0100
0001
0000
0100
0000
,  // measure 70
0010
1000
0100
0010
0000
0001
1000
0100
,  // measure 71
0001
0100
1000
0001
0011
0000
0011
0000
,  // measure 72
0100
1000
0010
0100
0000
0001
0100
0010
,  // measure 73
1000
0000
0001
0000
0010
0000
1000
0000
0010
0000
0001
1000
0001
0000
0100
0000
,  // measure 74
0010
1000
0100
1000
0001
1000
0100
1000
,  // measure 75
2002
0000
0000
3003
,  // measure 76
1000
0010
0100
0001
0000
1000
0100
1000
,  // measure 77
0010
0000
0001
0000
0010
0000
1000
0000
0100
0000
0010
0100
0010
0000
0001
0000
,  // measure 78
0100
0001
1000
0100
0000
1000
0001
0010
,  // measure 79
1000
0010
0001
1000
0020
0000
0130
0000
,  // measure 80
0001
0010
1000
0010
0001
0100
1000
0100
,  // measure 81
0010
0000
1000
0000
0100
0000
0010
0000
0001
0000
1000
0010
1000
0000
0001
0000
,  // measure 82
0010
0001
0010
0000
0100
0010
0100
0000
1000
0100
1000
0000
0010
0100
0010
0100
,  // measure 83
0020
0100
0100
0130
,  // measure 84
1002
0000
0000
1003
0200
0000
0320
0000
,  // measure 85
0032
0000
0000
1003
0020
0000
0130
0001
,  // measure 86
2000
0000
0000
3100
0020
0000
0032
0000
,  // measure 87
2003
0000
0000
0000
,  // measure 88
3000
0000
0000
0000
;

//---------------dance-single - ----------------
#NOTES:
     dance-single:
     :
     Beginner:
     3:
     0.167386,0.297629,0.059868,0.000000,0.000000,137.000000,130.000000,7.000000,0.000000,0.000000,0.000000,0.167386,0.297629,0.059868,0.000000,0.000000,137.000000,130.000000,7.000000,0.000000,0.000000,0.000000:
// measure 0
1000
0000
0000
0000
,  // measure 1
0001
0000
0000
0000
,  // measure 2
1000
0000
0000
0000
,  // measure 3
0001
0000
0000
0000
,  // measure 4
0010
0000
0010
0000
,  // measure 5
0010
0000
0000
0000
,  // measure 6
0100
0000
0100
0000
,  // measure 7
0100
0000
0000
0000
,  // measure 8
0010
0000
0001
0000
,  // measure 9
0010
0000
0000
0000
,  // measure 10
0100
0000
1000
0000
,  // measure 11
0100
0000
0000
0000
,  // measure 12
0010
0000
0000
0000
,  // measure 13
0000
0000
0000
0000
,  // measure 14
1001
0000
0000
0000
,  // measure 15
1001
0000
0000
0000
,  // measure 16
0110
0000
0000
0000
,  // measure 17
0110
0000
0000
0000
,  // measure 18
0010
0010
0010
0010
,  // measure 19
0010
0010
0010
0000
,  // measure 20
1000
0000
0001
0000
,  // measure 21
1000
0000
0000
0000
,  // measure 22
0100
0000
1000
0000
,  // measure 23
0100
0000
0000
0000
,  // measure 24
0010
0000
0001
0000
,  // measure 25
0010
0000
0000
0000
,  // measure 26
0100
0000
1000
0000
,  // measure 27
0100
0000
0000
0000
,  // measure 28
1000
0000
0001
0000
,  // measure 29
1000
0000
0001
0000
,  // measure 30
1000
0000
0001
0000
,  // measure 31
0100
0000
0000
0000
,  // measure 32
0001
0000
1000
0000
,  // measure 33
0001
0000
1000
0000
,  // measure 34
0010
0000
0000
0000
,  // measure 35
0000
0000
0000
0000
,  // measure 36
1001
0000
0000
0000
,  // measure 37
0000
0000
0000
0000
,  // measure 38
0000
0000
0000
0000
,  // measure 39
0000
0000
0000
0000
,  // measure 40
0001
0000
0000
0000
,  // measure 41
0100
0000
0000
0000
,  // measure 42
0001
0000
0000
0000
,  // measure 43
1000
0000
0000
0000
,  // measure 44
0100
0000
0100
0000
,  // measure 45
0100
0000
0000
0000
,  // measure 46
0010
0000
0010
0000
,  // measure 47
0010
0000
0000
0000
,  // measure 48
0001
0000
1000
0000
,  // measure 49
0001
0000
1000
0000
,  // measure 50
0100
0000
0000
0000
,  // measure 51
1001
0000
0000
0000
,  // measure 52
0001
0000
0001
0000
,  // measure 53
0001
0000
0001
0000
,  // measure 54
0100
0000
0100
0000
,  // measure 55
0100
0000
0100
0000
,  // measure 56
0010
0000
0010
0000
,  // measure 57
0010
0000
0010
0000
,  // measure 58
1000
0000
1000
0000
,  // measure 59
1000
0000
0000
0000
,  // measure 60
0001
0000
0100
0000
,  // measure 61
0001
0000
0100
0000
,  // measure 62
0010
0000
1000
0000
,  // measure 63
0010
0000
0000
0000
,  // measure 64
1000
0000
0001
0000
,  // measure 65
1000
0000
0001
0000
,  // measure 66
0010
0000
0001
0000
,  // measure 67
0010
0000
0000
0000
,  // measure 68
0100
0000
1000
0000
,  // measure 69
0100
0000
1000
0000
,  // measure 70
0001
0000
1000
0000
,  // measure 71
0001
0000
0000
0000
,  // measure 72
0010
0000
0001
0000
,  // measure 73
0010
0000
0001
0000
,  // measure 74
0100
0000
0010
0000
,  // measure 75
0100
0000
0000
0000
,  // measure 76
0001
0000
1000
0000
,  // measure 77
0001
0000
1000
0000
,  // measure 78
0100
0000
1000
0000
,  // measure 79
0100
0000
0000
0000
,  // measure 80
0010
0000
0001
0000
,  // measure 81
0010
0000
0001
0000
,  // measure 82
0100
0000
0100
0000
,  // measure 83
0100
0000
0000
0000
,  // measure 84
0110
0000
0000
0000
,  // measure 85
0010
0000
0000
0000
,  // measure 86
1000
0000
0000
0000
,  // measure 87
0001
0000
0000
0000
;
