#VERSION:0.83;
#TITLE:Night! Night! Night!;
#SUBTITLE:;
#ARTIST:MM;
#TITLETRANSLIT:;
#SUBTITLETRANSLIT:;
#ARTISTTRANSLIT:;
#GENRE:;
#ORIGIN:;
#CREDIT:DigiMindAxel;
#BANNER:Night! Night! Night!.png;
#BACKGROUND:Night! Night! Night!-bg.png;
#PREVIEWVID:;
#JACKET:Night! Night! Night!-jacket.png;
#CDIMAGE:;
#DISCIMAGE:;
#LYRICSPATH:Night! Night! Night!.lrc;
#CDTITLE:beatmania IIDX.png;
#MUSIC:Night! Night! Night!.ogg;
#OFFSET:-8.180000;
#SAMPLESTART:39.043999;
#SAMPLELENGTH:12.000000;
#SELECTABLE:YES;
#BPMS:0.000=165.000;
#STOPS:;
#DELAYS:;
#WARPS:;
#TIMESIGNATURES:0.000=4=4;
#TICKCOUNTS:0.000=4;
#COMBOS:0.000=1;
#SPEEDS:0.000=1.000=0.000=0;
#SCROLLS:0.000=1.000;
#FAKES:;
#LABELS:0.000=Song Start;
#BGCHANGES:;
#KEYSOUNDS:;
#ATTACKS:
;

//---------------dance-single - ----------------
#NOTEDATA:;
#CHARTNAME:;
#STEPSTYPE:dance-single;
#DESCRIPTION:;
#CHARTSTYLE:;
#DIFFICULTY:Easy;
#METER:6;
#RADARVALUES:0.254467,0.306156,0.047713,0.103377,0.000000,224.000000,218.000000,6.000000,13.000000,0.000000,0.000000,0.000000,0.000000,0.000000,0.254467,0.306156,0.047713,0.103377,0.000000,224.000000,218.000000,6.000000,13.000000,0.000000,0.000000,0.000000,0.000000,0.000000;
#CREDIT:;
#NOTES:
// measure 0
1000
0100
0000
0100
,  // measure 1
0000
0100
0000
0100
,  // measure 2
0010
0010
0010
0010
,  // measure 3
0001
0010
0001
0010
,  // measure 4
0200
0000
0000
0000
,  // measure 5
0310
0001
0010
0000
,  // measure 6
0001
1000
0001
0000
,  // measure 7
1000
0100
0010
0001
,  // measure 8
1000
0010
1000
0000
,  // measure 9
0001
1000
0001
0000
,  // measure 10
1000
0100
1000
0000
,  // measure 11
0001
0010
0100
1000
,  // measure 12
0010
0100
0010
0100
,  // measure 13
2002
0000
0000
3003
,  // measure 14
1000
1000
1000
0000
,  // measure 15
0100
0100
0100
0000
,  // measure 16
1000
1000
1000
0000
,  // measure 17
0010
0010
0010
0000
,  // measure 18
0100
0001
1000
0000
,  // measure 19
0010
1000
0001
0000
,  // measure 20
0010
0001
0010
0100
,  // measure 21
1000
0000
0000
0000
,  // measure 22
0001
1000
0010
0000
,  // measure 23
1000
0100
0010
0001
,  // measure 24
1000
0100
0010
0000
,  // measure 25
0100
1000
0001
1000
,  // measure 26
0100
0010
0001
0000
,  // measure 27
0100
0010
0100
0001
,  // measure 28
1000
0100
0010
0000
,  // measure 29
0100
1000
0100
1000
,  // measure 30
0002
0000
0000
0000
,  // measure 31
2003
0000
0000
0000
,  // measure 32
3200
0000
0000
0000
,  // measure 33
0310
0001
0010
0001
,  // measure 34
0200
0000
0000
0000
,  // measure 35
0320
0000
0000
0000
,  // measure 36
2030
0000
0000
0000
,  // measure 37
3100
0010
0100
0010
,  // measure 38
0001
0000
0001
0000
,  // measure 39
1000
0000
1000
0000
,  // measure 40
0100
0000
0100
0000
,  // measure 41
0010
0000
0010
0000
,  // measure 42
0001
0001
0001
0000
,  // measure 43
1000
1000
1000
0000
,  // measure 44
0100
0100
0100
0000
,  // measure 45
0010
0010
0010
0010
,  // measure 46
0001
1000
0100
0000
,  // measure 47
1000
0100
0010
0001
,  // measure 48
1000
0010
0100
0000
,  // measure 49
0001
0100
0001
0100
,  // measure 50
0001
0010
0100
0000
,  // measure 51
0010
0001
0010
0001
,  // measure 52
0100
0010
1000
0000
,  // measure 53
0010
1000
0010
1000
,  // measure 54
0001
0000
0000
0000
,  // measure 55
1000
0000
0000
0000
,  // measure 56
0001
0000
1000
0000
,  // measure 57
0001
0000
0000
0000
,  // measure 58
2002
0000
0000
0000
,  // measure 59
0000
0000
3003
0000
,  // measure 60
1000
0100
0010
0000
,  // measure 61
0100
1000
0100
1000
,  // measure 62
0010
0100
0001
0000
,  // measure 63
0100
0001
0100
0001
,  // measure 64
0010
0100
1000
0000
,  // measure 65
0100
1000
0100
1000
,  // measure 66
0010
0010
0010
0010
,  // measure 67
0100
0001
0100
0001
,  // measure 68
1000
0100
0010
0001
,  // measure 69
1000
0100
1000
0100
,  // measure 70
0000
1001
1000
0001
,  // measure 71
0010
0100
0010
0001
,  // measure 72
0100
0010
0100
0010
,  // measure 73
1000
0100
0010
0001
,  // measure 74
1000
0000
0110
0000
,  // measure 75
1001
0000
0000
0000
0000
0220
0000
0000
,  // measure 76
0000
0000
0000
0000
,  // measure 77
0330
0000
0000
0000
;

//---------------dance-single - ----------------
#NOTEDATA:;
#CHARTNAME:;
#STEPSTYPE:dance-single;
#DESCRIPTION:;
#CHARTSTYLE:;
#DIFFICULTY:Medium;
#METER:12;
#RADARVALUES:0.525974,0.520465,0.755449,0.055665,0.011928,463.000000,368.000000,95.000000,7.000000,0.000000,0.000000,0.000000,0.000000,0.000000,0.525974,0.520465,0.755449,0.055665,0.011928,463.000000,368.000000,95.000000,7.000000,0.000000,0.000000,0.000000,0.000000,0.000000;
#CREDIT:;
#NOTES:
// measure 0
0100
1001
0000
1001
,  // measure 1
0000
0011
0000
0011
,  // measure 2
0100
1001
0100
1001
,  // measure 3
0110
0000
0110
0000
0010
0100
0010
0100
,  // measure 4
0002
0000
0000
0000
,  // measure 5
1003
0100
1000
0000
0001
0100
0010
0000
,  // measure 6
1000
0010
1000
0000
0001
0010
0100
0000
,  // measure 7
0010
0001
0010
0001
1000
0010
0000
0000
,  // measure 8
0100
0010
0100
0000
0001
0010
0100
0000
,  // measure 9
0010
0001
0010
0000
0100
1000
0010
0000
,  // measure 10
0100
0010
0100
0000
0001
0010
0100
0000
,  // measure 11
0010
0001
0010
0001
1000
0010
0000
0000
,  // measure 12
1001
0000
1001
0000
0010
0100
0010
0000
,  // measure 13
0220
0000
0000
0330
,  // measure 14
1000
0100
0001
0100
,  // measure 15
1000
0010
0001
0010
,  // measure 16
1000
1000
0001
0001
,  // measure 17
0100
0000
0100
0000
0100
0010
0100
0000
,  // measure 18
0011
0100
1010
1010
,  // measure 19
1000
0100
0001
0100
,  // measure 20
1000
0010
0011
0011
,  // measure 21
1000
0110
0110
0110
,  // measure 22
1001
0000
0101
0000
0010
1000
0100
0000
,  // measure 23
0011
0000
0110
0000
0100
1000
0010
0000
,  // measure 24
0100
0001
0100
0001
1000
0100
0010
0000
,  // measure 25
1001
0000
1001
0000
0100
0010
0100
0010
,  // measure 26
1000
0000
1001
0000
0011
0000
0100
1000
,  // measure 27
0001
1001
0110
1001
,  // measure 28
1000
0100
1000
0001
1000
0100
1000
0000
,  // measure 29
0110
0110
0110
0110
,  // measure 30
0001
0100
0001
0000
1000
0100
0010
0000
,  // measure 31
0100
1000
0100
0000
0010
0001
0100
0000
,  // measure 32
0010
1000
0010
1000
0001
0010
0000
0000
,  // measure 33
0001
1000
0001
0000
1000
0100
0010
0000
,  // measure 34
0001
0100
0001
0000
0100
0010
1000
0000
,  // measure 35
0001
0010
0001
0000
0010
0100
1000
0000
,  // measure 36
0100
1000
0100
1000
0001
0100
0000
0000
,  // measure 37
0110
0110
0110
0110
,  // measure 38
1001
1001
0011
0100
,  // measure 39
1010
1010
1001
1001
,  // measure 40
0001
0100
0010
0100
0001
0000
0101
0000
,  // measure 41
0110
0110
1001
1001
,  // measure 42
1000
0100
0010
0100
1000
0000
1100
0000
,  // measure 43
0110
0110
1001
1001
,  // measure 44
0001
1000
0010
1000
0001
0000
1001
0000
,  // measure 45
1000
0110
0110
0110
,  // measure 46
1001
1001
1001
1000
,  // measure 47
0010
0100
0001
0100
0010
0000
1000
0100
,  // measure 48
0010
0011
0011
0100
,  // measure 49
1000
0001
0010
0001
1000
0001
0010
0000
,  // measure 50
1100
1100
1100
0010
,  // measure 51
0001
1000
0010
1000
0001
1000
0010
0000
,  // measure 52
1001
0000
1000
0100
0010
0000
0100
0000
,  // measure 53
1001
1001
0011
0011
,  // measure 54
0110
0000
0000
0000
0000
0000
0000
0010
,  // measure 55
0100
0000
0000
0000
0000
0000
0000
1000
,  // measure 56
0010
0010
0100
0100
,  // measure 57
0000
0000
0000
0000
,  // measure 58
2002
0000
0000
0000
,  // measure 59
0000
0000
3000
0000
1003
0010
0100
0000
,  // measure 60
0001
0100
0001
0000
1000
0100
0010
0000
,  // measure 61
0001
1000
0100
1000
0001
1000
0100
0000
,  // measure 62
0010
0001
0010
0000
0001
0010
0100
0000
,  // measure 63
1000
0010
1000
0001
0010
0001
1000
0000
,  // measure 64
1001
0101
1001
1010
,  // measure 65
0100
0001
0100
0001
1000
0100
0010
0000
,  // measure 66
1001
1001
1001
1001
,  // measure 67
0110
0110
0110
0110
,  // measure 68
1000
0100
0010
0000
0100
1000
0100
0000
,  // measure 69
0010
0001
1000
0001
0010
0001
1000
0000
,  // measure 70
1100
1100
1100
1100
,  // measure 71
0010
0001
0100
0000
0001
0100
0001
0000
,  // measure 72
1000
0100
1000
0001
1000
0100
1000
0000
,  // measure 73
0110
0110
0110
0110
,  // measure 74
0001
0100
0000
0001
1000
0100
1000
0000
,  // measure 75
0100
0000
0000
0010
0000
0001
0000
0100
0000
0000
2002
0000
0000
0000
0000
0000
,  // measure 76
0000
0000
0000
0000
,  // measure 77
3003
0000
0000
0000
;

//---------------dance-single - ----------------
#NOTEDATA:;
#CHARTNAME:;
#STEPSTYPE:dance-single;
#DESCRIPTION:;
#CHARTSTYLE:;
#DIFFICULTY:Hard;
#METER:13;
#RADARVALUES:0.636168,0.581696,0.628216,0.063617,0.119281,560.000000,481.000000,79.000000,8.000000,0.000000,0.000000,0.000000,0.000000,0.000000,0.636168,0.581696,0.628216,0.063617,0.119281,560.000000,481.000000,79.000000,8.000000,0.000000,0.000000,0.000000,0.000000,0.000000;
#CREDIT:;
#NOTES:
// measure 0
0100
1001
0000
1001
,  // measure 1
0010
1000
0100
0010
,  // measure 2
1001
1001
0110
0110
,  // measure 3
1100
0000
1100
0000
1100
0001
0010
0100
,  // measure 4
2020
0000
0000
3030
,  // measure 5
1000
0001
0100
1000
0100
0001
1000
0000
,  // measure 6
0001
1000
0100
0001
0100
1000
0001
0000
,  // measure 7
0010
0100
1000
0001
0010
0100
1000
0000
,  // measure 8
1000
0010
0001
0010
0100
0001
0001
0001
,  // measure 9
1000
0010
0001
0010
1000
0100
0010
0000
,  // measure 10
0001
0010
1000
0010
0001
0100
0010
0000
,  // measure 11
0100
0001
0010
0100
1000
0010
0100
0000
,  // measure 12
0100
0001
0100
1000
0100
0010
1000
0000
,  // measure 13
2002
0000
0000
3003
,  // measure 14
0001
0010
0001
0010
0001
0001
1000
1000
,  // measure 15
0100
0010
0100
0010
0001
0001
0100
0100
,  // measure 16
0010
1000
0010
1000
0100
0010
0001
0001
,  // measure 17
1000
0100
0001
0100
1000
0100
0001
0100
,  // measure 18
1000
0000
0001
0000
1000
0000
0000
0000
0010
0100
0010
0000
1000
0001
1000
0000
,  // measure 19
0100
0010
0100
0010
0001
0100
0110
0000
,  // measure 20
1001
0000
0000
0000
0010
0000
0100
0000
0001
1000
0001
0000
1000
0100
1000
0000
,  // measure 21
0001
1100
0011
1100
,  // measure 22
1001
0000
1001
0000
1001
0000
0010
1000
,  // measure 23
0100
0001
0100
1000
0001
0010
0100
1000
,  // measure 24
0001
0100
1000
0100
0010
1000
0001
0100
,  // measure 25
1001
0000
0101
0000
1010
0100
0010
0001
,  // measure 26
0101
0000
0110
0000
1010
0000
1000
0001
,  // measure 27
0010
0100
1000
0001
0000
0100
0001
1000
,  // measure 28
0100
0001
0100
1000
0010
0100
0110
0000
,  // measure 29
1001
0101
1010
1001
,  // measure 30
0001
0000
1000
0100
0000
1000
0100
0000
0010
0000
0001
0000
1000
0000
0000
0000
,  // measure 31
0001
0000
1000
0010
0000
1000
0010
0000
0100
0000
0001
0000
1000
0000
0000
0000
,  // measure 32
0100
0010
0001
1000
0100
0010
0001
0000
,  // measure 33
0001
0100
1000
0100
0010
1000
0001
0100
,  // measure 34
0010
0000
1000
0001
0000
1000
0001
0000
0010
0000
0100
0000
1000
0000
0000
0000
,  // measure 35
0010
0000
0100
0001
0000
0100
0001
0000
1000
0000
0100
0000
0010
0000
0000
0000
,  // measure 36
0100
1000
0010
0100
0001
0010
0100
0000
,  // measure 37
1001
1100
0011
1001
,  // measure 38
0001
0000
0100
0000
0001
0000
1000
0000
0100
1000
0100
0000
0010
0001
0010
0000
,  // measure 39
0001
0001
1000
1000
0010
0100
0001
0000
,  // measure 40
1000
0000
0100
0000
1000
0000
0001
0000
0100
0001
0100
0000
0010
1000
0010
0000
,  // measure 41
1000
0110
0000
0110
0000
0110
0002
0000
,  // measure 42
1003
0000
0000
0000
0001
0000
0010
0000
0100
0010
0100
0000
1000
0001
1000
0000
,  // measure 43
0001
0100
0001
1000
0100
0001
0100
1000
,  // measure 44
0001
0000
0010
0000
1000
0000
0010
0000
0001
1000
0001
0000
1000
0100
1000
0000
,  // measure 45
0001
1100
0011
1100
,  // measure 46
1001
0000
1001
0000
1001
0000
0010
0100
,  // measure 47
0001
0100
1000
0100
0010
1000
0100
0010
,  // measure 48
0001
0100
1000
0100
0001
0100
0010
0000
,  // measure 49
1100
0000
0011
0000
1100
0000
0011
0100
,  // measure 50
1001
0000
1001
0000
0110
0000
0010
0100
,  // measure 51
0001
0100
1000
0100
0010
1000
0100
0010
,  // measure 52
0001
0100
1000
0100
0001
1000
1001
0000
,  // measure 53
1010
0101
1010
0101
,  // measure 54
1001
0000
0000
0000
0000
0000
0000
0000
0000
0000
0000
0000
0000
0000
1000
0100
,  // measure 55
1000
0000
0000
0000
0000
0000
0000
0000
0000
0000
0000
0000
0000
0000
0001
0010
,  // measure 56
0001
0000
1000
0000
0000
0010
0000
0000
0100
0000
0000
0001
0000
0000
0010
0000
,  // measure 57
0000
0100
0100
0100
,  // measure 58
0220
0000
0000
0000
,  // measure 59
0000
0000
0000
0000
0330
0000
0000
0000
1000
0001
1000
0001
1000
0000
0000
0000
,  // measure 60
0001
0100
1000
0100
0010
1000
0001
0010
,  // measure 61
1100
0000
0011
0000
1100
0010
0001
1000
,  // measure 62
0001
0010
1000
0010
0100
1000
0001
0000
,  // measure 63
1000
0010
0001
0010
0100
0001
1000
0100
,  // measure 64
1000
0010
0001
0010
1000
0100
0001
0100
,  // measure 65
1000
1000
0001
0001
1000
1000
0001
0001
,  // measure 66
0110
0110
0110
0110
,  // measure 67
1010
0101
1010
0101
,  // measure 68
1001
0010
0100
1000
0001
0100
1000
0100
,  // measure 69
0001
0110
0000
0110
0000
0110
1000
0000
,  // measure 70
1001
0000
0101
0000
1010
0000
0010
0100
,  // measure 71
0001
0010
1000
0010
0001
1000
0010
0000
,  // measure 72
1000
0010
0001
0010
1000
0100
0001
0100
,  // measure 73
1001
0011
1100
1001
,  // measure 74
0001
0001
0000
0010
0010
0100
0100
0000
,  // measure 75
0010
0000
0001
1000
0000
0100
0000
0010
0000
0001
0200
0000
0000
0000
0000
0000
,  // measure 76
0000
0000
0000
0000
,  // measure 77
0300
0000
0000
0000
;

//---------------dance-single - ----------------
#NOTEDATA:;
#CHARTNAME:;
#STEPSTYPE:dance-single;
#DESCRIPTION:;
#CHARTSTYLE:;
#DIFFICULTY:Challenge;
#METER:16;
#RADARVALUES:0.890635,0.918467,0.493030,0.087473,0.842922,784.000000,722.000000,62.000000,11.000000,0.000000,0.000000,0.000000,0.000000,0.000000,0.890635,0.918467,0.493030,0.087473,0.842922,784.000000,722.000000,62.000000,11.000000,0.000000,0.000000,0.000000,0.000000,0.000000;
#CREDIT:;
#NOTES:
0100
0000
1001
0000
0100
0000
1001
0100
,
0010
0000
0001
0000
0000
0100
0000
0000
0010
0000
0000
1000
0000
0000
0001
0000
,
0010
0000
0100
0000
1000
0001
0000
0000
0011
0000
0000
1000
0100
0000
0010
0000
,
0101
0000
0101
0000
0110
0110
1001
1001
,
0220
0000
0000
0330
,
1000
0000
0010
1000
0000
0001
1000
0000
0001
1000
0100
1000
0001
1000
0100
0000
,
0010
0000
0001
1000
0000
0010
1000
0000
0010
1000
0100
0010
0100
1000
0010
0000
,
1000
0000
0010
0000
0001
0000
0010
0000
1000
0000
0001
0000
0010
0001
0010
0001
,
1000
0100
0010
0000
0001
1000
0010
0000
1000
0100
0010
0100
1000
0010
0100
0000
,
1001
0000
1000
0010
0000
1000
0001
0000
1000
0001
0100
0001
1000
0001
0100
0000
,
0001
0000
1000
0001
0000
1000
0100
0000
1000
0100
0010
0100
1000
0001
0010
0000
,
0001
0000
0010
0000
1000
0000
0010
0000
0001
0000
1000
0000
0100
0010
0100
0010
,
0001
0100
0010
0000
1000
0100
0010
0000
0001
0100
0010
0100
0001
0000
0000
0000
,
2002
0000
0000
3003
,
0001
0000
1000
0001
0000
0010
0000
0100
0000
1000
0000
0001
0100
0000
0100
0000
,
0001
1000
0100
0000
1000
0100
0010
0000
0001
0000
0100
0001
0000
0000
0001
0000
,
1000
0100
1000
0100
0010
0000
0001
0000
1000
0010
1000
0010
0100
0000
0001
0000
,
1000
0100
1000
0000
0100
0010
0100
0000
0010
0001
0010
0001
1000
0010
0100
0000
,
1001
0000
0001
0000
1001
0000
0000
0000
0100
1000
0010
0000
0100
0001
0010
0000
,
1001
0000
1000
0000
1001
0000
0000
0000
0100
0001
0010
0000
0100
1000
0000
1000
,
0001
0000
0000
0000
0100
0010
0000
0010
1000
0000
1000
0001
0000
0010
0000
0001
,
1000
1010
0110
0101
,
0001
1000
0001
0000
1000
0001
1000
0000
0001
1000
0001
0000
1000
0000
0100
0000
,
0001
0000
0100
0000
1000
0000
0001
0000
0100
0001
0100
0001
1000
0100
0010
0000
,
1001
0000
0001
0000
0100
0000
0010
0000
1000
0000
0100
0000
0010
0000
0100
1000
,
0001
0100
0001
0000
1000
0010
1000
0000
0100
0010
0001
0010
0100
1000
0001
0000
,
1000
0001
1000
0000
0001
1000
0001
0000
1000
0001
1000
0000
0100
0000
0010
0000
,
0001
1000
0010
0100
0000
0010
0100
0001
,
1000
0100
0001
0100
1000
0110
0110
0000
,
0001
0100
0001
0000
1000
0010
1000
0100
0010
0001
0010
0100
0010
0001
0100
0000
,
1001
0000
1000
0010
0000
0010
0100
0000
0100
0001
0010
0100
1000
0010
1000
0000
,
0001
0000
0001
0010
0000
0010
0100
0000
0100
1000
0001
0010
0100
0010
0001
0000
,
1000
0000
0100
0000
0001
0000
0100
0000
1000
0000
0001
0000
1000
0010
1000
0010
,
0100
0001
0010
0000
0100
1000
0010
0000
1000
0100
0010
0100
1000
0001
0100
0000
,
1001
0000
1000
0100
0000
0100
0010
0000
0010
0001
1000
0010
0100
0010
1000
0000
,
0010
0000
0010
0100
0000
0100
0001
0000
0001
0010
0100
0010
0001
1000
0010
0000
,
1000
0000
0100
0000
0001
0000
0100
0000
1000
0000
0001
0000
0010
0001
0010
0001
,
1000
0100
0001
0100
1000
0100
0010
0001
1000
0010
0001
0010
1000
0000
0000
0000
,
1001
0000
0010
1000
0010
0000
0100
0000
0001
1000
0100
0000
0010
0001
1000
0000
,
0010
0000
0010
0000
1000
0001
0010
0001
1000
0000
0010
0100
0000
0000
0001
0010
,
0100
0000
1000
0100
0010
0000
0001
0000
0100
0010
1000
0000
0010
0100
0001
0000
,
1000
0100
1000
0100
0010
0001
0010
0001
1000
0000
0010
0100
0000
0000
0100
0000
,
1001
0000
0000
0000
0011
0000
0100
0000
1000
0010
0100
0000
0001
0100
0010
0000
,
1000
0000
0010
0000
0001
0000
0010
0000
1000
0000
0010
0100
0000
0000
0100
0000
,
0001
0100
1000
0100
0011
0011
1100
1100
,
1001
0101
0110
1010
,
1000
0001
1000
0000
0001
1000
0001
0000
1000
0001
1000
0000
0001
0000
1000
0000
,
0100
0001
0100
1000
0000
0100
0010
0001
,
1000
0010
0001
0010
1000
0100
0010
0001
,
1000
0010
1000
0000
0001
0100
0001
0000
0010
0100
1000
0100
0010
0100
1000
0000
,
0001
1000
0001
0000
1000
0001
1000
0000
0001
1000
0001
0000
0010
0000
0100
0000
,
1000
0100
0001
0100
0000
1000
0100
0010
,
0001
0100
1000
0100
0001
0110
0110
1000
,
0001
0010
1000
0010
0001
0100
0010
0100
0001
0100
1000
0100
0001
1000
0100
0010
,
0001
0000
1000
0001
0000
1000
0100
0000
1000
0001
0000
1000
0100
0000
0010
0001
,
0010
0000
0100
1000
0000
0001
1000
0000
0100
1000
0000
0001
1000
0000
0010
0100
,
0001
0000
1001
0000
0000
1100
0000
0000
0011
0000
0000
0110
0000
0000
2002
0000
,
0000
3003
0000
0000
1000
0000
0000
0000
0010
0000
0000
0000
0100
0000
0000
0000
,
2002
0000
0000
0000
,
0000
0000
0000
0000
0003
0000
0000
0000
3001
0100
0010
1000
0001
0000
0000
0000
,
0011
0100
1000
0001
0100
1000
0100
0001
,
1000
0001
0010
0000
0001
0010
0100
0000
1000
0010
1000
0001
0010
0001
1000
0000
,
0001
0010
1000
0010
0001
1000
0000
0001
,
0100
1000
0100
0001
1000
0100
0010
0100
,
1001
0100
0010
0001
1000
0110
0110
0001
,
1000
0010
0001
0010
1000
0100
0010
0001
0010
0100
1000
0010
0001
0010
1000
0000
,
0001
1000
0001
0000
1000
0001
1000
0000
0001
1000
0001
0000
1000
0001
1000
0000
,
0001
0010
0001
0000
1000
0100
1000
0000
0001
0010
0001
0000
1000
0100
1000
0000
,
1001
0010
0100
1000
0010
0001
0010
1000
,
0100
0010
0100
0000
1000
0010
0100
0000
0001
0100
0010
1000
0100
0010
0100
0000
,
2001
0000
0000
0000
3001
0100
0001
0000
1000
0010
1000
0000
0010
0000
1001
0000
,
0000
0000
0001
0000
0010
0000
0100
0000
1000
0010
1000
0010
0100
0010
0100
0000
,
1001
0010
0100
1000
0001
0110
0110
1000
,
0001
0100
1000
0100
0001
0010
0100
0010
0001
0100
0001
0010
1000
0010
0001
0000
,
0011
1001
0000
1001
0110
1001
0110
0000
,
1001
0000
1000
0010
0000
0110
0000
0110
0000
0200
0002
0000
0000
0000
0000
0000
,
0000
0000
0000
0000
,
0303
0000
0000
0000
;

//---------------dance-single - ----------------
#NOTEDATA:;
#CHARTNAME:;
#STEPSTYPE:dance-single;
#DESCRIPTION:;
#CHARTSTYLE:;
#DIFFICULTY:Beginner;
#METER:3;
#RADARVALUES:0.130642,0.150344,0.023856,0.000000,0.000000,115.000000,112.000000,3.000000,0.000000,0.000000,0.000000,0.000000,0.000000,0.000000,0.130642,0.150344,0.023856,0.000000,0.000000,115.000000,112.000000,3.000000,0.000000,0.000000,0.000000,0.000000,0.000000,0.000000;
#CREDIT:;
#NOTES:
0000
0001
0000
0001
,
0000
0001
0000
0001
,
1000
0000
0100
0000
,
0010
0000
0001
0000
,
1000
0000
0000
0000
,
0100
0000
0100
0000
,
0010
0000
0010
0000
,
0001
0000
0001
0000
,
1000
0000
0000
0000
,
0010
0000
0010
0000
,
0100
0000
0100
0000
,
0001
0000
0001
0000
,
1000
0000
0000
0000
,
0100
0000
0000
0000
,
1000
0000
0000
0000
,
0001
0000
0000
0000
,
1000
0000
0000
0000
,
0001
0000
0000
0000
,
0010
0000
0000
0000
,
0001
0000
0000
0000
,
0010
0000
0000
0000
,
0100
0000
0000
0000
,
1000
0000
1000
0000
,
0010
0000
0010
0000
,
1000
0000
1000
0000
,
0001
0000
0000
0000
,
0010
0000
0010
0000
,
0001
0000
0001
0000
,
0010
0000
0010
0000
,
0100
0000
0000
0000
,
1000
0000
0000
0000
,
0100
0000
0000
0000
,
0010
0000
0001
0000
,
1000
0000
0000
0000
,
0001
0000
0000
0000
,
0100
0000
0000
0000
,
0010
0000
1000
0000
,
0001
0000
0000
0000
,
1000
0000
0000
0000
,
0100
0000
0000
0000
,
0010
0000
0000
0000
,
0100
0000
0000
0000
,
1000
0000
0001
0000
,
1000
0000
0001
0000
,
1000
0000
0001
0000
,
0010
0000
0000
0000
,
0001
0000
0001
0000
,
0010
0000
0010
0000
,
0100
0000
1000
0000
,
0001
0000
0000
0000
,
1000
0000
1000
0000
,
0010
0000
0010
0000
,
0100
0000
0001
0000
,
1000
0000
0000
0000
,
0001
0000
0000
0000
,
0001
0000
0000
0000
,
0001
0000
0000
0000
,
0000
0000
0000
0000
,
1001
0000
0000
0000
,
0000
0000
0000
0000
,
1000
0000
1000
0000
,
0001
0000
0001
0000
,
0010
0000
0010
0000
,
0100
0000
1000
0000
,
0001
0000
0001
0000
,
0100
0000
0000
0000
,
0010
0000
0010
0000
,
0010
0000
0010
0000
,
0100
0000
0001
0000
,
1000
0000
0000
0000
,
0100
0000
0100
0000
,
0100
0000
0100
0000
,
0010
0000
0001
0000
,
1000
0000
0000
0000
,
1001
0000
0000
0000
,
0000
0000
0000
0000
0000
0110
0000
0000
;
