#TITLE:New Stranger;
#SUBTITLE:;
#ARTIST:sora tob sakana;
#TITLETRANSLIT:;
#SUBTITLETRANSLIT:;
#ARTISTTRANSLIT:;
#GENRE:;
#CREDIT:DigiMindAxel;
#BANNER:New Stranger.png;
#BACKGROUND:New Stranger-bg.png;
#LYRICSPATH:New Stranger.lrc;
#CDTITLE:DigiMindAxel original simfile.png;
#MUSIC:New Stranger.ogg;
#OFFSET:-0.290000;
#SAMPLESTART:55.351002;
#SAMPLELENGTH:12.000000;
#SELECTABLE:YES;
#BPMS:0.000000=190.000000
;
#STOPS:
;
#BGCHANGES:-2.000=New Stranger.avi=1.000=1=0=0=StretchNoLoop==CrossFade==,
99999=-nosongbg-=1.000=0=0=0 // don't automatically add -songbackground-
;
#KEYSOUNDS:;
#ATTACKS:;

//---------------dance-single - ----------------
#NOTES:
     dance-single:
     :
     Easy:
     5:
     0.198413,0.388889,0.111111,0.111111,0.000000,125.000000,115.000000,10.000000,10.000000,0.000000,0.000000,0.198413,0.388889,0.111111,0.111111,0.000000,125.000000,115.000000,10.000000,10.000000,0.000000,0.000000:
// measure 0
0000
0000
0000
0000
,  // measure 1
0000
0000
0000
0000
,  // measure 2
0000
0000
0000
0000
,  // measure 3
0000
0000
0000
0000
,  // measure 4
1001
0000
0000
0000
0000
0000
0000
1001
,  // measure 5
0000
0000
0000
0000
,  // measure 6
1001
0000
0000
0000
0000
0000
0000
2002
,  // measure 7
0000
0000
0000
3003
,  // measure 8
0000
0001
0000
0000
,  // measure 9
0000
0100
0000
0000
,  // measure 10
0001
0000
0000
0000
,  // measure 11
0000
0000
1000
0000
,  // measure 12
0100
0000
0000
0000
,  // measure 13
0000
0000
0010
0000
,  // measure 14
0001
0000
0000
1000
,  // measure 15
0000
0000
0000
0000
,  // measure 16
0001
0000
1000
0000
,  // measure 17
0001
0000
0000
0000
,  // measure 18
0010
0000
0001
0000
,  // measure 19
0010
0000
0000
0000
,  // measure 20
0001
0000
1000
0000
,  // measure 21
0001
0000
0000
0000
,  // measure 22
0100
0000
0010
0000
,  // measure 23
1000
0000
0010
0000
,  // measure 24
0100
0000
0001
0000
,  // measure 25
0100
0000
0000
0000
,  // measure 26
0001
0000
1000
0000
,  // measure 27
0001
0000
0000
0000
,  // measure 28
1000
0000
0100
0000
,  // measure 29
1000
0000
0000
0000
,  // measure 30
0010
0000
0100
0000
,  // measure 31
0010
0000
1000
0000
,  // measure 32
0002
0000
0000
0000
,  // measure 33
0000
0000
0000
0000
,  // measure 34
2003
0000
0000
0000
,  // measure 35
0000
0000
0000
0000
,  // measure 36
3200
0000
0000
0000
,  // measure 37
0000
0000
0000
0000
,  // measure 38
0320
0000
0000
0000
,  // measure 39
0000
0000
0000
0000
,  // measure 40
0031
0000
0000
1000
0000
0000
0001
0000
,  // measure 41
0000
0000
0000
0000
,  // measure 42
1000
0000
0000
0000
0001
0000
0000
0200
,  // measure 43
0000
0000
0300
0000
,  // measure 44
0010
0000
0100
0000
,  // measure 45
0010
0000
1000
0000
,  // measure 46
0100
0010
0001
0000
,  // measure 47
0010
0100
1000
0000
,  // measure 48
0001
0000
0100
0000
,  // measure 49
0010
0000
0000
0000
0100
0000
0000
1001
,  // measure 50
0000
0000
0000
1000
0000
0000
0000
0001
,  // measure 51
0000
0000
0000
0000
,  // measure 52
1000
0000
0100
0000
,  // measure 53
0010
0000
0001
0000
,  // measure 54
1001
0000
1000
0000
,  // measure 55
0001
0010
0100
0000
,  // measure 56
1000
0010
1000
0000
,  // measure 57
0001
1000
0100
0010
,  // measure 58
0002
0000
0000
0000
,  // measure 59
1003
0100
1000
0000
,  // measure 60
0001
0100
0010
0100
,  // measure 61
0001
0010
0100
1000
,  // measure 62
1001
0000
0001
0000
0001
0000
0000
1000
,  // measure 63
0000
0100
0000
0010
0000
0000
0000
0000
,  // measure 64
0000
0000
1001
0000
0001
0000
0000
1000
,  // measure 65
0000
0010
0000
0100
0000
0000
0001
0000
,  // measure 66
1000
0000
1000
0000
1000
0000
0000
0001
,  // measure 67
0000
0100
0000
0010
0000
0000
0000
0000
,  // measure 68
1001
0000
0000
0000
0000
0000
0000
1000
,  // measure 69
0000
1000
0000
0000
2002
0000
0000
0000
,  // measure 70
3003
0000
0000
0000
;

//---------------dance-single - ----------------
#NOTES:
     dance-single:
     :
     Medium:
     9:
     0.407937,0.583333,0.477778,0.244444,0.000000,257.000000,214.000000,43.000000,22.000000,0.000000,0.000000,0.407937,0.583333,0.477778,0.244444,0.000000,257.000000,214.000000,43.000000,22.000000,0.000000,0.000000:
// measure 0
0000
0000
0000
0000
,  // measure 1
0000
0000
0000
0000
,  // measure 2
0000
0000
0000
0000
,  // measure 3
0000
0000
0000
0000
,  // measure 4
0202
0000
0000
0000
0000
0303
0000
0220
,  // measure 5
0000
0000
0330
0000
,  // measure 6
2200
0000
0000
0000
0000
3300
0000
1001
,  // measure 7
0000
1001
0000
0000
0000
0000
0000
0000
,  // measure 8
0000
0000
0001
0000
0100
0000
0000
0001
,  // measure 9
0000
1000
0000
0100
0000
0000
0000
0000
,  // measure 10
0010
0000
0001
0000
1000
0000
0000
0010
,  // measure 11
0000
1000
0000
0001
0000
0000
0000
0000
,  // measure 12
0010
0000
0100
0000
1000
0000
0000
0100
,  // measure 13
0000
1000
0000
0001
0000
0000
0000
0000
,  // measure 14
0011
0000
0000
0011
0000
0000
1100
0000
,  // measure 15
0000
2200
0000
0000
0000
0000
3300
0000
,  // measure 16
1001
0001
1000
0000
,  // measure 17
0100
0010
0001
0000
,  // measure 18
0010
0100
0010
0001
,  // measure 19
0100
0010
0100
0000
0001
1000
0001
0000
,  // measure 20
1001
1000
0100
0000
,  // measure 21
0010
0001
1000
0000
,  // measure 22
0001
0010
0100
1000
,  // measure 23
0100
0010
0100
1000
,  // measure 24
1010
0010
0110
0000
,  // measure 25
0100
0001
1000
0000
,  // measure 26
0001
0010
0100
1000
,  // measure 27
0010
0100
0001
0000
,  // measure 28
1001
0000
1000
0000
0001
1000
0001
0000
,  // measure 29
0010
0000
0100
0000
1000
0010
1000
0000
,  // measure 30
0001
0000
0100
0000
0010
0000
1000
0010
,  // measure 31
0000
1000
0001
0000
,  // measure 32
0021
0000
0001
0000
,  // measure 33
0001
0000
0031
0000
,  // measure 34
1200
0000
1000
0000
,  // measure 35
1000
0000
1300
0000
,  // measure 36
0120
0000
0100
0000
,  // measure 37
0100
0000
0130
0000
,  // measure 38
1002
0000
1000
0000
,  // measure 39
1000
0000
1003
0000
,  // measure 40
1001
0000
0000
0101
0000
0000
1010
0000
,  // measure 41
0000
0000
0000
0000
,  // measure 42
1001
0000
0000
0000
0000
0000
0000
1100
,  // measure 43
0000
1100
0000
1100
0000
0000
0000
0000
,  // measure 44
0010
0001
1000
0000
0010
0000
0100
0000
,  // measure 45
0001
1000
0100
0000
0010
0000
0001
0000
,  // measure 46
0100
0010
0100
0010
0100
0000
0001
0000
,  // measure 47
0100
1000
0100
0001
,  // measure 48
0010
0100
1000
0000
0001
0000
1000
0000
,  // measure 49
0100
0010
0001
0000
0100
0000
0010
1000
,  // measure 50
0000
0000
0001
0100
0000
0000
0001
1000
,  // measure 51
0000
0000
0100
0010
,  // measure 52
0002
0000
0203
0000
,  // measure 53
0320
0000
2030
0000
,  // measure 54
3001
1000
0100
0000
0010
0000
0001
0000
,  // measure 55
0100
0001
1000
0000
0100
0000
0010
0000
,  // measure 56
0001
1000
0001
1000
0001
0000
0100
0000
,  // measure 57
0010
1000
0100
0000
0010
0000
0001
0000
,  // measure 58
2002
0000
0000
3003
,  // measure 59
1000
0100
1000
0100
0010
0000
0001
0000
,  // measure 60
0100
0010
0100
0010
0100
0000
0001
0000
,  // measure 61
0010
1000
0010
0001
,  // measure 62
1100
0000
1001
0000
1001
0000
0000
0101
,  // measure 63
0000
0100
0000
0110
0000
0020
0000
0000
,  // measure 64
1030
0000
0101
0000
0101
0000
0000
1001
,  // measure 65
0000
1000
0000
1100
0000
0000
0011
0000
,  // measure 66
1001
0000
1010
0000
1010
0000
0000
0101
,  // measure 67
0000
0001
0000
1001
0000
2000
0000
0000
,  // measure 68
3100
0000
0000
0000
0000
0000
0000
1001
,  // measure 69
0000
1001
0000
0000
0020
0200
0000
0000
,  // measure 70
0330
0000
0000
0000
;

//---------------dance-single - ----------------
#NOTES:
     dance-single:
     :
     Hard:
     12:
     0.592063,0.622222,0.466667,0.155556,0.083333,373.000000,331.000000,42.000000,14.000000,0.000000,0.000000,0.592063,0.622222,0.466667,0.155556,0.083333,373.000000,331.000000,42.000000,14.000000,0.000000,0.000000:
// measure 0
0000
0000
0000
0000
,  // measure 1
0000
0000
0000
0000
,  // measure 2
0000
0000
0000
0000
,  // measure 3
0000
0000
0000
0000
,  // measure 4
0202
0000
0000
0000
0000
0303
0000
1001
,  // measure 5
0000
0000
1001
0000
0000
0000
0000
0000
0000
0000
0100
0000
0000
0100
0000
0000
,  // measure 6
2200
0000
0000
0000
0000
3300
0000
1001
,  // measure 7
0000
2002
0000
0000
0000
0000
0000
0000
,  // measure 8
3003
0000
1000
0100
0010
0001
0000
0100
,  // measure 9
0000
1000
0000
0100
0000
0001
1000
0000
,  // measure 10
0001
0010
0100
1000
0001
1000
0000
0100
,  // measure 11
0000
0001
0000
0100
1000
0000
0010
0000
,  // measure 12
0100
0001
0010
0100
0010
0001
0000
0100
,  // measure 13
0000
1000
0000
0100
0000
0001
0000
0000
,  // measure 14
1100
0000
0100
0010
0000
0010
0001
0000
,  // measure 15
0001
1000
0100
1000
0010
0100
0010
0100
,  // measure 16
0001
0000
0010
0100
1000
0000
0010
0100
,  // measure 17
0010
0000
1000
0100
0000
0010
0000
0001
,  // measure 18
1000
0010
1000
0010
0100
0000
0010
1000
,  // measure 19
0000
0002
0000
0203
0000
0301
1000
0001
,  // measure 20
1001
0000
0001
0100
0010
0000
0100
0001
,  // measure 21
1000
0000
0100
0010
0000
0001
0000
0100
,  // measure 22
0010
1000
0010
1000
0001
0000
0010
0100
,  // measure 23
0000
1000
0000
0010
0100
0010
1000
0000
,  // measure 24
1001
0000
0001
0100
0010
0000
1000
0100
,  // measure 25
0001
0100
1000
0010
0000
0100
0000
0001
,  // measure 26
1000
0100
1000
0100
0010
0001
0100
0010
,  // measure 27
0000
0000
0100
0000
0000
0000
0001
0000
0000
0000
1000
0000
0000
1000
0000
0000
,  // measure 28
1001
0000
0001
0100
0010
0000
0100
0001
,  // measure 29
0000
1000
0100
0010
0100
1000
0000
0000
,  // measure 30
1001
0000
0001
1000
0100
0001
0100
1000
,  // measure 31
0000
0000
0010
0000
0010
0100
0001
0000
,  // measure 32
1000
0100
0000
0010
0000
0001
0000
1000
,  // measure 33
0000
0010
0100
0010
1000
0001
1000
0000
,  // measure 34
1001
0000
0001
0000
0100
0010
0000
1000
,  // measure 35
0000
0000
0010
0000
0100
0000
0000
0000
0001
0000
0000
0100
0000
0000
0001
0000
,  // measure 36
0000
0000
1000
0100
0000
0010
0000
0001
,  // measure 37
0000
2000
0000
0000
0010
3010
0000
0000
,  // measure 38
1001
0100
0010
0002
,  // measure 39
0000
0000
1000
0000
1000
1003
0000
0000
,  // measure 40
0011
0000
0010
0100
0000
0100
1000
0000
,  // measure 41
0000
0100
1000
0010
0100
0001
0010
0000
,  // measure 42
1001
0000
1000
0100
0010
0001
0000
0101
,  // measure 43
0000
0101
0000
0101
0000
0000
0000
0000
,  // measure 44
0001
0100
0010
0100
0001
1000
0000
0100
,  // measure 45
0000
0010
0000
0001
0000
1000
0010
1000
,  // measure 46
0001
0010
1000
0010
0001
1000
0100
0010
,  // measure 47
0000
0001
0000
0200
0000
0000
0300
0001
,  // measure 48
1000
0000
0100
0010
0000
0001
1000
0010
,  // measure 49
0001
0010
1000
0000
0100
0010
0001
0100
,  // measure 50
0000
0100
0010
1000
0000
1000
0001
0010
,  // measure 51
0000
0000
0000
0100
0000
0000
1000
0000
0000
0000
0000
0000
0001
0000
0000
0000
0100
0000
0000
0000
0010
0000
0000
0000
,  // measure 52
0100
0000
0100
0000
0001
0000
0010
0000
0100
0000
1000
0000
,  // measure 53
0010
0000
0010
0000
1000
0000
0100
0000
0010
0000
0001
0000
,  // measure 54
1000
0100
0001
0100
1000
0010
0000
0100
,  // measure 55
0000
0001
1000
0100
0010
0001
0000
0000
,  // measure 56
1000
0010
0100
0010
0000
1000
0000
0001
,  // measure 57
1000
0100
0001
0100
0000
1000
0100
0010
,  // measure 58
0002
0000
0000
0000
0003
0000
1000
0010
,  // measure 59
0100
0001
0010
1000
0010
0001
0100
0000
,  // measure 60
0001
0010
0001
0100
1000
0100
0001
1000
,  // measure 61
0000
0100
0010
0001
0000
0101
0000
1001
,  // measure 62
0000
0000
1100
0000
0110
0000
0000
0011
,  // measure 63
0000
0000
0011
0000
0000
0000
1001
0000
0000
0000
0010
0000
0000
0010
0000
0000
,  // measure 64
0011
0000
0110
0000
1100
0000
0000
1001
,  // measure 65
0000
0110
0000
1001
0000
0000
1001
0000
,  // measure 66
1100
0000
0110
0000
0011
0000
0000
1010
,  // measure 67
0000
0000
1010
0000
0000
0000
1001
0000
0000
0000
0100
0000
0000
0100
0000
0000
,  // measure 68
1100
0000
0000
0000
0000
0000
0000
1001
,  // measure 69
0000
1001
0000
0000
0001
0202
0000
0000
,  // measure 70
0303
0000
0000
0000
;

//---------------dance-single - ----------------
#NOTES:
     dance-single:
     :
     Challenge:
     15:
     0.761905,0.855556,0.533333,0.088889,0.266667,480.000000,432.000000,48.000000,8.000000,0.000000,0.000000,0.761905,0.855556,0.533333,0.088889,0.266667,480.000000,432.000000,48.000000,8.000000,0.000000,0.000000:
// measure 0
0000
0000
0000
0000
,  // measure 1
0000
0000
0000
0000
,  // measure 2
0000
0000
0000
0000
,  // measure 3
0000
0000
0000
0000
,  // measure 4
1001
0000
0000
0000
0001
0010
0001
0010
0001
0010
0002
0000
0000
0000
1000
0000
,  // measure 5
0000
0000
1003
0000
0010
0100
0010
0100
0010
0000
0101
0000
0000
0101
0000
0000
,  // measure 6
1001
0000
2000
0000
0000
0000
0000
3010
,  // measure 7
0000
1010
1000
0100
0010
0001
1000
0010
,  // measure 8
0000
1000
0001
0100
1000
0100
0000
0001
,  // measure 9
0000
1001
0000
1000
0010
0100
0010
0000
,  // measure 10
1000
0100
0001
0100
1000
0001
0000
0010
,  // measure 11
0000
0000
0000
0011
0000
0000
0000
0000
0000
0001
0000
0000
0100
0000
0010
0000
0100
0000
0010
0000
1000
0000
0100
0000
,  // measure 12
1000
0001
0010
1000
0010
0001
0000
1000
,  // measure 13
0000
1010
0000
0010
0100
0001
0100
0000
,  // measure 14
1001
0001
0010
1100
0000
1001
1000
0100
,  // measure 15
0010
0001
0001
0100
0100
0010
0010
0100
,  // measure 16
0101
0000
0001
1000
0100
0000
0010
0100
,  // measure 17
1000
0001
0000
1001
0000
1000
0100
1000
,  // measure 18
0001
0010
1000
0010
0000
0001
0100
0010
,  // measure 19
0100
0000
0001
0100
0001
0000
1000
0001
1000
0000
0100
1000
0100
1000
0100
0000
,  // measure 20
1000
0010
0100
0010
0000
1000
0001
0010
,  // measure 21
0100
1000
0000
1010
0000
0010
1000
0001
,  // measure 22
1000
0100
0001
0100
1000
0001
0010
0100
,  // measure 23
1000
0010
0001
0010
1000
0010
0100
0000
,  // measure 24
1001
0000
0001
1000
0010
1000
0000
0100
,  // measure 25
0001
0100
1000
0001
0000
1001
0000
1000
,  // measure 26
0001
0010
1000
0010
0001
1000
0100
0010
,  // measure 27
0000
0000
0001
0100
0001
0000
0100
0010
0100
0000
0001
1000
0001
0000
0000
0000
,  // measure 28
1001
0001
0100
0001
0000
0010
0100
1000
,  // measure 29
0010
0100
0000
0101
0000
0001
1000
0100
,  // measure 30
0010
0001
0010
0100
0000
0010
0001
0200
,  // measure 31
0000
0010
0310
0000
0100
0001
1000
0000
,  // measure 32
1100
0000
0000
0100
0000
0000
0100
0000
0000
0000
0000
0000
0000
0000
1000
0000
,  // measure 33
0000
1000
0001
1000
0100
0010
0100
0000
,  // measure 34
1001
0000
0000
0001
0000
0000
0001
0000
0000
0000
0000
0000
0000
0000
0010
0000
,  // measure 35
0000
0010
0000
0100
1000
0001
0100
0000
,  // measure 36
1001
0000
0000
0001
0000
0000
0001
0000
0000
0000
0000
0000
0000
0000
0010
0000
,  // measure 37
0000
0010
0000
0100
0010
0001
0100
0000
,  // measure 38
1001
0000
0000
1000
0000
0000
1000
0000
0000
0000
0000
0000
0000
0000
0100
0000
,  // measure 39
0000
0100
0000
0010
0100
1000
0010
0000
,  // measure 40
1001
1000
0100
0011
0000
0001
1001
0000
,  // measure 41
1000
0001
0100
1000
0001
0010
1000
0000
,  // measure 42
1001
0001
0100
0010
0100
0001
0000
1001
,  // measure 43
0000
1001
0000
1001
0000
0000
0000
0000
,  // measure 44
1000
0001
0100
0001
1000
0010
0001
0010
,  // measure 45
1000
0001
0010
0100
0000
1000
0010
0100
,  // measure 46
0001
1000
0100
1000
0001
0010
1000
0010
,  // measure 47
0001
1000
0010
1000
0001
0000
1000
0001
,  // measure 48
0100
0010
0100
0001
0010
0100
0010
0001
,  // measure 49
0100
1000
0100
0001
0010
0100
1000
1001
,  // measure 50
0000
0010
1000
1010
0000
0100
0001
0101
,  // measure 51
0000
0000
0000
0100
0000
0000
0110
0000
0000
0000
0000
0000
0001
0000
0000
0000
0010
0000
0000
0000
0100
0000
0000
0000
,  // measure 52
1100
0000
1000
0000
1000
0000
1001
0000
0001
0000
0100
0000
,  // measure 53
0110
0000
0010
0000
0010
0000
1001
0000
0001
0000
0001
0000
,  // measure 54
1001
1000
0001
0010
0001
1000
0100
0001
,  // measure 55
0100
1000
0001
0010
0100
0010
0001
0000
,  // measure 56
1000
0010
0100
0001
1000
0010
0001
0010
,  // measure 57
1000
0100
0010
0001
1000
0010
1000
0001
,  // measure 58
0010
0100
0010
0000
0001
1000
0100
0010
,  // measure 59
0001
0010
1000
0010
0001
1000
0001
0000
,  // measure 60
1000
0100
0010
0100
1000
0001
1000
0010
,  // measure 61
0001
0010
1000
0100
0010
0001
1000
0000
,  // measure 62
1001
0000
0000
0000
0100
1000
0100
1000
0100
1000
0200
0000
0000
0000
2300
0000
,  // measure 63
0000
0000
0001
0000
0000
0000
3001
0000
0000
0000
0100
0000
0000
0100
0000
0000
,  // measure 64
1001
0000
0000
0000
0001
0100
0001
0100
0001
0100
0010
0000
0000
0000
0101
0000
,  // measure 65
0000
0000
0110
0000
0000
0000
1010
0000
0000
0000
0010
0000
0000
0010
0000
0000
,  // measure 66
1001
0000
0000
0000
1000
0100
1000
0100
1000
0100
2000
0000
0000
0000
0010
0000
,  // measure 67
0000
0000
0000
0000
0000
0000
3010
0000
0000
0000
0000
0000
0100
0000
0000
0010
0000
0000
0100
0000
0000
0010
0000
0000
0100
0000
0000
0000
0001
0000
0000
0000
0010
0000
0000
0000
0001
0000
0000
0000
1000
0000
0000
0000
0100
0000
0000
0000
,  // measure 68
1000
0000
0000
0000
0000
0000
0000
1010
,  // measure 69
0000
1010
0000
0000
0110
2002
0000
0000
,  // measure 70
3003
0000
0000
0000
;

//---------------dance-single - ----------------
#NOTES:
     dance-single:
     :
     Beginner:
     2:
     0.101587,0.193056,0.077778,0.000000,0.000000,64.000000,57.000000,7.000000,0.000000,0.000000,0.000000,0.101587,0.193056,0.077778,0.000000,0.000000,64.000000,57.000000,7.000000,0.000000,0.000000,0.000000:
// measure 0
0000
0000
0000
0000
,  // measure 1
0000
0000
0000
0000
,  // measure 2
0000
0000
0000
0000
,  // measure 3
0000
0000
0000
0000
,  // measure 4
1000
0000
0000
0000
0000
0000
0000
1000
,  // measure 5
0000
0000
0000
0000
,  // measure 6
0010
0000
0000
0000
0000
0000
0000
0010
,  // measure 7
0000
0000
0000
0000
,  // measure 8
0000
1001
0000
0000
,  // measure 9
0000
0000
0000
0000
,  // measure 10
0001
0000
0000
0000
,  // measure 11
0000
0000
0000
0000
,  // measure 12
0010
0000
0000
0000
,  // measure 13
0000
0000
0000
0000
,  // measure 14
0100
0000
0000
0000
,  // measure 15
0000
0000
0000
0000
,  // measure 16
1001
0000
0000
0000
,  // measure 17
0001
0000
0000
0000
,  // measure 18
1000
0000
0000
0000
,  // measure 19
0001
0000
0000
0000
,  // measure 20
0010
0000
0000
0000
,  // measure 21
0100
0000
0000
0000
,  // measure 22
0010
0000
0000
0000
,  // measure 23
0100
0000
0000
0000
,  // measure 24
1000
0000
0000
0000
,  // measure 25
0010
0000
0000
0000
,  // measure 26
1000
0000
0000
0000
,  // measure 27
0001
0000
0000
0000
,  // measure 28
0010
0000
0000
0000
,  // measure 29
0100
0000
0000
0000
,  // measure 30
0010
0000
0000
0000
,  // measure 31
0100
0000
0000
0000
,  // measure 32
1000
0000
0000
0000
,  // measure 33
0000
0000
0000
0000
,  // measure 34
0010
0000
0000
0000
,  // measure 35
0000
0000
0000
0000
,  // measure 36
0100
0000
0000
0000
,  // measure 37
0000
0000
0000
0000
,  // measure 38
0001
0000
0000
0000
,  // measure 39
0000
0000
0000
0000
,  // measure 40
1001
0000
0000
0000
,  // measure 41
0000
0000
0000
0000
,  // measure 42
1001
0000
0000
0000
0000
0000
0000
0001
,  // measure 43
0000
0000
0000
0000
,  // measure 44
1000
0000
0000
0000
,  // measure 45
0100
0000
0000
0000
,  // measure 46
1000
0000
0000
0000
,  // measure 47
0010
0000
0000
0000
,  // measure 48
0100
0000
0000
0000
,  // measure 49
0010
0000
0000
0000
0000
0000
0000
1000
,  // measure 50
0000
0000
0000
0001
0000
0000
0000
1000
,  // measure 51
0000
0000
0000
0000
,  // measure 52
0001
0000
0010
0000
,  // measure 53
0100
0000
1000
0000
,  // measure 54
0001
0000
0000
0000
,  // measure 55
1000
0000
0000
0000
,  // measure 56
0100
0000
0000
0000
,  // measure 57
1000
0000
0000
0000
,  // measure 58
0010
0000
0000
0000
,  // measure 59
0100
0000
0000
0000
,  // measure 60
0001
0000
0000
0000
,  // measure 61
0010
0000
0000
0000
,  // measure 62
0100
0000
0000
0000
,  // measure 63
0000
0000
0000
0000
,  // measure 64
0100
0000
0000
0000
,  // measure 65
0000
0000
0000
0000
,  // measure 66
1001
0000
0000
0000
,  // measure 67
0000
0000
0000
0000
,  // measure 68
1001
0000
0000
0000
,  // measure 69
0000
0000
1001
0000
;
