#TITLE:Mirrorwall;
#SUBTITLE:;
#ARTIST:BlackY;
#TITLETRANSLIT:;
#SUBTITLETRANSLIT:;
#ARTISTTRANSLIT:;
#CREDIT:DigiMindAxel;
#BANNER:Mirrorwall.png;
#BACKGROUND:Mirrorwall-bg.png;
#LYRICSPATH:;
#CDTITLE:SOUND VOLTEX.png;
#MUSIC:Mirrorwall.ogg;
#METERTYPE:DDR X;
#OFFSET:-9.359;
#SAMPLESTART:2.667;
#SAMPLELENGTH:12.000;
#SELECTABLE:YES;
#BPMS:0.000=144.000;
#STOPS:;
#BGCHANGES:;

//---------------dance-single - ----------------
#NOTES:
     dance-single:
     :
     Easy:
     5:
     0.258,0.376,0.066,0.272,0.000:
1000
0100
1000
0100
,
0010
0001
0010
0001
,
1000
1000
0100
0100
,
2000
0000
3020
0000
,
0130
0000
0000
0000
,
0000
0000
0000
0000
,
0000
0000
0000
0000
,
0110
0000
0010
0000
,
0100
0010
0100
0010
,
1000
0001
1000
0001
,
0010
0001
0010
0100
,
2000
0000
0000
0000
,
3001
0200
0000
0300
,
0000
0020
0000
0030
,
0000
0200
0000
0300
,
0002
0000
2003
0000
,
3000
0200
0000
0300
,
0000
2000
0000
3000
,
0000
0002
0000
0003
,
0100
0010
0100
0001
,
2000
0100
0000
3100
,
0020
0001
0000
0031
,
0200
0010
0000
0310
,
2000
0001
3002
0000
,
0013
0100
0010
0100
,
1000
0001
1000
0001
,
0100
0010
0100
0010
,
2000
0000
0000
0000
,
3001
0010
0001
0010
,
0001
1000
0001
1000
,
0100
0010
0100
0010
,
0001
0100
0010
1000
,
0100
0010
0100
0010
,
0001
0100
0001
0100
,
0010
1000
0100
0010
,
0002
0000
2003
0000
,
3001
0010
0001
1000
,
0001
0010
0001
1000
,
0100
0010
0100
1000
,
0100
0010
0100
1000
,
0010
0100
0010
1000
,
0010
0100
0001
0100
,
0010
0010
0100
0100
,
0002
0000
0000
0000
,
1003
0000
0000
0000
,
1000
0000
0000
0000
,
0001
0000
0000
0000
,
0001
0000
0000
0000
,
0010
0100
1000
0000
,
0100
0010
0001
0000
,
0010
0001
1000
0001
,
0020
0000
0032
0000
,
0103
0000
0000
0000
,
0010
1000
0100
1000
,
0010
1000
0100
1000
,
0010
0010
0100
0100
,
0001
0010
0100
0000
,
0010
0001
1000
0001
,
0010
0001
1000
0001
,
0020
0000
0032
0000
,
2003
0000
3020
0000
,
0030
0100
0001
1000
,
0001
0100
0001
1000
,
0100
0010
0100
1000
,
0010
0100
0010
1000
,
2002
3003
0220
0330
,
2002
3003
0110
0110
,
1001
0100
0010
0001
,
2000
0000
0000
3010
,
2002
0000
0000
0000
0000
3003
0000
0220
,
0000
0000
0000
0000
,
0000
0000
0000
0000
,
0000
0000
0000
0000
,
0330
0000
0000
0000
;

//---------------dance-single - ----------------
#NOTES:
     dance-single:
     :
     Medium:
     10:
     0.424,0.430,0.214,0.236,0.015:
1000
0001
0010
0000
0100
0010
0001
0000
,
0010
0001
0100
0000
0001
0100
0010
1000
,
0100
0000
0001
0000
0100
1000
0001
0000
,
0201
0000
0320
0000
,
0130
0100
0100
0100
,
0100
0100
0100
0100
,
0100
0100
0100
0100
,
1001
0001
2001
0000
,
3001
0010
0001
0000
1000
0100
1000
0000
,
0010
0100
0010
0000
0100
0010
0100
0000
,
0001
1000
0010
0000
0100
0001
1000
0000
,
0200
0000
0000
1300
,
0110
0000
0002
0000
0000
0010
0013
0000
,
0100
0000
2000
0000
0000
0010
3010
0000
,
0100
0000
0002
0000
0000
0010
0013
0000
,
0200
0000
0000
1300
0001
0100
0001
0000
,
1000
0000
0020
0000
0000
0100
0130
0000
,
0001
0000
0020
0000
0000
0001
0031
1000
,
0001
0000
0020
0000
0000
0100
0130
0000
,
2000
0001
0001
3001
,
1000
0100
0010
0000
0100
1000
1000
0000
,
0010
0100
0001
0000
0100
0010
0010
0000
,
0100
0001
1000
0000
0100
0010
0010
0000
,
0001
1000
0010
0000
0200
0000
0010
0000
,
0310
0000
1000
0100
1000
0100
0010
0000
,
0101
0000
0100
0001
0100
0001
1000
0000
,
0001
1000
0100
0000
0010
0001
1000
0010
,
0200
0000
0000
0000
0000
0000
0310
0100
,
0010
1001
0110
1001
,
0001
0010
0100
1000
0010
0000
0100
0001
,
0010
0011
1100
0011
,
0100
1000
0001
0010
0100
0000
0010
0001
,
1000
1001
0101
1010
,
0010
0100
0001
0100
0010
0000
0100
0001
,
1000
1000
1000
0000
0100
0010
0100
0010
,
0002
0000
0000
0000
0000
0000
0000
0000
0103
0000
0000
0100
0000
0000
0100
0000
,
0001
0010
0100
0000
0010
0001
0100
0000
,
0010
1000
0100
0010
0001
1000
0100
0000
,
0010
0100
1000
0000
0100
1000
0001
0000
,
0010
0001
0100
0010
1000
0100
0010
0000
,
0100
1000
0001
0000
0010
0001
1000
0000
,
0100
0010
0001
1000
0010
0100
0001
0000
,
1000
0100
1000
0100
0010
0001
0010
0001
,
0200
0000
0000
0000
0000
0000
0000
0000
0010
0000
0000
0010
0000
0000
0310
0000
,
2001
0000
0000
0000
,
3200
0000
0000
0000
,
0320
0000
0000
0000
,
0032
0000
0000
0000
0000
0000
0000
0000
1000
0000
0000
1000
0000
0000
1003
0000
,
0001
0100
0001
0000
0100
0000
0010
0000
,
1000
0100
1000
0000
0100
0000
0010
0000
,
1000
0010
0100
0010
,
1001
1001
0110
0110
,
0102
0000
0000
1003
,
0001
1000
0100
0000
0010
0100
0010
0000
,
0001
0010
0100
1000
0001
0000
0101
0000
,
0100
0001
1000
0000
0100
1000
0100
0000
,
1000
0001
0010
0100
1000
0000
1100
0000
,
0010
0001
0100
0000
0001
0100
0001
0000
,
0100
0010
1000
0100
0010
0000
0100
1000
,
0001
0001
0001
0000
0010
0000
0010
0100
,
2000
0000
3002
0000
,
0003
0000
1001
0000
1000
0100
0010
0000
,
0100
1000
0001
0000
0010
0100
1000
0000
,
0001
0100
0010
0000
1000
0010
1000
0000
,
0001
0010
0100
1000
0010
0000
0100
0000
,
0220
0330
2002
3003
,
0220
0000
0000
0000
0330
0000
0000
0000
1001
0000
0000
1000
0000
0000
1000
0000
,
0010
0100
0010
0100
0001
0000
0010
0100
,
2000
0000
0000
3000
,
0110
0000
0010
0000
0010
0000
0010
2002
,
0000
0000
0000
0000
,
0000
0000
0000
0000
,
0000
0000
0000
0000
,
3003
0000
0000
0000
;

//---------------dance-single - ----------------
#NOTES:
     dance-single:
     :
     Hard:
     13:
     0.597,0.591,0.331,0.236,0.405: // measure 1
0001
0000
0100
0000
0001
0000
0100
0000
0010
1000
0000
0001
0000
1000
0010
0000
,  // measure 2
0100
0000
0001
0010
0000
0100
0000
0010
0001
0000
1000
0000
0100
0000
1000
0000
,  // measure 3
0001
0000
0000
0100
0000
0000
0010
0000
1000
0100
0000
0010
0000
0100
1000
0000
,  // measure 4
0100
0000
0000
0100
0000
0000
0100
0000
0020
0000
0000
0000
0032
0000
0000
0000
,  // measure 5
1003
0000
0000
1000
0000
0000
1000
0000
0100
0000
0000
0100
0000
0000
0100
0000
,  // measure 6
0010
0000
0000
0010
0000
0000
0010
0000
0001
0000
0000
0001
0000
0000
0001
0000
,  // measure 7
0100
0000
0000
0100
0000
0000
0100
0000
0010
0000
0000
0010
0000
0000
0010
0000
,  // measure 8
1001
0000
0000
0000
0000
0000
0000
0000
0110
0000
0000
0110
0000
0000
0110
0000
,  // measure 9
1000
0010
0100
1000
0100
0010
1000
0000
,  // measure 10
0001
0010
0100
0001
0100
0010
0001
0000
,  // measure 11
0010
0100
1000
0001
0100
1000
0100
0001
,  // measure 12
0020
0000
0000
0130
,  // measure 13
1001
0000
0000
0000
1100
0000
0000
1100
0000
0000
1100
0000
0020
0000
0000
0000
,  // measure 14
0130
0000
0000
0000
0011
0000
0000
0011
0000
0000
0011
0000
0200
0000
0000
0000
,  // measure 15
0310
0000
0000
0000
1100
0000
0000
1100
0000
0000
1100
0000
0020
0000
0000
0000
,  // measure 16
0130
0000
0000
0110
0000
0000
0110
0000
0001
0000
0010
0000
0100
0000
1000
0000
,  // measure 17
0001
0000
0000
0000
0101
0000
0000
0101
0000
0000
0101
0000
0020
0000
0000
0000
,  // measure 18
0130
0000
0000
0000
1010
0000
0000
1010
0000
0010
1000
0000
0100
0000
0010
0000
,  // measure 19
0002
0000
0000
0000
0103
0000
0000
0101
0000
0000
0101
0000
0020
0000
0000
0000
,  // measure 20
0130
0001
0010
0000
0100
1000
0010
1000
,  // measure 21
0100
0000
0010
0000
0100
0000
0000
1000
0010
0000
0100
0000
0020
0000
0000
0000
,  // measure 22
1030
0000
0001
0000
0010
0000
0000
0100
0010
0000
0001
0000
2000
0000
0000
0000
,  // measure 23
3010
0000
0100
0000
0001
0000
0000
1000
0001
0000
1000
0000
0100
0000
0010
0000
,  // measure 24
0100
0000
0000
1000
0010
0000
0100
0000
0001
0000
0010
0000
0100
0000
1000
0000
,  // measure 25
0001
0100
1000
0100
0001
0010
1200
0000
,  // measure 26
1300
0000
0010
0000
1000
0000
0100
0000
0010
0100
1000
0000
0010
0000
0010
0000
,  // measure 27
0100
0000
0001
0000
0010
0000
0100
0010
0000
0001
0100
0000
0010
0100
0010
0100
,  // measure 28
0002
0000
0000
0000
0000
0000
1003
0010
,  // measure 29
0100
0000
0010
0000
1000
0100
1000
0000
0001
0010
0001
0000
1000
0100
1000
0000
,  // measure 30
0001
0100
1000
0100
0001
0010
0100
1000
,  // measure 31
0001
0010
1000
0010
0001
0100
1000
0100
,  // measure 32
0001
0100
0010
0001
0010
0100
0001
0010
,  // measure 33
0100
0000
1000
0000
0001
0100
0001
0000
1000
0010
1000
0000
0001
0100
0001
0000
,  // measure 34
1000
0010
0001
0010
1000
0100
0010
0100
,  // measure 35
1000
0000
1000
0000
0001
0000
0001
1000
0000
0100
0010
0000
0001
0100
0001
0100
,  // measure 36
0020
0000
0000
0000
0000
0000
0000
0000
0130
0000
0000
0110
0000
0000
0110
0000
,  // measure 37
0001
0000
1000
0000
0001
0100
0001
0000
1000
0010
1000
0000
0001
0100
0001
0000
,  // measure 38
1000
0100
0010
0200
0000
0000
1300
0000
,  // measure 39
0001
0000
0100
0000
0010
0100
0010
0000
1000
0100
1000
0000
0001
0010
0001
0000
,  // measure 40
1000
0100
0010
0200
0000
0000
1300
0000
,  // measure 41
0010
0000
1000
0000
0001
0010
0001
0000
1000
0100
1000
0000
0001
0010
0001
0000
,  // measure 42
1000
0000
0010
0000
0100
0000
0001
1000
0100
0000
0010
0000
0001
0100
0001
0000
,  // measure 43
1000
0000
0010
1000
0000
0001
1000
0000
0100
0010
0100
0010
0001
0000
0001
0000
,  // measure 44
2000
0000
0000
0000
0000
0000
0000
0000
0001
0000
0000
0001
0000
0000
3001
0000
,  // measure 45
0110
0100
0100
0100
,  // measure 46
1001
0001
0001
0001
,  // measure 47
1100
0100
0100
0100
,  // measure 48
0011
0000
0000
0000
0010
0000
0000
0000
0110
0000
0000
0110
0000
0000
0110
0000
,  // measure 49
1000
0010
0100
0001
1000
0100
1000
0000
,  // measure 50
0100
0001
0100
1000
0001
0010
0100
0000
,  // measure 51
0010
0000
0000
0001
0000
0000
1000
0000
0010
1000
0000
0001
0000
1000
0010
0000
,  // measure 52
0100
0000
0000
0001
0000
0000
1000
0000
0200
0000
0000
0000
0320
0000
0000
0000
,  // measure 53
0230
0000
0300
1001
,  // measure 54
0001
0000
0100
0000
1000
0000
0100
0000
0001
0010
0000
0100
0000
0010
0001
0000
,  // measure 55
1000
0000
0010
0100
0000
0001
0000
0100
0010
0000
0100
0000
0001
0000
1000
0000
,  // measure 56
0100
0000
0010
0000
0001
0000
1000
0000
0001
0100
0000
0010
0000
0100
0001
0000
,  // measure 57
1000
0000
0100
1000
0000
0100
1000
0000
0001
0000
0000
0000
0010
0000
0100
0000
,  // measure 58
1000
0000
0010
0000
0001
0000
0010
0000
1000
0001
0000
0010
0000
0001
1000
0000
,  // measure 59
0001
0000
0010
0100
0000
1000
0000
0100
0010
0000
0100
0000
1000
0000
0001
0000
,  // measure 60
0100
0000
0010
1000
0000
0010
1000
0000
0001
0010
0000
0001
0000
0100
0010
0000
,  // measure 61
2002
0000
0000
0000
3000
0000
0000
0000
0100
0000
0000
0100
0000
0000
0103
0000
,  // measure 62
0000
0000
0000
0000
1001
0000
0000
0000
0001
1000
0000
0100
0000
1000
0001
0000
,  // measure 63
0010
0000
0100
0010
0000
0001
0000
0100
0010
0000
0100
0000
0001
0000
0010
0000
,  // measure 64
0001
0000
0100
0000
1000
0000
0100
0000
0001
1000
0000
0100
0000
0010
0100
0000
,  // measure 65
1000
0000
0100
1000
0000
0100
1000
0000
0001
0000
0000
0000
0100
0000
0010
0000
,  // measure 66
2002
3003
0220
0330
,  // measure 67
2002
0000
0000
0000
3003
0000
0000
0000
0110
0000
0000
0110
0000
0000
0110
0000
,  // measure 68
1000
0000
0001
0010
0000
0100
0010
0000
0001
0100
0000
0010
0000
1000
0100
0000
,  // measure 69
0022
0000
0000
0033
,  // measure 70
1001
0000
0000
0000
0100
0000
0000
0000
0100
0010
0100
0010
0100
0000
2002
0000
,  // measure 71
0000
0000
0000
0000
,  // measure 72
0000
0000
0000
0000
,  // measure 73
0000
0000
0000
0000
,  // measure 74
3003
0000
0000
0000
;

//---------------dance-single - ----------------
#NOTES:
     dance-single:
     :
     Challenge:
     16:
     0.792,0.780,0.243,0.177,1.000: // measure 1
1000
0000
0010
0000
1000
0000
1000
0000
0001
0010
0000
0100
0000
1000
0010
1000
,  // measure 2
0001
0000
0010
0100
0000
0100
0000
1000
0010
0100
0000
0100
0010
1000
0100
0010
,  // measure 3
0100
0000
1000
0100
0000
0100
0010
0000
0001
1000
0000
0100
0000
0010
0100
1000
,  // measure 4
0001
0000
0000
0000
0000
0000
0100
0000
0000
0001
0000
0000
0000
0000
0000
0001
0000
0000
0010
0000
0000
0000
0000
0000
0200
0000
0000
0000
0000
0000
0000
0000
0000
0000
0000
0000
1300
0000
0000
0000
0001
0000
0000
0000
1000
0000
0000
0000
,  // measure 5
0010
0000
0100
0000
0010
1000
0000
0100
0000
0000
0100
0000
0000
0010
0000
0010
,  // measure 6
0100
0000
0000
0000
0000
0000
1000
0000
0000
0000
0000
0000
0001
0000
0000
0010
0000
0000
0000
0000
0000
0001
0000
0000
0000
0000
0000
0000
0000
0000
0100
0000
0000
0000
0000
0000
0010
0000
0000
0000
0010
0000
0000
0000
0010
0000
0000
0000
,  // measure 7
1000
0000
0100
0000
1000
0001
0000
0100
0000
0000
0001
0000
0000
0010
0000
0010
,  // measure 8
0100
0000
1000
0000
0001
0100
0000
0001
1000
0000
0000
1001
0000
0000
1001
0000
,  // measure 9
0001
0000
1000
0000
0100
0010
0000
0010
0001
0000
1000
0000
0010
0100
0000
0100
,  // measure 10
0001
0000
0000
0000
0000
0000
1000
0000
0000
0000
0000
0000
0100
0000
0000
0010
0000
0000
0000
0000
0000
0010
0000
0000
0001
0000
0000
0000
0000
0000
1000
0000
0000
0000
0000
0000
0010
0000
0000
0000
1000
0000
0000
0000
1000
0000
0000
0000
,  // measure 11
1001
0001
0010
0100
1100
0010
0011
0100
,  // measure 12
1000
0100
1000
0001
1000
0100
0020
0000
0000
0031
0000
0000
,  // measure 13
1001
0000
0000
0000
0201
0000
0000
0010
0000
0000
0301
0000
0210
0000
0000
0000
,  // measure 14
0301
0000
0000
0000
1020
0000
0000
0100
0000
0000
1030
0000
0010
0100
0010
0100
,  // measure 15
0001
0000
0000
0000
1002
0000
0000
0100
0000
0000
1003
0000
0102
0000
0000
0000
,  // measure 16
2003
0000
0000
0100
0000
0000
3001
0000
1000
0100
0010
0001
0010
0100
1000
0001
,  // measure 17
0100
0000
0000
0000
0120
0000
0000
1000
0000
0000
0130
0000
1020
0000
0000
0000
,  // measure 18
0130
0000
0000
0000
0201
0000
0000
0310
0000
1000
0100
1000
0001
0000
0010
0000
,  // measure 19
1200
0000
0000
0000
2300
0000
0000
0001
0000
0000
3100
0000
1002
0000
0000
0000
,  // measure 20
0103
0000
0010
0000
1000
0100
0000
0010
0000
0010
0000
0100
1000
0010
0100
0001
,  // measure 21
0010
0000
0100
0000
1000
0010
0000
0010
0100
0000
0001
0010
0200
1000
0000
1300
,  // measure 22
0010
0000
1000
0000
0001
0010
0000
0010
0100
0000
1000
0010
0100
0001
0100
0001
,  // measure 23
1000
0000
0100
0000
1000
0100
0000
0100
0010
0000
0001
0100
0020
0000
0100
0000
,  // measure 24
0130
0001
0000
0001
1000
0000
0100
0000
0010
0100
1000
0001
0100
0010
0100
0001
,  // measure 25
1000
0000
0100
0000
0010
0001
0000
1000
0010
0000
1000
0000
0020
0100
0000
0130
,  // measure 26
0001
0000
0010
0000
0001
1000
0000
0010
0100
0001
0010
0100
0010
0001
0100
0000
,  // measure 27
1001
0000
0001
0000
0010
0100
0000
1000
0010
0100
0010
1000
0100
0010
0001
0000
,  // measure 28
0210
0000
0000
0000
0000
0000
0000
0000
0000
0000
0000
0000
0310
0100
0010
1000
,  // measure 29
0001
0010
0001
0000
1000
0100
1000
0000
0010
0100
0001
0000
0100
0010
1000
0000
,  // measure 30
0001
0010
0100
1000
0001
0000
0100
0010
0100
0000
0001
0010
0100
1000
0010
0000
,  // measure 31
0100
0001
0100
0000
0010
1000
0010
0000
1000
0100
0010
0000
0100
0010
0001
0000
,  // measure 32
0010
0001
0010
0001
1000
0010
1000
0010
0100
0001
0100
0001
1000
0100
1000
0100
,  // measure 33
0010
0100
1000
0000
0100
1000
0001
0000
0100
0001
1000
0000
0100
0010
0001
0000
,  // measure 34
1000
0010
0100
0001
0010
0000
0100
0010
0100
0000
0010
0001
0100
0010
1000
0000
,  // measure 35
0001
0010
0001
0010
0100
1000
0100
1000
0000
1000
0010
0000
0100
0001
0100
0010
,  // measure 36
2000
0000
0000
0000
0000
0000
3000
0000
1010
0000
0000
1010
0000
0000
1001
0000
,  // measure 37
0001
0010
0001
0000
1000
0100
1000
0000
0001
0100
0010
0000
0100
0010
1000
0000
,  // measure 38
0100
0010
0001
1000
0010
0000
0100
0010
0100
0000
0010
1000
0100
0010
0001
0000
,  // measure 39
1000
0010
1000
0000
0001
0100
0001
0000
1000
0100
0010
0000
0100
0010
0001
0000
,  // measure 40
0100
0010
0100
0010
1000
0100
1000
0100
0010
0001
0010
0001
0100
0000
0000
0000
,  // measure 41
0010
1000
0010
0000
0100
0001
0100
0000
0001
0010
0100
0000
1000
0100
0010
0000
,  // measure 42
0100
1000
0100
1000
0001
0000
0010
0100
1000
0001
0100
0001
1000
0100
0010
0001
,  // measure 43
1000
0010
1000
0001
0000
0001
0010
0000
0010
0100
0000
0100
1000
0001
0100
0001
,  // measure 44
2000
0000
0000
0000
0000
0000
0000
0000
3010
0000
0100
0001
0000
0001
1000
0000
,  // measure 45
0010
1000
0100
0001
,  // measure 46
0100
1000
0010
0001
,  // measure 47
0010
1000
0001
0010
,  // measure 48
0100
0000
0000
0000
1000
0000
0000
0000
0100
1000
0001
0100
0001
0000
0100
0010
,  // measure 49
1000
0000
0001
0000
0010
0000
0100
0000
1000
0010
0000
0010
0000
1000
0010
0100
,  // measure 50
0001
0000
0010
0100
0000
0100
0000
1000
0100
0010
0000
0001
1000
0010
0100
0001
,  // measure 51
0010
0000
0100
1000
0000
1000
0010
0000
0100
0001
0000
0010
0000
0001
0100
0010
,  // measure 52
1000
0000
0000
0000
0000
0000
0100
0000
0000
0010
0000
0000
0000
0000
0000
0010
0000
0000
0001
0000
0000
1000
0000
0000
0010
0000
0000
1000
0000
0000
0010
0000
0000
1000
0000
0000
0001
0000
0000
0000
0001
0000
0000
0000
0001
0000
0000
0000
,  // measure 53
0020
0000
0000
0130
,  // measure 54
1100
0000
0010
0000
1001
0000
1000
0000
0001
0010
0000
1000
0000
0010
0001
0100
,  // measure 55
0010
0000
1000
0001
0000
0010
0000
0001
0010
0100
0000
1000
0001
0100
0001
1000
,  // measure 56
0100
0000
0010
0000
0101
0000
0100
0000
0001
0010
0000
1000
0000
0010
0001
1000
,  // measure 57
0010
0000
0100
0001
0000
0001
1000
0000
1000
0100
0000
0100
0010
0001
1000
0010
,  // measure 58
0100
0000
0001
0000
1001
0000
1000
0000
0001
0010
0000
1000
0000
0010
0001
1000
,  // measure 59
0010
0000
1000
0001
0000
0010
0000
0100
1000
0010
0000
0100
0001
0010
0100
1000
,  // measure 60
0001
0000
0100
0010
0000
0010
1000
0000
0100
0010
0000
0010
0000
0001
0010
0100
,  // measure 61
2000
0000
0000
0010
0000
0000
3010
0000
0100
0001
0000
0100
0001
1000
0100
0010
,  // measure 62
0100
0000
0000
0000
1001
0000
0001
0000
0100
0010
0100
0001
0100
0010
0100
0001
,  // measure 63
0100
0000
0010
1000
0100
1000
0010
1000
0100
0010
0000
0001
0100
0001
0010
0100
,  // measure 64
1000
0000
0001
0000
0011
0000
0100
0000
1000
0010
0100
0010
1000
0010
0100
0010
,  // measure 65
1000
0000
0100
0010
0000
0010
0001
0000
0100
0010
0000
0010
1000
0001
0010
0000
,  // measure 66
1100
0010
0001
0000
0011
0100
1000
0000
,  // measure 67
0110
0000
1000
0000
0001
0000
0000
0000
1001
0000
0000
1001
0000
0000
1001
0000
,  // measure 68
1000
0100
1000
0001
0100
0001
1000
0100
0010
0001
1000
0010
0000
0010
1000
0100
,  // measure 69
0020
0000
0000
0000
0000
0000
0000
0000
0000
0001
0000
0000
0000
0000
0000
0000
0000
0000
0001
0000
0000
0000
0000
0000
0001
0000
0000
0000
0000
0000
0000
0000
0000
0000
0000
0000
0100
0000
0000
0000
0100
0000
0000
0000
0100
0000
0000
0000
,  // measure 70
0130
0000
1000
0000
0001
0000
0100
0010
1000
0100
0010
0100
1000
0001
0200
0000
,  // measure 71
0000
0000
0000
0000
,  // measure 72
0000
0000
0000
0000
,  // measure 73
0000
0000
0000
0000
,  // measure 74
0300
0000
0000
0000
;

//---------------dance-single - ----------------
#NOTES:
     dance-single:
     :
     Beginner:
     3:
     0.122,0.180,0.059,0.000,0.000:
0010
0000
0000
0000
,
0100
0000
0000
0000
,
0010
0000
0000
0000
,
0100
0000
0000
0000
,
1001
0000
0000
0000
,
0000
0000
0000
0000
,
0000
0000
0000
0000
,
1001
0000
0000
0000
,
0001
0000
0000
0000
,
1000
0000
0000
0000
,
0100
0000
0010
0000
,
0100
0000
0000
0000
,
0010
0000
0000
0000
,
0010
0000
0000
0000
,
0001
0000
0000
0000
,
0001
0000
0000
0000
,
1000
0000
0000
0000
,
1000
0000
0000
0000
,
0010
0000
0000
0000
,
0100
0000
0000
0000
,
0001
0000
1000
0000
,
0001
0000
1000
0000
,
0100
0000
1000
0000
,
0100
0000
1000
0000
,
0010
0000
0010
0000
,
0100
0000
0100
0000
,
0001
0000
1000
0000
,
1001
0000
0000
0000
,
0001
0000
0100
0000
,
0010
0000
0010
0000
,
0100
0000
0001
0000
,
1000
0000
1000
0000
,
0100
0000
0010
0000
,
0001
0000
0001
0000
,
0100
0000
0010
0000
,
1000
0000
0000
0000
,
0001
0000
0001
0000
,
1000
0000
1000
0000
,
0100
0000
0010
0000
,
0001
0000
1000
0000
,
0010
0000
0010
0000
,
0100
0000
0100
0000
,
0001
0000
1000
0000
,
0100
0000
0000
0000
,
1001
0000
0000
0000
,
0000
0000
0000
0000
,
0000
0000
0000
0000
,
0000
0000
0001
0000
,
1001
0000
0000
0000
,
1001
0000
0000
0000
,
0110
0000
0010
0000
,
0100
0000
0000
0000
,
0001
0000
0000
0000
,
1000
0000
0100
0000
,
0010
0000
0001
0000
,
1000
0010
1000
0000
,
0001
0000
0000
0000
,
1000
0000
0100
0000
,
0010
0000
0001
0000
,
1000
0010
1000
0000
,
0001
0000
0000
0000
,
0010
0000
0100
0000
,
1000
0000
0001
0000
,
0100
0010
0100
0010
,
0100
0000
0000
0000
,
0001
0000
1000
0000
,
0010
0000
0100
0000
,
0001
1000
0001
1000
,
0001
0000
0000
0000
,
0010
0000
0000
0000
0000
0000
0000
0110
;
