#VERSION:0.83;
#TITLE:Midnight Lady;
#SUBTITLE:;
#ARTIST:Dirty Androids;
#TITLETRANSLIT:;
#SUBTITLETRANSLIT:;
#ARTISTTRANSLIT:;
#GENRE:;
#ORIGIN:;
#CREDIT:DigiMindAxel;
#BANNER:Midnight Lady.png;
#BACKGROUND:Midnight Lady-bg.png;
#PREVIEWVID:;
#JACKET:Midnight Lady-jacket.png;
#CDIMAGE:;
#DISCIMAGE:;
#LYRICSPATH:;
#CDTITLE:beatmania IIDX.png;
#MUSIC:Midnight Lady.ogg;
#OFFSET:2.303000;
#SAMPLESTART:16.414991;
#SAMPLELENGTH:12.000000;
#SELECTABLE:YES;
#BPMS:0.000=128.000;
#STOPS:;
#DELAYS:;
#WARPS:;
#TIMESIGNATURES:0.000=4=4;
#TICKCOUNTS:0.000=4;
#COMBOS:0.000=1;
#SPEEDS:0.000=1.000=0.000=0;
#SCROLLS:0.000=1.000;
#FAKES:;
#LABELS:0.000=Song Start;
#BGCHANGES:3.000=Midnight Lady.avi=1.000=1=0=1===CrossFade==,
99999=-nosongbg-=1.000=0=0=0 // don't automatically add -songbackground-
;
#KEYSOUNDS:;
#ATTACKS:
;

//---------------dance-single - ----------------
#NOTEDATA:;
#CHARTNAME:;
#STEPSTYPE:dance-single;
#DESCRIPTION:;
#CHARTSTYLE:;
#DIFFICULTY:Easy;
#METER:4;
#RADARVALUES:0.173663,0.235674,0.053519,0.160557,0.000000,159.000000,152.000000,7.000000,21.000000,0.000000,0.000000,0.000000,0.000000,0.000000,0.173663,0.235674,0.053519,0.160557,0.000000,159.000000,152.000000,7.000000,21.000000,0.000000,0.000000,0.000000,0.000000,0.000000;
#CREDIT:;
#NOTES:
0000
0000
0000
0000
,
0000
0000
0000
0000
,
0000
0000
0000
0000
,
0000
0000
0000
0000
,
0000
0000
0000
0000
,
0000
0000
0000
0000
,
0000
0001
0000
0001
,
0000
1000
0000
1000
,
0000
0010
0000
0010
,
0000
0100
0100
0000
,
0001
1000
0001
0000
,
0010
0000
0100
0000
,
1000
0010
1000
0000
,
0010
0000
0100
0000
,
0001
1000
0001
0000
,
0010
0000
0100
0000
,
1000
0010
1000
0000
,
0001
1000
0001
1000
,
0100
1000
0100
0000
,
0020
0000
0032
0000
,
0103
0010
0100
0000
,
0020
0000
2030
0000
,
3001
1000
0001
0000
,
0020
0000
0230
0000
,
1300
0010
1000
0000
,
0001
0010
0100
1000
,
0020
0000
0000
0000
,
0230
0000
0000
0000
,
0302
0000
0000
0000
,
2003
0000
0000
3000
,
0200
0000
0000
0000
,
0320
0000
0000
0000
,
0032
0000
0000
0000
,
2003
0000
0000
3000
,
2002
0000
0000
3003
,
0001
0100
0001
0000
,
1000
0100
0010
0001
,
1000
0010
1000
0000
,
0001
0010
0100
1000
,
0010
0100
0010
0000
,
0100
0001
1000
0100
,
0010
0001
0010
0000
,
0001
1000
0010
0100
,
0001
1000
0001
1000
,
0100
0010
0001
0000
,
0100
0010
0100
0010
,
1000
0100
0010
0000
,
0001
0000
0100
0000
0001
0000
0000
1001
,
0000
0000
0000
1001
0000
0000
0000
0000
,
0100
0010
0100
0010
,
0001
0100
0010
0000
,
2000
0000
0000
0000
,
0000
0000
0000
0000
,
3002
0000
0000
0000
,
0000
0000
0000
0000
,
2003
0000
0000
0000
,
0000
0000
0000
0000
,
3001
0001
0100
0100
,
0010
0100
0010
0000
,
1001
0001
0010
0100
,
1000
0001
1000
0000
,
0010
0100
0001
1000
,
0010
0100
0010
0000
,
1000
0000
0100
0000
0010
0000
0000
1001
,
0000
0000
0000
1001
0000
0000
0000
0000
,
0010
0100
0010
0100
,
0001
0010
0100
0000
,
2002
0000
0000
0000
,
0000
0000
3003
0000
;

//---------------dance-single - ----------------
#NOTEDATA:;
#CHARTNAME:;
#STEPSTYPE:dance-single;
#DESCRIPTION:;
#CHARTSTYLE:;
#DIFFICULTY:Medium;
#METER:10;
#RADARVALUES:0.372448,0.471348,0.252303,0.389923,0.026759,341.000000,308.000000,33.000000,51.000000,0.000000,0.000000,0.000000,0.000000,0.000000,0.372448,0.471348,0.252303,0.389923,0.026759,341.000000,308.000000,33.000000,51.000000,0.000000,0.000000,0.000000,0.000000,0.000000;
#CREDIT:;
#NOTES:
0000
0000
0000
0000
,
0000
0000
0000
0000
,
0000
0000
0000
0000
,
0000
0000
0000
0000
,
0000
0000
0000
0000
,
0000
0000
0000
0000
,
0002
0100
0000
0103
,
0020
0130
0002
2003
,
3200
1000
0000
1300
,
0020
0000
0130
0000
2002
0000
0000
3003
,
0001
0100
0001
0100
0010
0000
0110
0000
,
0001
1000
0001
1000
0100
0010
0001
1000
,
0010
0100
0010
0100
0001
0000
1001
0000
,
0010
0001
0010
0001
1000
0001
1000
0000
,
0010
0100
0010
0100
0001
0000
1001
0000
,
1000
0100
1000
0100
0010
0001
1000
0000
,
0010
0100
0010
0100
0001
0000
1001
0000
,
0100
1000
0100
1000
0010
0100
0001
0000
,
1001
0000
1000
0100
0010
0001
0100
0000
,
0002
0203
0320
2030
,
3002
0000
0000
2000
0000
0000
3003
0000
,
0001
1000
0001
1000
0100
0010
0100
1000
,
0020
0000
0000
0200
0000
0000
0330
0000
,
0002
0023
0230
2300
,
3002
0000
0000
0200
0000
0000
0303
0000
,
0010
1000
0010
1000
0001
0010
0100
0000
,
2001
0100
0001
3100
,
0020
0000
0000
0032
0000
0000
0103
0000
,
0020
0000
0100
0000
0130
0002
0000
2003
,
0000
0000
0000
3200
0000
0000
0310
0000
,
0002
0000
0100
0000
0103
0020
0000
0000
,
2030
0000
0000
3002
0000
0000
0013
0000
,
0200
0000
1000
0000
1300
0002
0000
0013
,
0200
1000
1000
1300
,
1001
1001
1001
1001
,
0101
0000
0010
1000
0100
1000
0010
0000
,
0100
0001
0001
0000
0010
0100
1000
0100
,
0010
0000
0001
0100
0010
0100
0001
0000
,
0100
0000
0010
0000
0000
0000
0010
0000
1000
0000
0000
0100
0000
0000
0010
0000
,
1001
0000
0001
0010
0100
0010
0001
0000
,
0100
0010
0010
0000
0100
0001
0010
0100
,
1000
0000
1001
0000
0001
1000
0010
1000
,
0001
0000
0000
0000
1000
0000
0100
0000
1000
0000
0000
0010
0000
0000
0100
0000
,
1001
0000
0001
1000
0010
1000
0001
0000
,
1000
0001
0010
0100
1000
0000
1010
0000
,
0101
0000
0001
1000
0010
1000
0001
0000
,
0010
0100
1000
0001
0100
0000
0101
0000
,
1001
0000
0100
1000
0010
0100
0000
2002
,
0000
0000
3003
0220
0000
0000
0330
0000
,
1001
0000
1000
0100
0010
0100
1000
0001
,
0010
0100
0010
0001
0100
0010
1000
0000
,
1002
0010
0000
0010
,
0000
0010
0000
0013
,
0200
1000
0000
1000
,
0000
0000
0000
0000
1000
0000
0000
0000
0000
1000
0000
0000
1300
0000
0010
0000
,
0200
0001
0000
0001
,
0000
0000
0001
0000
0000
0000
0301
1000
,
0010
0000
0100
0001
0100
0001
1000
0100
,
0010
0010
0001
0001
2200
0000
3300
0000
,
1001
0000
0001
0010
0100
1000
0001
0100
,
0000
0100
0001
0100
0010
0000
1001
0000
,
1000
0000
0100
0000
0010
0000
0001
0000
1000
0000
0000
0010
0000
0000
1001
0000
,
0000
0100
0010
0100
0010
1000
0100
0010
,
0001
0000
0010
0000
0100
0000
1000
0000
1001
0000
0000
0001
0000
0000
0220
0000
,
0000
0000
0330
2002
0000
0000
3003
0000
,
1001
0000
0001
0100
0010
0100
0001
0010
,
0100
0000
1000
0000
0000
0010
0000
0000
0101
0000
0000
0100
0000
0000
0010
0000
,
2002
0000
0000
0000
,
0000
0000
3003
0000
;

//---------------dance-single - ----------------
#NOTEDATA:;
#CHARTNAME:;
#STEPSTYPE:dance-single;
#DESCRIPTION:;
#CHARTSTYLE:;
#DIFFICULTY:Hard;
#METER:13;
#RADARVALUES:0.575601,0.654650,0.129974,0.412860,0.554303,527.000000,510.000000,17.000000,54.000000,0.000000,0.000000,0.000000,0.000000,0.000000,0.575601,0.654650,0.129974,0.412860,0.554303,527.000000,510.000000,17.000000,54.000000,0.000000,0.000000,0.000000,0.000000,0.000000;
#CREDIT:;
#NOTES:
// measure 0
0000
0000
0000
0000
,  // measure 1
0000
0000
0000
0000
,  // measure 2
0000
0000
0000
0000
,  // measure 3
0000
0000
0000
0000
,  // measure 4
0000
0000
0000
0000
,  // measure 5
0000
0000
0000
0000
,  // measure 6
1000
0000
0010
0000
1000
0000
0001
0020
0000
0000
0031
0000
0000
0100
0010
0000
,  // measure 7
0200
0301
0020
0230
,  // measure 8
1300
0000
0010
0000
1000
0000
0001
0020
0000
0000
0031
0000
0000
0100
0010
0000
,  // measure 9
0000
0000
1000
0000
0000
0100
0000
0000
0020
0000
0000
0000
0130
0000
0000
0000
,  // measure 10
1001
0000
0100
0001
0100
0001
0100
0002
0000
0000
1003
0000
0000
0100
0010
0000
,  // measure 11
0001
0000
1000
0000
0100
0000
0001
0000
0100
0000
1000
0000
0002
1000
0000
1003
,  // measure 12
0000
0000
0010
0001
0010
0001
0010
0002
0000
0000
1003
0000
0000
0010
0100
0000
,  // measure 13
0001
1000
0010
0001
0010
1000
0200
0000
,  // measure 14
0310
0000
0001
0100
0001
0100
0001
0200
0000
0000
0310
0000
0000
1000
0100
0000
,  // measure 15
1000
0000
0001
0000
0010
0000
1000
0000
0010
0000
0001
0000
0200
0010
0000
0310
,  // measure 16
0000
0000
1000
0100
1000
0100
1000
0200
0000
0000
0310
0000
0000
0001
0100
0000
,  // measure 17
0001
1000
0010
0001
0010
1000
0100
0000
,  // measure 18
1001
0000
0010
1000
0010
1000
0010
0200
0000
0000
0301
0000
0000
1000
0100
0000
,  // measure 19
1000
0000
0000
1000
0001
0000
0000
0001
0100
0000
0000
0100
0010
0000
0000
0010
,  // measure 20
1000
0000
0100
1000
0100
1000
0100
0020
0000
0000
0031
0000
0000
0100
0010
0000
,  // measure 21
0100
0000
0002
0000
0000
2003
0000
0000
3001
0000
0010
0000
0100
0000
0010
0000
,  // measure 22
0001
0000
1000
0010
1000
0010
1000
0002
0000
0000
0013
0000
0000
0100
1000
0000
,  // measure 23
0010
0000
0000
0010
0100
0000
0000
0100
0001
0000
0000
0001
1000
0000
0000
1000
,  // measure 24
0010
0000
0100
0010
0100
0010
0100
0002
0000
0000
1003
0000
0000
0100
1000
0000
,  // measure 25
0010
0001
0010
1000
0100
0010
0100
0000
,  // measure 26
1001
0010
0100
1000
0010
0001
0010
1000
,  // measure 27
0001
0010
0001
0200
0000
0000
0320
0000
,  // measure 28
1030
0010
0100
0010
1000
0010
0001
0010
,  // measure 29
1000
0100
0010
0002
0000
0000
0203
0000
,  // measure 30
0310
1000
0100
1000
0001
0010
1000
0010
,  // measure 31
0001
0010
0100
2000
0000
0000
3020
0000
,  // measure 32
0130
0001
1000
0100
0001
0100
1000
0001
,  // measure 33
0010
0100
1000
0001
0010
1000
0010
0001
,  // measure 34
0110
0000
0000
0000
0110
0000
0000
0000
0110
0000
0000
0000
0100
0010
0100
0001
,  // measure 35
1000
0000
0001
0000
0010
0001
0010
0001
0010
0000
0100
1000
0000
0100
2000
0000
,  // measure 36
0000
0000
3100
0000
0010
0000
0001
0000
1000
0100
1000
0001
0000
0001
0100
0000
,  // measure 37
0010
0000
1000
0000
0001
0010
0001
0010
0001
0000
1000
0010
0000
1000
0020
0000
,  // measure 38
0000
0000
0130
0001
0000
0001
0010
0000
0100
0000
0010
0001
0000
0001
1000
0000
,  // measure 39
0100
0000
1000
0000
0001
0100
0001
0100
0001
0000
1000
0100
0000
1000
0200
0000
,  // measure 40
0000
0000
0310
0000
0001
0000
0100
0000
0001
1000
0000
0100
0000
0010
0002
0000
,  // measure 41
0000
0000
1003
0000
0010
1000
0010
1000
0010
0000
1000
0001
0000
1000
0002
0000
,  // measure 42
0000
0000
0013
0000
0100
0000
1000
0000
0001
0100
0001
1000
0000
1000
0100
0000
,  // measure 43
1001
0000
0000
0000
1000
0010
1000
0010
1000
0000
0001
0010
0000
0001
0020
0000
,  // measure 44
0000
0000
0031
0010
0100
1000
0001
0200
0000
0000
0301
1000
0000
1000
0100
0000
,  // measure 45
1000
0000
0001
0000
0010
0100
0010
0100
0010
0000
0001
0100
0000
0001
0200
0000
,  // measure 46
0000
0000
0310
0000
1000
0100
1000
0100
1000
0000
0001
0100
0000
0100
0010
0000
,  // measure 47
0100
0000
0010
0000
1000
0001
1000
0001
1000
0000
0001
0010
0000
0001
0020
0000
,  // measure 48
0000
0000
0031
0100
0010
1000
0200
0000
0000
0000
1300
0100
0010
0001
1000
0000
,  // measure 49
0001
0000
0100
0000
0010
0100
0010
0100
0010
0000
1000
0001
0010
0100
0010
0001
,  // measure 50
1000
0000
0010
1000
0000
1000
0001
0000
0001
0010
0000
0010
0100
0000
0000
0000
,  // measure 51
1001
0000
1000
0000
0010
0000
1000
0000
0002
0000
0000
0010
0000
0000
0023
0000
,  // measure 52
0000
0000
0000
0230
0000
2300
0000
0000
,  // measure 53
0000
0000
3001
0000
0010
0000
0100
0000
2000
0000
0000
0010
0000
0000
3020
0000
,  // measure 54
0000
0000
0000
0130
0002
0000
0023
0000
,  // measure 55
0030
0000
0100
0000
0010
0000
0001
0000
2000
0000
0000
0010
0000
0000
3020
0000
,  // measure 56
0000
0000
0130
0002
0000
0013
0100
0010
,  // measure 57
0001
0000
0000
0000
1000
0000
0010
0000
0200
0000
0000
0302
0000
0000
1003
0000
,  // measure 58
0100
0000
0010
0000
0100
0000
0010
0000
0001
0000
0100
0010
0100
0001
1000
0000
,  // measure 59
1001
0000
0001
0000
0100
0001
0100
0001
0100
0000
0001
1000
0000
0100
2000
0000
,  // measure 60
0000
0000
3001
0100
0010
0100
0001
0000
1000
0000
0100
0010
0000
0010
0001
0000
,  // measure 61
1000
0000
0100
0000
1000
0000
0001
0000
0101
0000
0000
1010
0000
0000
1002
0000
,  // measure 62
0000
0000
1003
0000
0010
0100
0010
0000
1000
0000
0100
0000
0010
0000
0001
0000
,  // measure 63
1001
0000
1000
0000
0010
0000
0100
0000
0101
0000
0000
1010
0000
0000
2001
0000
,  // measure 64
0000
0000
3001
0010
0100
1000
0002
0000
0000
0000
1003
0100
0010
0001
1000
0000
,  // measure 65
0001
0000
0100
0000
0010
1000
0010
1000
0010
0000
1000
0001
0010
0100
0010
0001
,  // measure 66
1000
0000
0010
0100
0000
0100
0001
0000
0001
1000
0000
1000
0100
0000
0100
0000
,  // measure 67
2002
0000
0000
0000
,  // measure 68
0000
0000
3003
0000
;

//---------------dance-single - ----------------
#NOTEDATA:;
#CHARTNAME:;
#STEPSTYPE:dance-single;
#DESCRIPTION:;
#CHARTSTYLE:;
#DIFFICULTY:Beginner;
#METER:2;
#RADARVALUES:0.088470,0.153676,0.030582,0.000000,0.000000,81.000000,77.000000,4.000000,0.000000,0.000000,0.000000,0.000000,0.000000,0.000000,0.088470,0.153676,0.030582,0.000000,0.000000,81.000000,77.000000,4.000000,0.000000,0.000000,0.000000,0.000000,0.000000,0.000000;
#CREDIT:;
#NOTES:
0000
0000
0000
0000
,
0000
0000
0000
0000
,
0000
0000
0000
0000
,
0000
0000
0000
0000
,
0000
0000
0000
0000
,
0000
0000
0000
0000
,
0000
1000
0000
1000
,
0000
1000
0000
1000
,
0000
1000
0000
1000
,
0000
1000
0000
0000
,
0001
0000
0000
0000
,
0010
0000
0000
0000
,
0001
0000
0000
0000
,
0100
0000
0000
0000
,
0010
0000
0000
0000
,
0100
0000
0000
0000
,
0001
0000
0000
0000
,
1000
0000
0000
0000
,
0100
0000
0000
0000
,
1000
0000
0000
0000
,
0010
0000
0000
0000
,
0100
0000
0000
0000
,
0010
0000
0000
0000
,
0100
0000
0000
0000
,
0001
0000
0000
0000
,
1000
0000
0100
0000
,
0010
0000
0000
0000
,
0001
0000
0000
0000
,
0100
0000
0000
0000
,
0010
0000
0000
0000
,
1000
0000
0000
0000
,
0001
0000
0000
0000
,
1000
0000
0000
0000
,
0100
0000
0000
0000
,
1001
0000
0000
0000
,
1001
0000
0001
0000
,
0001
0000
0000
0000
,
1000
0000
1000
0000
,
1000
0000
0000
0000
,
0001
0000
0001
0000
,
0001
0000
0000
0000
,
1000
0000
1000
0000
,
1000
0000
0000
0000
,
1001
0000
0001
0000
,
0100
0000
0000
0000
,
0001
0000
0001
0000
,
1000
0000
0000
0000
,
0100
0000
0100
0000
,
0010
0000
0000
0000
,
0001
0000
0001
0000
,
1000
0000
1000
0000
,
0100
0000
0000
0000
,
0000
0000
0000
0000
,
0010
0000
0000
0000
,
0000
0000
0000
0000
,
0001
0000
0000
0000
,
0000
0000
0000
0000
,
1000
0000
1000
0000
,
1000
0000
0000
0000
,
1001
0000
0001
0000
,
1000
0000
0000
0000
,
0100
0000
1000
0000
,
0100
0000
0000
0000
,
0010
0000
0001
0000
,
0100
0000
0000
0000
,
0001
0000
0000
0000
,
1000
0000
0100
0000
,
0010
0000
0000
0000
;
