#TITLE:Midnight Amaretto;
#SUBTITLE:;
#ARTIST:かめりあ;
#TITLETRANSLIT:;
#SUBTITLETRANSLIT:;
#ARTISTTRANSLIT:Camellia;
#CREDIT:DigiMindAxel;
#BANNER:Midnight Amaretto.png;
#BACKGROUND:Midnight Amaretto-bg.png;
#LYRICSPATH:;
#CDTITLE:DANCERUSH.png;
#MUSIC:Midnight Amaretto.ogg;
#METERTYPE:DDR X;
#OFFSET:-8.893;
#SAMPLESTART:15.944;
#SAMPLELENGTH:12.000;
#SELECTABLE:YES;
#BPMS:0.000=135.000;
#STOPS:;
#BGCHANGES:;

//---------------dance-single - ----------------
#NOTES:
     dance-single:
     :
     Easy:
     4:
     0.208,0.228,0.095,0.124,0.000:
2000
0000
0000
0000
,
3002
0000
0000
0000
,
2003
0000
0000
0000
,
3002
0000
0003
0000
,
0100
0010
0100
0000
,
0001
0010
0100
1000
,
0010
0100
0010
0000
,
1000
0100
0010
0000
,
0001
1000
0001
0000
,
0100
0010
1000
0010
,
0100
0001
0100
0000
,
0002
0000
2003
0000
,
3001
0000
0001
0000
,
0001
0000
0001
0000
,
1000
0000
1000
0000
,
1000
0000
1000
0000
,
0100
0000
0010
0000
,
0100
0000
0010
0000
,
0001
0000
0100
0000
,
0001
0000
0000
0000
,
1000
0100
1000
0000
,
0100
0010
0001
0000
,
0100
0010
0100
0000
,
0010
0100
0001
0000
,
1000
0100
1000
0000
,
0100
0010
0001
0000
,
0010
0001
0010
0000
,
0001
1000
0020
0000
,
0130
0000
0000
0000
,
0000
0000
0000
0000
,
0000
0000
0000
0000
,
0000
0000
0000
0000
,
1001
0000
0001
0000
,
1000
0000
0001
0000
,
1000
0001
1000
0001
,
2000
0000
0000
0000
,
3010
0010
0110
0000
,
1001
0000
1001
0000
,
0001
0010
0100
0010
,
1001
0000
1001
0000
,
1000
0100
0010
0100
,
1001
0000
0110
0000
,
0001
0010
0100
1000
,
0010
0000
0110
0000
,
1000
0010
0100
0001
,
1000
1000
0100
0010
,
0002
0000
0000
0000
,
1003
1000
0010
0100
,
0002
0000
0000
0000
,
0013
0010
0100
1000
,
0010
0100
0010
0100
,
0001
1000
0100
0010
,
0002
0000
0000
0000
0103
0000
0000
2002
,
0000
3003
0000
0000
;

//---------------dance-single - ----------------
#NOTES:
     dance-single:
     :
     Medium:
     9:
     0.384,0.406,0.229,0.229,0.010:
0001
0010
0001
0000
,
1000
0100
1000
0000
,
0001
1000
0001
1000
,
0002
0000
0003
0000
,
0100
0010
0100
0000
0001
0000
0100
0000
,
1000
0100
0001
0000
0010
0000
0100
0000
,
0010
0001
0010
0000
0001
0010
1000
0000
,
0010
0002
2003
0000
,
3001
0000
0101
0000
0100
0010
1000
0000
,
0010
0100
0010
0000
0100
0001
0010
0000
,
1001
0000
1100
0000
0010
0001
1000
0000
,
0020
0000
0130
0100
,
1001
0001
0001
0001
,
1000
1000
1000
1000
,
0100
0010
0100
0010
,
0001
0001
0001
0001
,
0100
0020
2030
3020
,
0230
0000
0010
0000
,
0302
0023
0230
2300
,
3002
0000
0100
0103
,
1001
0000
0001
1000
0100
0000
0010
0000
,
0101
0000
0100
0001
0010
0000
0100
0000
,
1000
0010
1000
0010
0100
0000
0001
0000
,
2000
0010
0010
3010
,
0110
0000
0100
0001
0010
0000
0100
0000
,
1100
0000
1000
0100
0010
0000
0001
0000
,
0100
0001
0100
0001
1000
0000
0100
0000
,
0020
0100
0130
0110
,
1001
0000
0000
0000
,
0000
0000
0000
0000
,
0001
0000
0000
0000
,
1000
0000
0000
0000
,
1001
0001
0001
0001
,
0010
0100
1000
0010
,
0100
0001
0100
0001
1000
0100
1000
0100
,
0020
0000
0001
0001
,
0031
0011
1001
0000
,
1100
0000
0011
0000
0100
1000
0010
0000
,
0100
0001
0100
0001
1000
0100
1000
0000
,
1001
0000
0011
0000
0100
1000
0100
1000
,
0020
0230
0320
0030
,
1001
0000
1100
0000
0010
0001
0100
0000
,
0010
1000
0010
1000
0001
0010
0001
0000
,
1001
1100
0110
0011
,
0001
1000
0100
1000
0001
1000
0100
0000
,
1000
0001
1000
0001
0010
0100
0010
0100
,
2000
0000
0000
0000
,
3010
0100
0010
0100
0001
0010
0001
0010
,
0200
0000
0000
0000
,
1300
0001
1000
0001
0010
0100
1000
0001
,
1000
0100
0010
0001
1000
0010
1000
0000
,
0100
0010
0100
0010
0001
0100
0010
1000
,
0200
0000
0000
0000
0000
0000
0000
0000
0000
0000
0000
0000
1300
0000
0001
0000
1000
0000
0001
0000
0000
2002
0000
0000
,
0000
3003
0000
0000
;

//---------------dance-single - ----------------
#NOTES:
     dance-single:
     :
     Hard:
     11:
     0.509,0.457,0.343,0.362,0.377: // measure 1
1100
0100
0100
0100
,  // measure 2
0010
0001
0001
0001
,  // measure 3
0010
0100
0010
0100
1000
0010
0100
0001
,  // measure 4
0020
0000
0030
0000
,  // measure 5
0011
0000
0000
0100
0000
0000
1000
0000
0000
0000
0000
0000
0001
0000
0100
0000
0000
0001
0000
0000
1000
0000
0000
0000
,  // measure 6
0100
0001
0100
1000
0010
0100
0010
0000
,  // measure 7
1100
0000
0000
0010
0000
0000
0001
0000
0000
0000
0000
0000
1000
0000
0010
0000
0000
1000
0000
0000
0001
0000
0000
0010
,  // measure 8
0000
0200
2300
3010
,  // measure 9
0110
0000
0000
0000
0000
0000
1001
0000
0000
0000
0000
0000
0001
0000
1000
0000
0000
0100
0000
0000
1000
0000
0000
0001
,  // measure 10
0000
0000
0000
0010
0000
0000
1000
0000
0000
0010
0000
0000
0001
0000
0100
0000
0000
0001
0000
0000
0000
0000
0000
0000
,  // measure 11
1001
0000
0000
0000
0000
0000
0110
0000
0000
0000
0000
0000
1000
0000
0001
0000
0000
0010
0000
0000
0001
0000
0000
2000
,  // measure 12
0000
0000
0000
0000
0000
0000
3001
0010
0001
0100
0010
0100
,  // measure 13
0002
0010
0010
0013
,  // measure 14
0200
2300
3020
0130
,  // measure 15
0002
1000
1000
1003
,  // measure 16
0002
0023
0230
0310
,  // measure 17
1002
0000
0200
0300
2000
3000
0200
0303
,  // measure 18
0220
0330
1000
0100
,  // measure 19
0021
0000
0002
0003
0200
0300
0002
0033
,  // measure 20
0220
0330
0100
0010
,  // measure 21
1001
0000
0000
0001
0000
0000
0010
0000
0000
0100
0000
0000
1000
0000
0000
0000
0000
1000
0000
0000
0000
0000
0000
0000
,  // measure 22
0110
0000
0000
0000
0000
0000
0100
0000
0000
0010
0000
0000
1000
0000
0000
0000
0000
0100
0000
0000
0000
0000
0000
0000
,  // measure 23
0010
0001
1000
0001
0010
0100
1000
0000
,  // measure 24
1020
0100
1000
0130
,  // measure 25
1001
0000
0000
0000
0000
0000
0001
0000
0000
0010
0000
0000
0100
0000
0000
0000
0000
0100
0000
0000
0000
0000
0000
0000
,  // measure 26
1100
0000
0000
0000
0000
0000
0100
0000
0000
1000
0000
0000
0001
0000
0000
0000
0000
0100
0000
0000
0000
0000
0000
0000
,  // measure 27
0010
1000
0100
0001
0100
1000
0001
0000
,  // measure 28
0201
0000
0000
0010
0000
0000
0301
1000
0001
1000
0100
1000
,  // measure 29
0010
0010
0010
0010
,  // measure 30
0100
0100
0100
0100
,  // measure 31
0010
0010
0010
0010
,  // measure 32
2000
0001
0001
3001
,  // measure 33
1100
1100
0011
0011
,  // measure 34
0110
0110
1001
1001
,  // measure 35
0001
0000
0000
0010
0000
0000
0100
0000
0000
1000
0000
0000
0001
0000
0100
0000
0000
0010
0000
0000
0100
0000
0000
0010
,  // measure 36
1000
0100
0010
0001
1000
0010
0001
0010
,  // measure 37
1000
0100
1000
0010
0100
0010
2000
0000
0000
3000
0000
0000
,  // measure 38
1100
0000
0000
0010
0000
0000
0001
0000
0000
0000
0000
0000
1000
0000
0010
0000
0000
0100
0000
0000
0010
0000
0000
1000
,  // measure 39
0001
0000
0000
0010
0000
0000
1000
0000
0000
0010
0000
0000
0001
0000
1000
0000
0000
0100
0000
0000
0000
0000
0000
0000
,  // measure 40
0011
0000
0000
0100
0000
0000
1000
0000
0000
0000
0000
0000
0001
0000
0100
0000
0000
0010
0000
0000
0100
0000
0000
0001
,  // measure 41
0000
0200
0320
0130
,  // measure 42
1001
0000
0000
0000
0000
0000
0110
0000
0000
0000
0000
0000
1000
0000
0010
0000
0000
0100
0000
0000
0010
0000
0000
0200
,  // measure 43
0000
0000
0000
0301
0000
0000
1000
0000
0000
0100
0000
0000
0010
0000
0001
0000
0000
0100
0000
0000
0000
0000
0000
0000
,  // measure 44
0110
0000
0000
0000
0000
0000
1001
0000
0000
0000
0000
0000
0001
0000
1000
0000
0000
0100
0000
0000
1000
0000
0000
0020
,  // measure 45
0000
0000
0000
0130
0000
0000
0001
0000
0000
1000
0000
0000
0100
0000
0010
0000
0000
0100
0000
0000
0000
0000
0000
0000
,  // measure 46
1010
0000
0000
0100
0000
0000
0001
0000
0000
1000
0000
0000
0100
0000
0010
0000
0000
0001
0000
0000
0010
0000
0000
0001
,  // measure 47
0200
0010
0010
0310
,  // measure 48
1010
0000
0000
0100
0000
0000
0001
0000
0000
0010
0000
0000
0100
0000
1000
0000
0000
0010
0000
0000
1000
0000
0000
0010
,  // measure 49
0200
0010
0010
0310
,  // measure 50
1001
0000
0000
0100
0000
0000
0010
0000
0000
0001
0000
0000
1000
0000
0001
0000
0000
0100
0000
0000
0001
0000
0000
2000
,  // measure 51
0000
0000
0000
3001
0000
0000
0010
0000
0000
0100
0000
0000
0010
0000
0001
0000
0000
0100
0000
0000
0000
0000
0000
0000
,  // measure 52
1001
0000
0000
0010
0000
0000
0100
0000
0000
1000
0000
0000
0001
0000
1000
0000
0000
0010
0000
0000
1000
0000
0000
0002
,  // measure 53
0000
0000
0000
0000
0000
0000
0000
0000
0000
0000
0000
0000
0013
0000
0001
0000
1000
0000
0010
0000
0000
2020
0000
0000
,  // measure 54
0000
3030
0000
0000
;

//---------------dance-single - ----------------
#NOTES:
     dance-single:
     :
     Challenge:
     14:
     0.648,0.660,0.477,0.400,0.501: // measure 1
1100
0000
0100
0000
0100
1000
0100
0000
,  // measure 2
0010
0000
0010
0000
0010
0001
0010
0000
,  // measure 3
0001
0100
0010
1000
0100
1000
0001
0010
,  // measure 4
0100
0010
0001
1000
0020
0000
0030
0000
,  // measure 5
1001
0000
0000
0001
0000
0000
0011
0000
0000
0000
0000
0000
0100
0000
1000
0000
0000
0001
0000
0000
1000
0100
0000
1000
,  // measure 6
0100
0000
0000
0010
0000
0000
0011
0000
0000
0100
0000
0000
1000
0000
0001
0100
0000
0001
0100
0000
0010
0000
0000
0000
,  // measure 7
1001
0000
0000
1000
0000
0000
1100
0000
0000
0000
0000
0000
0010
0000
0001
0000
0000
1000
0000
0000
0010
0000
0000
0100
,  // measure 8
0002
0000
1003
0100
0020
0000
0130
0000
,  // measure 9
1010
0000
0000
0000
0000
0000
0201
0000
0000
0000
0000
0000
0310
0000
1000
0000
0000
0100
0000
0000
0010
0000
0000
0001
,  // measure 10
0200
0000
0000
0001
0000
0000
0301
0000
0000
1000
0000
0000
0100
0000
0010
0000
0000
0001
0000
0000
0100
0000
0000
0000
,  // measure 11
1001
0000
0000
0000
0000
0000
0120
0000
0000
0000
0000
0000
0130
0000
0001
0000
0000
0010
0000
0000
0001
0000
0000
0210
,  // measure 12
0000
0000
0000
0000
0000
0000
0301
1000
0100
0010
0001
1000
,  // measure 13
1001
0000
0100
1000
0100
0000
1000
0001
,  // measure 14
0020
0000
0230
0000
1300
0001
0100
0000
,  // measure 15
0001
0000
0001
0100
0001
0000
0100
0010
,  // measure 16
2000
0000
3200
0000
0310
0100
1000
0000
,  // measure 17
1200
0302
0203
2300
,  // measure 18
3001
0100
0000
0001
1000
0100
0010
0001
,  // measure 19
0201
2300
3200
0302
,  // measure 20
1003
0100
0000
1000
0001
0010
0100
1000
,  // measure 21
1001
0000
0000
0001
0000
0000
0100
0000
0000
0001
0000
0000
2000
0000
0000
0000
0000
3100
0000
0000
0000
0000
0000
0000
,  // measure 22
1001
0000
0000
1000
0000
0000
0100
0000
0000
1000
0000
0000
0002
0000
0000
0000
0000
0103
0000
0000
0000
0000
0000
0000
,  // measure 23
0001
0100
0010
0001
0010
0100
0001
1000
,  // measure 24
0100
0000
0000
0001
0000
0000
0100
0000
0000
1000
0000
0000
0010
0000
0100
0001
0000
0100
0001
0000
0000
0000
0000
0000
,  // measure 25
1001
0000
0000
1000
0000
0000
0010
0000
0000
1000
0000
0000
0002
0000
0000
0000
0000
0013
0000
0000
0000
0000
0000
0000
,  // measure 26
1001
0000
0000
0001
0000
0000
0100
0000
0000
0001
0000
0000
2000
0000
0000
0000
0000
3100
0000
0000
0000
0000
0000
0000
,  // measure 27
1000
0010
0100
1000
0100
0010
1000
0001
,  // measure 28
0200
0000
0000
0302
0000
0000
1003
0010
0100
0001
0100
0010
,  // measure 29
1000
0000
0000
0100
0000
0000
1000
0000
0000
0000
0000
0000
0001
0000
0100
0000
0000
0001
0000
0000
0100
0010
0000
0100
,  // measure 30
0010
1000
1000
0001
0001
1000
1000
0000
,  // measure 31
0001
0000
0000
0100
0000
0000
0001
0000
0000
0000
0000
0000
1000
0000
0100
0000
0000
1000
0000
0000
0010
0100
0000
0010
,  // measure 32
0100
0001
0001
1000
1000
0001
0001
0000
,  // measure 33
1001
0000
0011
0100
1001
0100
0011
0100
,  // measure 34
1001
0000
0101
0010
1100
0010
0101
0010
,  // measure 35
1001
0000
0000
1000
0000
0000
0001
0000
0000
0010
0000
0000
0100
0000
1000
0000
0000
0010
0000
0000
1000
0000
0000
0001
,  // measure 36
0010
0000
0001
0010
0000
0100
1000
0000
0100
1000
0000
0010
0100
0000
0010
0100
0000
0001
1000
0000
0001
1000
0000
0000
,  // measure 37
0001
0010
0100
1000
0100
0010
0022
0000
0000
0033
0000
0000
,  // measure 38
0011
0000
0000
0100
0000
0000
1001
0000
0000
0000
0000
0000
0001
0000
0100
0000
0000
0010
0000
0000
1000
0100
0000
1000
,  // measure 39
0200
0000
0000
1300
0000
0000
0020
0000
0000
0130
0000
0000
0001
0000
1000
0010
0000
1000
0010
0000
0100
0000
0000
0000
,  // measure 40
1010
0000
0000
0100
0000
0000
1001
0000
0000
0000
0000
0000
0001
0000
1000
0000
0000
0100
0000
0000
0010
0000
0000
0001
,  // measure 41
2000
0000
3001
0100
0020
0000
0130
0000
,  // measure 42
0101
0000
0000
0000
0000
0000
1001
0000
0000
0000
0000
0000
1000
0000
0001
0000
0000
0100
0000
0000
0010
0000
0000
1000
,  // measure 43
0002
0000
0000
0013
0000
0000
0200
0000
0000
0310
0000
0000
0001
0000
1000
0100
0000
1000
0100
0000
0010
0000
0000
0000
,  // measure 44
0101
0000
0000
0000
0000
0000
1001
0000
0000
0000
0000
0000
1000
0000
0001
0000
0000
0010
0000
0000
0100
0000
0000
1010
,  // measure 45
0000
0000
0000
0010
0000
0000
0101
0000
0000
0001
0000
0000
0010
0000
0100
0000
0000
2020
0000
0000
0000
3030
0000
0000
,  // measure 46
1001
0000
0000
0100
0000
0000
0011
0000
0000
0100
0000
0000
1000
0000
0010
0000
0000
0100
0000
0000
0001
0010
0000
0001
,  // measure 47
0020
0100
0100
0130
,  // measure 48
1001
0000
0000
0010
0000
0000
0101
0000
0000
0010
0000
0000
1000
0000
0100
0000
0000
0010
0000
0000
0001
0100
0000
0001
,  // measure 49
0200
0000
0010
0000
0010
0000
0310
0010
,  // measure 50
1001
0000
0000
0001
0000
0000
0110
0000
0000
0000
0000
0000
1000
0000
0010
0000
0000
0100
0000
0000
0001
0000
0000
1000
,  // measure 51
0200
0000
0000
1300
0000
0000
0020
0000
0000
0130
0000
0000
0001
0000
1000
0100
0000
1000
0100
0000
0010
0000
0000
0000
,  // measure 52
1001
0000
0000
1000
0000
0000
0110
0000
0000
0000
0000
0010
0100
0000
0001
0000
0000
0010
0000
0000
0100
0000
0000
1020
,  // measure 53
0000
0000
0000
0000
0000
0000
0000
0000
0000
0000
0000
0000
0130
0000
0100
0000
0100
0000
1001
0000
0000
2020
0000
0000
,  // measure 54
0000
3030
0000
0000
;

//---------------dance-single - ----------------
#NOTES:
     dance-single:
     :
     Beginner:
     1:
     0.071,0.125,0.019,0.000,0.000:
0001
0000
0000
0000
,
0001
0000
0000
0000
,
1000
0000
0000
0000
,
1000
0000
0000
0000
,
0100
0000
0000
0000
,
0010
0000
0000
0000
,
0100
0000
0000
0000
,
0010
0000
0000
0000
,
0001
0000
0000
0000
,
0100
0000
0000
0000
,
0001
0000
0000
0000
,
1000
0000
0000
0000
,
1001
0000
0000
0000
,
0000
0000
0000
0000
,
0000
0000
0000
0000
,
0000
0000
0000
0000
,
0001
0000
0000
0000
,
0010
0000
0000
0000
,
0001
0000
0000
0000
,
0010
0000
0000
0000
,
0100
0000
0000
0000
,
1000
0000
0000
0000
,
0010
0000
0010
0000
,
0010
0000
0000
0000
,
0100
0000
0000
0000
,
0001
0000
0000
0000
,
1000
0000
1000
0000
,
1000
0000
0000
0000
,
1001
0000
0000
0000
,
0000
0000
0000
0000
,
0000
0000
0000
0000
,
0000
0000
0000
0000
,
0001
0000
0000
0000
,
0010
0000
0000
0000
,
0001
0000
0000
0000
,
0010
0000
0000
0000
,
0100
0000
0000
0000
,
1000
0000
0000
0000
,
0010
0000
0000
0000
,
1000
0000
0000
0000
,
0010
0000
0000
0000
,
0100
0000
0000
0000
,
0001
0000
0000
0000
,
0100
0000
0000
0000
,
0010
0000
0000
0000
,
1000
0000
0000
0000
,
0100
0000
0000
0000
,
1000
0000
0000
0000
,
0100
0000
0000
0000
,
0010
0000
0000
0000
,
0001
0000
0000
0000
,
0010
0000
0000
0000
,
0100
0000
1000
0000
;
