#TITLE:猛烈宇宙交響曲・第七楽章「無限の愛」;
#SUBTITLE:;
#ARTIST:ももいろクローバーZ;
#TITLETRANSLIT:MOURETSU UCHUU KOUKYOKYOKU DAI NANA GAKUSHO "MUGEN NO AI";
#SUBTITLETRANSLIT:;
#ARTISTTRANSLIT:MOMOIRO CLOVER Z;
#CREDIT:DigiMindAxel;
#BANNER:MOURETSU UCHUU KOUKYOKYOKU DAI NANA GAKUSHO ''MUGEN NO AI''.png;
#BACKGROUND:MOURETSU UCHUU KOUKYOKYOKU DAI NANA GAKUSHO ''MUGEN NO AI''-bg.png;
#LYRICSPATH:MOURETSU UCHUU KOUKYOKYOKU DAI NANA GAKUSHO ''MUGEN NO AI''.lrc;
#CDTITLE:DigiMindAxel original simfile.png;
#MUSIC:MOURETSU UCHUU KOUKYOKYOKU DAI NANA GAKUSHO ''MUGEN NO AI''.ogg;
#METERTYPE:DDR X;
#OFFSET:-0.912;
#SAMPLESTART:42.279;
#SAMPLELENGTH:12.000;
#SELECTABLE:YES;
#BPMS:0.000=174.000,96.000=87.000,102.000=174.000;
#STOPS:178.000=0.8620689
,179.000=1.2068965
;
#BGCHANGES:-2.000=MOURETSU UCHUU KOUKYOKYOKU DAI NANA GAKUSHO ''MUGEN NO AI''.avi=1.000=1=1=0,
99999=-nosongbg-=1.000=0=0=0 // don't automatically add -songbackground-
;

//---------------dance-single - ----------------
#NOTES:
     dance-single:
     :
     Easy:
     7:
     0.345,0.441,0.323,0.100,0.000: // measure 1
0000
0000
0000
0000
,  // measure 2
0000
0000
0000
0000
,  // measure 3
0000
0000
0000
0000
,  // measure 4
0000
0000
0000
0000
,  // measure 5
0001
1000
0001
1000
,  // measure 6
0001
1000
0001
1000
,  // measure 7
0010
0100
0010
0100
,  // measure 8
0010
0100
0010
0000
,  // measure 9
1001
0000
1001
0000
,  // measure 10
1001
0000
0110
0000
,  // measure 11
0110
0000
0110
0000
,  // measure 12
1001
0000
0000
0000
,  // measure 13
1001
0000
0110
0000
,  // measure 14
0110
0000
0110
0000
,  // measure 15
1001
0000
1001
0000
,  // measure 16
0010
0100
0010
0000
,  // measure 17
1000
1000
1000
1000
,  // measure 18
0001
0001
0001
0001
,  // measure 19
0010
0100
1000
0001
,  // measure 20
1000
0001
1000
0100
,  // measure 21
0010
0000
0000
0000
,  // measure 22
1001
0001
0001
0001
,  // measure 23
1000
1000
1000
0001
,  // measure 24
0010
0100
1000
0010
,  // measure 25
0100
0000
0000
0100
0000
0000
0100
0000
,  // measure 26
0000
0100
0000
0000
0110
0000
0000
0000
,  // measure 27
1001
0000
0001
1000
,  // measure 28
0001
1000
0100
0000
,  // measure 29
0000
0000
1001
1000
,  // measure 30
0001
1000
0001
1000
,  // measure 31
0100
0010
0001
0100
,  // measure 32
0001
0100
0010
1000
,  // measure 33
0010
1000
0100
0010
,  // measure 34
0100
0010
0001
0000
,  // measure 35
1001
0000
1000
0100
,  // measure 36
1000
0000
0010
0000
0000
0100
0000
0000
,  // measure 37
0001
0010
0100
1000
,  // measure 38
0100
0000
1000
0000
0000
0001
0000
0000
,  // measure 39
1000
0100
0010
0001
,  // measure 40
0100
0001
0100
0010
,  // measure 41
1000
0100
0020
0000
,  // measure 42
0031
0010
0100
1000
,  // measure 43
0010
0000
0000
0220
0000
0000
0000
0000
,  // measure 44
0330
0000
0000
1001
0000
0000
1000
0000
,  // measure 45
0100
0000
0000
0000
0000
0000
0000
0000
0000
0000
0000
0000
0010
0000
0000
0000
0000
0000
0000
0000
0000
0000
0000
0000
2002
3003
0000
0000
0000
0000
0000
0000
0000
0000
0000
0000
2000
3000
0000
0000
0000
0000
0000
0000
0000
0000
0000
0000
,  // measure 46
0001
1000
0001
1000
,  // measure 47
0100
0010
0001
0100
,  // measure 48
0010
0100
0010
1000
,  // measure 49
0100
0010
1001
0000
,  // measure 50
0001
0010
0100
1000
,  // measure 51
0000
0110
0000
0000
0010
0000
0100
0000
,  // measure 52
0010
1000
0010
0100
,  // measure 53
0000
1001
0000
0000
1000
0000
0001
0000
,  // measure 54
1000
0100
0010
0001
,  // measure 55
0100
0010
1000
0100
,  // measure 56
0020
0000
0000
0000
0031
0000
0000
0110
,  // measure 57
0000
0000
1000
0001
,  // measure 58
0010
0100
1000
0010
,  // measure 59
0110
0000
0000
0000
1001
0000
0000
1001
,  // measure 60
0000
0000
0000
0000
0100
0000
0000
0220
,  // measure 61
0000
0000
0000
0000
,  // measure 62
0330
0000
0000
0000
;

//---------------dance-single - ----------------
#NOTES:
     dance-single:
     :
     Medium:
     10:
     0.529,0.645,0.401,0.423,0.078: // measure 1
0000
0000
0000
0000
,  // measure 2
0000
0000
0000
0000
,  // measure 3
0000
0000
0000
0000
,  // measure 4
0000
0000
0000
0000
,  // measure 5
2000
3200
0320
0032
,  // measure 6
0103
0110
0001
0101
,  // measure 7
0002
0023
0230
2300
,  // measure 8
3010
0110
1000
1010
,  // measure 9
0220
0330
2200
3300
,  // measure 10
0022
0033
0220
0330
,  // measure 11
2002
3003
2020
3030
,  // measure 12
0202
0303
1000
0001
,  // measure 13
0010
0000
0001
0010
0000
0000
0100
0000
1000
0100
0000
0000
,  // measure 14
0010
0000
0001
0010
0000
0000
0100
0000
1000
0100
0000
0000
,  // measure 15
1000
0000
0001
0100
0000
0000
0001
0000
1000
0010
0000
0000
,  // measure 16
0100
0001
0101
0000
,  // measure 17
0001
0000
1000
0100
0000
0000
1000
0000
0000
0001
0000
0000
,  // measure 18
0100
0000
0001
1000
0000
0000
0100
0000
0000
1000
0000
0000
,  // measure 19
0010
0000
0100
0010
0000
0000
1000
0000
0000
0100
0000
0000
,  // measure 20
1000
0000
0001
0100
0000
0000
0001
0000
1000
0100
0000
0000
,  // measure 21
0010
0010
0010
0010
,  // measure 22
0001
0000
0100
0010
0000
0000
1000
0000
0000
0100
0000
0000
,  // measure 23
0010
1100
0100
0011
,  // measure 24
0100
0000
1000
0001
0000
1000
0002
0000
0000
0000
0000
0000
,  // measure 25
0103
0001
0010
0100
1000
0010
0100
0001
,  // measure 26
0010
0100
0000
0000
1000
0100
1000
0000
,  // measure 27
0100
0010
0100
0000
1000
0100
1000
0100
,  // measure 28
1000
0001
0100
0000
0220
0000
0000
0000
,  // measure 29
0000
0000
0330
0000
1001
0000
1000
0100
,  // measure 30
1000
0000
0010
0000
0100
0010
1000
0000
,  // measure 31
0100
0000
0010
0000
0001
0100
0010
0000
,  // measure 32
0100
0000
0001
0010
0200
0000
0010
0000
,  // measure 33
0310
0000
0001
0000
1001
0000
0010
0100
,  // measure 34
0010
0000
0100
0001
0010
0000
0100
0000
,  // measure 35
2000
0000
0000
0000
3001
0000
0100
0001
,  // measure 36
0010
0000
0100
0000
0000
1001
0000
0000
,  // measure 37
0110
0000
0110
0000
1001
0000
0001
0100
,  // measure 38
0010
0000
0100
0010
0000
1001
0000
0000
,  // measure 39
0110
0000
0110
0000
1001
0000
1000
0010
,  // measure 40
1000
0000
0001
0100
0000
0010
0100
0010
,  // measure 41
0100
0010
0100
0010
2000
0000
0001
0000
,  // measure 42
3001
0000
0100
0010
0000
0000
1000
0000
,  // measure 43
0001
0000
1000
0100
0000
1000
0100
0010
,  // measure 44
0001
1000
0000
1001
0000
0001
0010
0100
,  // measure 45
1000
0000
0000
0000
0000
0000
0100
0000
0000
0000
0000
0000
0010
0000
0000
0000
0000
0000
0000
0000
0000
0000
0000
0000
2002
3003
0000
0000
0000
0000
0000
0000
0000
0000
0000
0000
2002
3003
0000
0000
0000
0000
0000
0000
0000
0000
0000
0000
,  // measure 46
1001
0000
1000
0100
1000
0000
0100
0010
,  // measure 47
0001
0000
0100
0001
0100
0000
0001
0100
,  // measure 48
0020
0000
1000
0000
1030
0000
0010
0100
,  // measure 49
0010
1000
0002
0000
,  // measure 50
0103
0000
0001
0010
0100
0000
1000
0010
,  // measure 51
0000
0110
0000
0000
0100
0000
0010
0000
,  // measure 52
0200
0000
0001
0000
0010
0000
0301
0100
,  // measure 53
0000
0110
0000
0000
0010
0000
0100
0000
,  // measure 54
0020
0000
1000
0000
0100
0000
1030
0010
,  // measure 55
0000
0100
0010
0100
0010
0100
0010
0100
,  // measure 56
0001
0000
0100
0010
0000
1000
0000
1100
,  // measure 57
0000
0000
1000
0000
0001
0000
1000
0010
,  // measure 58
0100
0001
0100
1000
,  // measure 59
0101
0000
0000
0000
0110
0000
0000
1001
,  // measure 60
0000
0000
0000
0000
0010
0100
0000
0220
,  // measure 61
0000
0000
0000
0000
,  // measure 62
0330
0000
0000
0000
;

//---------------dance-single - ----------------
#NOTES:
     dance-single:
     :
     Hard:
     13:
     0.693,0.713,0.334,0.378,0.434: // measure 1
0000
0000
0000
0000
,  // measure 2
0000
0000
0000
0000
,  // measure 3
0000
0000
0000
0000
,  // measure 4
0000
0000
0000
0000
,  // measure 5
1000
0000
0010
0100
0000
0000
0001
0000
0010
0100
0000
0000
,  // measure 6
1000
0000
0001
0100
0000
0001
0100
0000
0001
0100
0000
0001
,  // measure 7
1000
0000
0100
0010
0000
0000
0001
0000
0100
0010
0000
0000
,  // measure 8
1000
0000
0100
1000
0000
0100
1000
0000
0100
2000
0000
0000
,  // measure 9
3001
0010
0001
0010
0000
0000
0100
0010
0100
0010
0000
0000
,  // measure 10
0100
1000
0100
1000
0100
0010
0001
0010
0001
0100
0000
0000
,  // measure 11
0010
1000
0010
1000
0000
0000
0100
0010
0100
0010
0000
0000
,  // measure 12
0001
0100
0001
0100
0001
1000
0010
1000
0010
0100
0000
0000
,  // measure 13
0001
0100
0001
1000
0000
0000
0100
1000
0100
0010
0000
0000
,  // measure 14
0001
0100
0001
0100
0010
0100
0010
1000
0100
0010
0000
0000
,  // measure 15
0001
0100
0010
0100
0000
0000
0010
1000
0100
1000
0000
0000
,  // measure 16
0100
1000
0100
0010
0100
0010
0001
0000
0000
1001
0000
0000
,  // measure 17
1000
0000
1000
0001
0000
0001
0200
0000
0000
0010
0000
0000
,  // measure 18
0301
0000
0100
0010
0000
0010
2000
0000
0000
0100
0000
0000
,  // measure 19
3010
0000
1000
0001
0000
0001
0020
0000
0000
0100
0000
0000
,  // measure 20
0031
0000
1000
0001
0000
0001
0100
0000
0100
0010
0000
0010
,  // measure 21
1000
0100
0001
0100
,  // measure 22
1000
0001
1000
0010
0000
0100
0002
0000
0000
1003
0000
0000
,  // measure 23
0001
0010
0001
1000
0000
0000
0100
1000
0001
0100
0000
0000
,  // measure 24
0010
0100
0010
0100
0010
0100
0001
1000
0001
1000
0001
0010
,  // measure 25
0200
1000
0310
0002
1000
0103
0020
0001
,  // measure 26
0130
0002
1000
0103
0001
0010
1000
0010
,  // measure 27
0001
0000
1000
0000
0010
0000
0100
0000
0010
1000
0010
0000
0100
0010
0100
0000
,  // measure 28
0001
0100
0001
1000
0200
0000
0000
0020
,  // measure 29
0000
0000
0330
0000
0102
0000
0103
0010
,  // measure 30
0001
0010
1000
0001
0000
0102
0000
0000
,  // measure 31
0013
0100
1000
0000
0100
0001
0100
1000
,  // measure 32
0010
0100
0001
0020
0000
0000
0100
0000
,  // measure 33
0130
0000
1000
0000
2100
0000
3100
0010
,  // measure 34
1000
0010
0001
2000
0000
3001
0100
0010
,  // measure 35
0100
0000
0000
0100
0000
0000
0100
0000
0001
0000
0010
0000
1000
0000
0010
0000
,  // measure 36
0001
1000
0010
0100
0000
1001
0000
0000
,  // measure 37
0110
0000
0110
0000
0101
0000
0100
0010
,  // measure 38
1000
0100
0010
0001
0000
1001
0000
0000
,  // measure 39
0110
0000
0110
0000
1100
0000
0010
0100
,  // measure 40
0001
0010
0100
1000
0000
0100
0001
0100
,  // measure 41
1000
0100
0001
0100
2000
0000
3001
0100
,  // measure 42
0010
0100
0001
0200
0000
0310
1000
0100
,  // measure 43
0010
0001
0100
0110
0000
0100
0100
0001
,  // measure 44
0010
0100
1000
0110
0000
0001
0100
1000
,  // measure 45
0100
0000
0000
0000
0000
0000
0001
0000
0000
0000
0000
0000
1000
0000
0000
0000
0000
0000
0010
0000
0000
0000
0000
0000
0220
0330
0000
0000
0000
0000
0000
0000
0000
0000
0000
0000
2002
3003
0000
0000
0000
0000
0000
0000
0000
0000
0000
0000
,  // measure 46
0001
0010
1000
0010
0100
1000
0001
0200
,  // measure 47
0000
0000
0001
0000
0301
0000
1000
0001
,  // measure 48
0200
0000
0301
0010
1000
0010
0001
0200
,  // measure 49
0000
0000
0310
0000
1000
0000
0100
0000
0010
0000
0000
0010
0000
0000
0010
0000
,  // measure 50
0100
1000
0010
0100
1000
0100
0001
1000
,  // measure 51
0000
1001
0000
0000
1100
0000
1100
0000
,  // measure 52
0110
0000
0001
0100
1000
0001
0010
1000
,  // measure 53
0000
1001
0000
0000
0011
0000
0011
0000
,  // measure 54
0110
0000
1000
0100
0001
1000
0010
0001
,  // measure 55
0000
0100
1000
0100
0001
0100
1000
0100
,  // measure 56
0001
0010
0100
1000
0100
0010
0001
0201
,  // measure 57
0000
0000
0310
0000
1000
0100
0001
0100
,  // measure 58
1100
0000
0100
1000
0010
0100
0001
0100
,  // measure 59
0220
0000
0330
0000
0220
0330
0000
2002
,  // measure 60
0000
0000
3003
0000
0100
0100
0000
2002
,  // measure 61
0000
0000
0000
0000
,  // measure 62
3003
0000
0000
0000
;

//---------------dance-single - ----------------
#NOTES:
     dance-single:
     :
     Beginner:
     3:
     0.146,0.200,0.267,0.000,0.000: // measure 1
0000
0000
0000
0000
,  // measure 2
0000
0000
0000
0000
,  // measure 3
0000
0000
0000
0000
,  // measure 4
0000
0000
0000
0000
,  // measure 5
1000
0000
1000
0000
,  // measure 6
1000
0000
0000
0000
,  // measure 7
0001
0000
0001
0000
,  // measure 8
0001
0000
0000
0000
,  // measure 9
1001
0000
0000
0000
,  // measure 10
0000
0000
0000
0000
,  // measure 11
0110
0000
0000
0000
,  // measure 12
0000
0000
0000
0000
,  // measure 13
1001
0000
0000
0000
,  // measure 14
0000
0000
0000
0000
,  // measure 15
0110
0000
0000
0000
,  // measure 16
0000
0000
0000
0000
,  // measure 17
1000
0000
0000
0000
,  // measure 18
1000
0000
0000
0000
,  // measure 19
1000
0000
0000
0000
,  // measure 20
1000
0000
0000
0000
,  // measure 21
1001
0000
0000
0000
,  // measure 22
0001
0000
0000
0000
,  // measure 23
0001
0000
0000
0000
,  // measure 24
0001
0000
0000
0000
,  // measure 25
0110
0000
0000
0000
,  // measure 26
0000
0000
0110
0000
,  // measure 27
0000
0000
0100
0000
,  // measure 28
0000
0000
0010
0000
,  // measure 29
0000
0000
1001
0000
,  // measure 30
0000
0000
0000
0000
,  // measure 31
0000
0000
1000
0000
,  // measure 32
0001
0000
1000
0000
,  // measure 33
0001
0000
1001
0000
,  // measure 34
0000
0000
0000
0000
,  // measure 35
0000
0000
0001
0000
,  // measure 36
1000
0000
0001
0000
,  // measure 37
0000
0000
0110
0000
,  // measure 38
0100
0000
0010
0000
,  // measure 39
0000
0000
1001
0000
,  // measure 40
1000
0000
0001
0000
,  // measure 41
0000
0000
1001
0000
,  // measure 42
0001
0000
1000
0000
,  // measure 43
0000
0000
0110
0000
,  // measure 44
0000
0000
0110
0000
,  // measure 45
0000
0000
0110
0000
,  // measure 46
1001
0000
0001
0000
,  // measure 47
1000
0000
0001
0000
,  // measure 48
1001
0000
1000
0000
,  // measure 49
0001
0000
1000
0000
,  // measure 50
0110
0000
0100
0000
,  // measure 51
0010
0000
0000
0000
,  // measure 52
0110
0000
0010
0000
,  // measure 53
0100
0000
0000
0000
,  // measure 54
1001
0000
0001
0000
,  // measure 55
1000
0000
0000
0000
,  // measure 56
0110
0000
0100
0000
,  // measure 57
0100
0000
0000
0000
,  // measure 58
0110
0000
0010
0000
,  // measure 59
0010
0000
0000
0000
0000
0000
0000
1001
,  // measure 60
0000
0000
0000
0000
0000
0000
0000
1001
;

//---------------dance-single - ----------------
#NOTES:
     dance-single:
     :
     Challenge:
     14:
     0.779,0.916,0.356,0.445,0.684:
0000
0000
0000
0000
,
0000
0000
0000
0000
,
0000
0000
0000
0000
,
0000
0000
0000
0000
,
1000
0000
1000
0001
0000
0001
0100
0000
0100
0010
0000
0010
,
1000
0100
1000
0100
1000
0100
0010
0001
0010
0001
0010
0001
,
0100
0000
0100
0010
0000
0010
1000
0000
1000
0100
0000
0100
,
0010
0001
0010
0001
0010
0001
0100
0010
0100
0010
1000
0100
,
0010
0001
0100
0002
0000
0000
0013
0100
1000
0200
0000
0000
,
1300
0100
1000
0100
0010
0001
0010
0001
0100
0010
0000
0000
,
1000
0001
0010
0002
0000
0000
1003
0100
1000
0020
0000
0000
,
0130
0001
0100
0001
1000
0100
1000
0100
0010
0001
0000
0000
,
0010
0001
0010
0200
0000
0000
1300
0100
1000
0020
0000
0000
,
0130
0001
0100
0001
0010
0100
0010
0100
1000
0010
0000
0000
,
0100
0001
0100
0020
0000
0000
1030
0100
1000
0002
0000
0000
,
0013
0100
0010
0100
1000
0010
0100
0000
0000
1001
0000
0000
,
0001
0100
0001
1000
0100
0010
0001
0000
0001
1000
0000
1000
,
0010
0100
0010
1000
0100
0010
0001
0000
0001
0010
0000
0010
,
0100
1000
0001
1000
0100
1000
0001
0000
0001
0100
0000
0100
,
0010
0000
0010
1000
0000
1000
0001
0000
0001
1000
0100
0010
,
0002
0100
0103
1001
,
0001
0100
0001
1000
0001
0100
0001
0000
0001
1000
0000
1000
,
0001
0010
0100
2000
0000
0000
3100
0010
0001
0200
0000
0000
,
0301
1000
0100
1000
0001
0100
0010
1000
0001
0010
0001
1000
,
0001
0010
0100
1000
0010
0000
0100
0001
1000
0100
0010
0000
0100
1000
0001
0100
,
1000
0100
0001
0010
0100
0010
0001
0000
1000
0010
1000
0010
1000
0000
0000
0000
,
0001
1000
0001
1000
0001
0000
0000
0000
0010
0001
0010
0000
0100
0010
0100
0000
,
1000
0010
1000
0010
1000
0010
1000
0000
0002
0000
0000
0000
0000
0000
2000
0000
,
0000
0000
3003
0000
0001
0100
0010
0001
,
0010
0100
0001
1000
0000
1020
0000
0000
,
0130
0001
1000
0010
0100
1000
0100
0010
,
1000
0001
0010
0200
0000
0000
1000
0000
,
0310
0000
0001
1000
0100
0010
1000
0010
,
0100
1000
0001
0201
0000
0000
0301
0000
,
1001
0000
0000
1001
0000
0000
1001
0000
1000
0000
0001
0000
0100
0000
1000
0000
,
0100
0010
1000
0001
0000
0102
0000
0000
,
1000
0000
1003
0000
0001
0100
1000
0001
,
0010
1000
0001
0010
0000
2001
0000
0000
,
0100
0000
3100
0000
1000
0100
0001
1000
,
0010
0001
1000
0100
0000
0020
0001
0031
,
0020
0001
0031
1000
0010
0100
1000
0100
,
0010
1000
0000
1020
0000
0000
1030
0100
,
0001
0100
1000
1001
0000
1001
0101
0000
,
0101
0110
0000
1020
0000
0130
0001
0010
,
0100
0000
0000
0000
0000
0000
1000
0000
0000
0000
0000
0000
0010
0000
0000
0000
0000
0000
1000
0000
0000
0000
0000
0000
2002
3003
0000
0000
0000
0000
0000
0000
0000
0000
0000
0000
0220
0330
0000
0000
0000
0000
0000
0000
0000
0000
0000
0000
,
0001
0100
0010
0001
0010
0100
0001
2000
,
0000
0000
0001
0000
3100
0000
1001
1000
,
0001
0010
0100
0001
0100
0010
0001
2001
,
0000
0000
0000
0000
3100
0000
0000
0000
0011
0000
0000
0011
0000
0000
0011
0000
,
1001
1000
0010
0100
1000
0100
0010
1000
,
0000
1002
0000
0000
0100
0000
0103
0000
,
0001
1000
0100
0001
1000
0010
0001
1000
,
0000
2001
0000
0000
0010
0000
3010
0000
,
1000
0001
0100
1000
0001
0010
1000
0001
,
0000
0020
1000
1030
0002
0010
0013
0100
,
1000
0010
0001
0010
1000
0100
0010
0102
,
0000
0000
1003
0000
1000
0001
0010
0001
,
1000
0100
0001
0100
1000
0001
0010
0100
,
2020
0000
3000
0000
0200
0000
0330
2002
,
0000
0000
3003
0000
1001
0011
0000
2200
,
0000
0000
0000
0000
,
3300
0000
0000
0000
;
