#TITLE:もっと、HOT!がモットー!;
#SUBTITLE:;
#ARTIST:Chubbiness;
#TITLETRANSLIT:MOTTO, HOT! GA MOTTO!;
#SUBTITLETRANSLIT:;
#ARTISTTRANSLIT:;
#CREDIT:DigiMindAxel;
#BANNER:MOTTO, HOT! GA MOTTO!.png;
#BACKGROUND:MOTTO, HOT! GA MOTTO!-bg.png;
#LYRICSPATH:MOTTO, HOT! GA MOTTO!.lrc;
#CDTITLE:DigiMindAxel original simfile.png;
#MUSIC:MOTTO, HOT! GA MOTTO!.ogg;
#METERTYPE:DDR X;
#OFFSET:-0.764;
#SAMPLESTART:45.392;
#SAMPLELENGTH:12.000;
#SELECTABLE:YES;
#BPMS:0.000=145.000;
#STOPS:;
#BGCHANGES:-2.000=MOTTO HOT! GA MOTTO!.avi=1.000=1=1=0,
99999=-nosongbg-=1.000=0=0=0 // don't automatically add -songbackground-
;

//---------------dance-single - ----------------
#NOTES:
     dance-single:
     :
     Easy:
     7:
     0.240,0.312,0.182,0.064,0.000:
0000
0000
0000
0000
,
0000
0000
0000
0000
,
0000
0000
0000
0000
,
0000
0000
0000
0000
,
1000
0100
1000
0000
,
0001
1000
0001
0000
,
0010
0001
0100
0010
,
2000
0000
0000
0000
,
3001
1000
0001
0000
,
1000
0001
1000
0000
,
0100
0010
0001
0000
,
0100
0010
1000
0000
,
0001
0000
1000
0000
,
0100
0010
0001
0000
,
1000
0000
0001
0000
,
0100
0010
1000
0000
,
0001
0001
1000
0000
,
0100
0100
0010
0000
,
0001
0001
1000
0000
,
0010
0010
0100
0000
,
0001
1000
0100
0000
,
0010
0001
1000
0000
,
0001
1000
0001
1000
,
0100
0010
0001
0100
,
0020
0000
0100
0000
,
0200
0000
0000
0000
,
0330
0000
0000
0000
,
1001
1001
1001
1000
,
0001
0010
0000
0000
,
1001
1001
1001
0001
,
1000
0100
0000
0000
,
0010
0100
0010
0000
,
0001
0010
0001
0000
,
0100
0010
0100
0010
,
1000
0100
0010
0000
,
1001
1001
1001
0001
,
1000
0100
0000
0000
,
1001
1001
1001
1000
,
0001
0100
0000
0000
,
0001
1000
0100
0000
,
0010
0001
1000
0000
,
0100
0010
0100
0010
,
0002
0000
0000
0000
,
1003
0000
0000
0000
,
1001
1000
0001
0010
,
0100
1000
0001
0000
,
1001
1000
0001
0100
,
0010
1000
0100
0000
,
1001
0000
1001
0000
,
0110
0000
0000
0000
,
0010
0100
0001
0010
,
0200
0000
0000
0000
,
2000
0000
0000
0000
,
3300
0000
0000
0000
;

//---------------dance-single - ----------------
#NOTES:
     dance-single:
     :
     Medium:
     9:
     0.406,0.453,0.460,0.289,0.011: // measure 1
0000
0000
0000
0000
,  // measure 2
0000
0000
0000
0000
,  // measure 3
0000
0000
0000
0000
,  // measure 4
0000
0000
0000
0000
,  // measure 5
1100
0100
0110
0010
,  // measure 6
0011
0001
0000
1000
0000
0000
0000
0000
,  // measure 7
1001
1000
0100
0010
,  // measure 8
0001
1000
0000
0100
0000
0000
0000
0000
,  // measure 9
1001
1001
0110
0000
,  // measure 10
0010
0100
0010
0000
0010
1000
0010
0000
,  // measure 11
0100
0001
0010
0100
,  // measure 12
1000
0001
1000
0000
0001
1000
0001
0000
,  // measure 13
0101
0101
0110
0000
,  // measure 14
0010
1000
0010
0000
1000
0001
1000
0000
,  // measure 15
0100
0010
0001
0010
,  // measure 16
0100
1000
0010
0000
,  // measure 17
0101
0101
1001
1001
,  // measure 18
1100
1100
1001
0000
,  // measure 19
0101
0101
0110
0110
,  // measure 20
1010
1001
1001
0000
,  // measure 21
1000
0100
0010
0000
0001
0000
0000
0000
,  // measure 22
1000
0100
0010
0000
0001
0000
0000
0000
,  // measure 23
1100
1100
1001
1001
,  // measure 24
0001
0100
0001
0100
0001
0000
1000
0100
,  // measure 25
0020
0032
0203
0320
,  // measure 26
0230
0302
2003
3200
,  // measure 27
0000
0000
0000
0300
,  // measure 28
1001
0000
1001
0000
1000
0001
0100
0010
,  // measure 29
1000
0000
0010
1000
0000
0001
0000
0000
,  // measure 30
0110
0000
0110
0000
0010
0100
1000
0010
,  // measure 31
0100
0000
0001
1000
0000
0100
0000
0000
,  // measure 32
2000
3020
0230
0301
,  // measure 33
2000
3200
0320
0031
,  // measure 34
1000
0100
1000
0000
0001
0010
0001
0000
,  // measure 35
0100
0010
0100
0001
1000
0000
0000
0000
,  // measure 36
1001
0000
1001
0000
0001
0100
0010
0100
,  // measure 37
0001
0000
0100
0001
0000
1000
0000
0000
,  // measure 38
1001
0000
1001
0000
1000
0100
0010
0100
,  // measure 39
1000
0000
0100
1000
0000
0001
0000
0000
,  // measure 40
0020
0230
2300
3002
,  // measure 41
0203
0320
0130
0000
,  // measure 42
0001
0000
0000
0100
0000
0000
0010
0000
1000
0000
0000
0010
0000
0000
0100
0000
,  // measure 43
0002
0000
0000
0000
,  // measure 44
1003
0000
0000
0000
,  // measure 45
0011
0000
0011
0000
1001
0000
1000
0100
,  // measure 46
0000
1000
0100
0000
0010
0000
0000
0000
,  // measure 47
0101
0000
0101
0000
1001
0000
1000
0010
,  // measure 48
0000
1000
0010
0000
0100
0000
0000
0000
,  // measure 49
0001
0001
0000
0000
1000
1000
0000
0000
,  // measure 50
0001
1000
0001
1000
0000
0000
0000
0000
,  // measure 51
0200
0320
0032
0203
,  // measure 52
0301
1000
0000
0001
0000
0000
0000
0000
,  // measure 53
0220
0000
0000
0000
,  // measure 54
0330
0000
0000
0000
;

//---------------dance-single - ----------------
#NOTES:
     dance-single:
     :
     Hard:
     11:
     0.512,0.510,0.385,0.235,0.134:
0000
0000
0000
0000
,
0000
0000
0000
0000
,
0000
0000
0000
0000
,
0000
0000
0000
0000
,
0001
0010
0100
0000
1000
0100
0010
0000
,
0001
0100
0010
1000
0000
0001
1001
0000
,
2000
3200
0320
0032
,
1003
0020
0000
0200
0000
0000
0330
0000
,
1100
0000
0000
0000
0011
0000
0000
0000
1001
0000
0000
1001
0000
0000
1000
0000
,
0100
0000
0001
0000
0100
0000
1000
0000
0010
0000
0000
0010
0000
0000
0100
0000
,
0000
0000
0001
0000
0100
0000
0010
0000
1000
0000
0000
1000
0000
0000
0002
0000
,
0000
1003
0100
0001
0100
1000
0010
0000
,
0101
0000
0000
0000
1010
0000
0000
0000
1001
0000
0000
1001
0000
0000
0001
0000
,
0010
0000
1000
0000
0010
0000
0001
0000
0100
0000
0000
0100
0000
0000
0000
0000
,
0010
1000
0100
0010
0001
0100
1000
0100
,
0001
0000
0010
0100
0000
1000
0010
0000
,
0101
0000
0000
0001
0000
0000
1000
0000
0100
0000
0000
0100
0000
0000
1000
0000
,
0001
0010
0100
0010
0001
0100
0010
0000
,
1000
0000
0000
1000
0000
0000
0010
0000
0100
0000
0000
0100
0000
0000
0001
0000
,
1000
0010
0100
0010
1000
0000
1001
0000
,
0001
0000
0100
0000
0001
1000
0000
0200
0000
0000
0000
0000
0300
0000
0000
0000
,
1000
0000
0100
0000
1000
0010
0000
0200
0000
0000
0000
0000
0300
0000
0000
0000
,
0001
0010
0100
0010
0000
0001
0100
0001
,
1000
0100
0001
0100
1000
0010
0100
0001
,
1001
1100
0011
1001
,
1010
0101
0110
2001
,
0020
0000
0000
3030
,
1000
0000
0010
0100
0000
0000
0100
0000
0001
0000
1000
0000
0010
0000
0001
0000
,
0020
0000
1030
0100
0000
0110
0000
0000
,
0001
0000
0010
0100
0000
0000
0100
0000
1000
0000
0001
0000
0100
0000
1000
0000
,
0200
0000
0301
0010
0000
0110
0000
0000
,
0100
1000
0100
1000
0000
0010
0100
0010
,
0100
0001
0010
0100
1100
0000
1001
0000
,
0001
0000
0100
0010
0000
0000
0010
0000
1000
0000
0010
0100
0000
0000
0100
0000
,
0001
0010
0100
0010
0001
1000
0010
0000
,
1000
0000
0100
0010
0000
0000
0010
0000
0001
0000
0100
0000
1000
0000
0100
0000
,
0001
0000
0010
0100
0000
1100
0000
0000
,
1000
0000
0010
0100
0000
0000
0100
0000
0001
0000
0010
0000
1000
0000
0010
0000
,
0001
0000
0100
0010
0000
1010
0000
0000
,
0100
0001
0100
0001
0000
0010
0100
0000
,
1000
0010
1000
0010
0110
0000
0101
0000
,
0002
0000
0000
1000
0000
0000
1003
0000
0200
0000
0000
1000
0000
0000
1300
0000
,
0020
0000
0000
0000
0000
0000
0000
0030
,
1000
0100
0010
0001
1000
0100
0010
0000
,
0011
0000
1001
0000
1010
0000
1000
0001
,
0000
0000
0001
0000
0010
0000
0000
0000
0100
0010
0100
0000
1000
0010
1000
0000
,
1001
0000
1100
0000
0011
0000
0100
1000
,
0000
0000
1000
0000
0010
0000
0000
0000
0100
0010
0100
0000
0001
0100
0001
0000
,
1000
0100
0010
0000
0001
0010
0100
0000
,
1000
0010
0100
0001
0000
1000
1001
0000
,
0002
0023
2030
3020
,
0031
0100
0000
0100
0001
0010
1100
0000
,
2002
0000
0000
0000
,
3003
0000
0000
0000
;

//---------------dance-single - ----------------
#NOTES:
     dance-single:
     :
     Beginner:
     1:
     0.092,0.139,0.086,0.000,0.000:
0000
0000
0000
0000
,
0000
0000
0000
0000
,
0000
0000
0000
0000
,
0000
0000
0000
0000
,
0001
0000
0000
0000
,
1000
0000
0000
0000
,
0100
0000
0000
0000
,
0000
0000
0000
0000
,
1000
0000
0000
0000
,
1000
0000
0000
0000
,
1000
0000
0000
0000
,
1000
0000
0000
0000
,
0001
0000
0000
0000
,
0001
0000
0000
0000
,
0001
0000
0000
0000
,
0001
0000
0000
0000
,
1000
0000
0000
0000
,
0100
0000
0000
0000
,
0010
0000
0000
0000
,
0001
0000
0000
0000
,
1001
0000
0000
0000
,
1001
0000
0000
0000
,
1000
0000
0000
0000
,
0010
0000
0000
0000
,
0100
0000
0000
0000
,
0100
0000
0000
0000
,
0000
0000
0000
0000
,
1001
0000
0001
0000
,
1000
0000
0000
0000
,
1001
0000
1000
0000
,
0001
0000
0000
0000
,
0010
0000
0000
0000
,
0100
0000
0000
0000
,
1000
0000
1000
0000
,
0001
0000
0000
0000
,
1001
0000
1000
0000
,
0001
0000
0000
0000
,
1001
0000
0001
0000
,
1000
0000
0000
0000
,
0010
0000
0000
0000
,
0100
0000
0000
0000
,
0001
0000
0001
0000
,
0001
0000
0000
0000
,
0000
0000
0000
0000
,
1001
0000
0000
0000
,
1000
0000
0000
0000
,
0001
0000
0000
0000
,
1000
0000
0000
0000
,
0010
0000
0000
0000
,
0010
0000
0000
0000
,
0010
0000
0000
0000
,
0100
0000
0000
0000
,
0110
0000
0000
0000
;
