#TITLE:物凄い勢いでけーねが物凄いうた;
#SUBTITLE:;
#ARTIST:Halozy feat. ななひら;
#TITLETRANSLIT:MONOSUGOI IKIOIDE KEINE GA MONOSUGOI UTA;
#SUBTITLETRANSLIT:;
#ARTISTTRANSLIT:Halozy feat. NANAHIRA;
#CREDIT:DigiMindAxel;
#BANNER:MONOSUGOI IKIOIDE KEINE GA MONOSUGOI UTA.png;
#BACKGROUND:MONOSUGOI IKIOIDE KEINE GA MONOSUGOI UTA-bg.png;
#LYRICSPATH:MONOSUGOI IKIOIDE KEINE GA MONOSUGOI UTA.lrc;
#CDTITLE:DigiMindAxel original simfile.png;
#MUSIC:MONOSUGOI IKIOIDE KEINE GA MONOSUGOI UTA.ogg;
#METERTYPE:DDR X;
#OFFSET:-0.394;
#SAMPLESTART:57.693;
#SAMPLELENGTH:12.000;
#SELECTABLE:YES;
#BPMS:0.000=180.000;
#STOPS:;
#BGCHANGES:-2.000=MONOSUGOI IKIOIDE KEINE GA MONOSUGOI UTA.avi=1.000=1=1=0,
99999=-nosongbg-=1.000=0=0=0 // don't automatically add -songbackground-
;

//---------------dance-single - ----------------
#NOTES:
     dance-single:
     :
     Easy:
     6:
     0.260,0.318,0.090,0.036,0.000:
0000
0000
0000
0000
,
0000
0000
0000
0000
,
0000
0000
0000
0000
,
0000
0000
0000
0000
,
0000
0000
0000
0000
,
0001
1000
0000
0100
,
0000
1000
0000
0001
,
0000
0000
0100
0000
0000
0000
0000
0010
,
0000
0100
0000
0010
0000
0000
0000
0000
,
1001
0000
0000
0000
,
0001
0001
1000
1000
,
0001
0001
0010
0000
,
0001
0001
1000
1000
,
1001
0000
0110
0000
,
0010
0010
0100
0100
,
0010
0010
1000
0000
,
0100
0100
0010
0010
,
0100
0010
0000
0000
,
1001
0000
1000
0000
,
0001
0000
1000
0000
,
0100
0000
0010
0000
,
0001
0000
0001
0000
,
1000
0000
0001
0000
,
1000
0000
0001
0000
,
0100
0000
0010
0000
,
0100
0000
0110
0000
,
1001
0000
1000
0000
,
0100
0000
0010
0000
,
0001
0000
0100
0000
,
0001
0000
0001
0000
,
0100
0000
0010
0000
,
0100
0000
0001
0000
,
1000
0000
1000
0000
,
0001
0001
0001
0001
,
1001
0000
1000
0000
,
0100
0000
1000
0000
,
0010
0000
0100
0000
,
0001
0001
1000
0000
,
0001
0000
0100
0000
,
0010
0000
0100
0000
,
0001
0000
1000
0000
,
0100
0100
1000
0000
,
1001
0000
0000
0000
,
0010
0000
0100
0010
,
0100
0000
0001
1000
,
0001
0000
0010
0000
,
0100
1000
0100
1000
,
0010
0000
0100
0000
,
0001
0000
0100
0000
,
0010
0000
1000
0000
,
0010
0000
0100
0000
,
0001
0000
1000
0100
,
1000
0000
0001
1000
,
0001
0000
0010
0000
,
0100
0000
1000
0000
,
0010
0000
0100
0000
,
0001
0100
0001
0000
,
1000
0001
1000
0000
,
0001
1000
0001
0000
,
2002
0000
0000
3003
,
0000
0000
0000
0000
,
1000
1000
0001
0001
,
1000
1000
0100
0000
,
0010
0010
0001
0001
,
0010
0010
0100
0000
,
1000
1000
0010
0010
,
1000
1000
0001
0000
,
0010
0010
0001
0001
,
0100
0100
0010
0000
,
1000
1000
0001
0001
,
1000
1000
0100
0000
,
0010
0010
0001
0001
,
0010
0010
0100
0000
,
1000
1000
0010
0010
,
0100
0100
0010
0000
,
0100
0100
0001
0001
,
0010
0000
0100
0000
0000
1000
0000
0000
,
2002
0000
0000
0000
,
0000
0000
3003
0000
;

//---------------dance-single - ----------------
#NOTES:
     dance-single:
     :
     Medium:
     11:
     0.550,0.600,0.432,0.585,0.022:
0000
0000
0000
0000
,
0000
0000
0000
0000
,
0000
0000
0000
0000
,
0000
0000
0000
0000
,
0000
0000
0000
0000
,
0001
0100
0010
0001
,
1000
0010
0001
1000
,
0100
0000
0010
0000
0001
0000
1000
0010
,
0000
0010
0000
0010
0000
0000
0000
0000
,
2002
0000
0000
3003
,
0001
0100
0010
0000
1000
0010
0100
0000
,
0001
0100
0010
0000
1000
0100
1000
0001
,
1000
0100
0010
0000
0001
0010
0100
0000
,
1000
0000
0000
0000
0010
0010
0010
0100
,
0001
0100
0010
0000
1000
0010
0100
0000
,
0001
0100
0010
0000
1000
0100
1000
0001
,
1000
0100
0010
0000
0001
0010
0100
0000
,
1000
0100
0010
0001
0000
0001
0001
0000
,
2000
0000
3010
0100
,
0002
0000
0103
0010
,
2000
0000
0000
3000
,
0100
1001
0100
1001
,
0200
0000
1300
0010
,
0200
0000
0301
0010
,
0200
0000
0000
0300
,
1000
0001
1000
0000
0100
1000
0100
1000
,
0020
0000
0000
0000
0130
0000
0001
1000
,
0002
0000
0000
0000
1003
0000
0010
1000
,
0020
0000
1030
0100
,
0010
1001
0010
1001
,
0002
0000
0000
0000
0013
0000
0100
1000
,
0200
0000
0000
0310
0000
0001
0100
0000
,
0002
0000
0000
1000
0000
1000
0000
1003
,
0010
0100
0010
0000
0100
0010
0100
0000
,
2002
0000
0000
0000
3003
0000
0000
0000
1000
0000
0000
0100
0000
0000
0010
0000
,
0002
0000
0000
0100
0000
0000
0103
0000
,
0010
0000
0100
0001
0000
1000
0100
0000
,
0020
0000
0031
0100
0010
0000
0110
0000
,
2002
0000
0000
0000
3003
0000
0000
0000
0001
0000
0000
0010
0000
0000
0100
0000
,
2000
0000
0000
0010
0000
0000
3010
0000
,
1001
0100
0011
0100
,
1010
1010
1010
1010
,
2002
0000
0000
3003
,
0022
0000
0033
0000
0001
1000
0010
1000
,
0002
0000
0003
0000
2001
0000
3010
0100
,
0002
0203
2300
3200
,
0301
0101
1000
1100
,
2002
0000
0000
0000
3003
0000
0000
0000
0001
0000
0000
0010
0000
0000
0100
0000
,
1000
1010
0100
0110
,
2002
0000
0000
0000
3003
0000
0000
0000
1000
0000
0000
0010
0000
0000
0100
0000
,
0001
1000
0001
1000
0010
0000
0101
0000
,
2002
0000
3003
0000
1000
0010
0100
0010
,
2000
0000
3000
0000
1002
0000
0013
0100
,
2000
3020
0032
0023
,
1030
1100
0010
0110
,
2002
0000
0000
0000
3003
0000
0000
0000
0001
0000
0000
0100
0000
0000
0010
0000
,
1000
1100
0001
0101
,
1001
1100
1001
0011
,
0100
1000
0100
1000
0010
0100
0001
0000
,
0202
0000
0000
0000
,
0000
0000
0000
0303
,
0001
1000
0100
0000
0010
0001
1000
0000
,
0010
0010
0010
0000
2002
0000
3003
0000
,
1000
0001
0100
0000
0010
1000
0001
0000
,
0100
0100
0100
0000
2002
0000
3003
0000
,
0010
0100
0001
0000
0100
0010
1000
0000
,
0100
0100
0010
0010
2002
0000
3003
0000
,
0100
0010
0001
0000
0010
0100
1000
0000
,
0010
0010
0100
0100
0000
0001
1001
0000
,
0001
1000
0001
1000
0010
0100
0010
0100
,
0002
0003
2000
3000
0220
0000
0330
0000
,
1000
0001
1000
0001
0010
0100
0010
0100
,
2000
3000
0002
0003
0220
0000
0330
0000
,
0010
0100
0001
1000
0010
0100
0001
0000
,
0011
1100
2002
3003
,
0010
0100
1000
0001
0010
0100
1000
0000
,
1010
0000
0101
0000
0000
0001
0001
0000
,
0220
0000
0000
0000
,
0000
0000
0330
0000
;

//---------------dance-single - ----------------
#NOTES:
     dance-single:
     :
     Hard:
     13:
     0.648,0.741,0.423,0.306,0.184: // measure 1
0000
0000
0000
0000
,  // measure 2
0000
0000
0000
0000
,  // measure 3
0000
0000
0000
0000
,  // measure 4
0000
0000
0000
0000
,  // measure 5
0000
0000
0000
0000
,  // measure 6
1000
0000
0010
0100
0010
0000
1000
0010
,  // measure 7
0000
0100
0001
0100
0000
0001
1000
0000
,  // measure 8
0100
0010
0100
0000
0010
0001
0100
0010
,  // measure 9
0000
0010
0000
0110
0000
0000
0000
0000
,  // measure 10
2002
0000
0000
3003
,  // measure 11
0001
0000
1000
0100
1000
0000
0000
0000
0001
0000
1000
0100
1000
0000
0000
0000
,  // measure 12
0001
0000
1000
0100
1000
0000
0000
0000
0100
0000
0001
0000
0100
0000
1000
0000
,  // measure 13
0001
0000
0100
0010
0100
0000
0000
0000
0001
0000
0100
0010
0100
0000
0000
0000
,  // measure 14
1001
0000
0000
0000
1000
0100
0010
0001
,  // measure 15
1000
0000
0001
0100
0001
0000
0000
0000
1000
0000
0001
0100
0001
0000
0000
0000
,  // measure 16
1000
0000
0001
0100
0001
0000
0000
0000
0100
0000
1000
0000
0100
0000
0001
0000
,  // measure 17
0010
0000
0100
1000
0100
0000
0000
0000
0010
0000
0100
1000
0100
0000
0000
0000
,  // measure 18
0010
0001
1000
0010
0000
1001
1001
0000
,  // measure 19
0011
0000
0100
0000
2000
0000
3001
0100
,  // measure 20
0001
0000
0010
0000
0200
0000
1300
0010
,  // measure 21
0200
0001
0010
0301
,  // measure 22
1100
0000
1001
0000
1100
0000
1001
0100
,  // measure 23
0020
0000
0031
0000
0200
0000
0310
1000
,  // measure 24
0100
0000
0010
0001
0000
0100
0010
0000
,  // measure 25
1000
0001
0000
0001
0000
0100
0000
0100
,  // measure 26
0001
0010
0001
0010
0100
1000
0100
1000
,  // measure 27
0020
0000
0130
0000
0002
0000
0013
0100
,  // measure 28
1000
0000
0010
0000
0200
0000
0301
1000
,  // measure 29
0200
1000
0010
1300
,  // measure 30
0011
0000
1001
0000
0011
0000
1001
0010
,  // measure 31
0200
0000
1300
0000
0002
0000
0013
0100
,  // measure 32
1000
0000
0010
0100
0000
0010
1000
0000
,  // measure 33
0001
0100
0000
0100
0000
0010
0000
0010
,  // measure 34
1000
0100
1000
0100
0010
0001
0010
0001
,  // measure 35
0220
0000
0000
0000
0330
0000
0000
0000
1000
0000
0000
0010
0000
0000
0100
0000
,  // measure 36
0001
0000
1000
0100
0000
0001
0100
0000
,  // measure 37
1000
0000
0001
0010
0000
1000
0010
0000
,  // measure 38
0001
0010
0100
1000
0100
0010
0001
0000
,  // measure 39
0220
0000
0000
0000
0330
0000
0000
0000
1000
0000
0000
0010
0000
0000
0100
0000
,  // measure 40
0001
0000
1000
0100
0000
0001
0100
0000
,  // measure 41
1000
0010
0100
0001
1000
0000
0100
0000
,  // measure 42
0011
0011
0011
0011
,  // measure 43
2002
0000
0000
3003
,  // measure 44
1000
0010
0100
0000
0001
0100
1000
0100
,  // measure 45
0002
0000
1003
0000
0010
0100
0001
0100
,  // measure 46
0010
1010
0100
0101
,  // measure 47
1001
1001
0110
0110
,  // measure 48
0001
0000
1000
0000
0100
0000
0000
0000
1000
0000
0000
0100
0000
0000
0010
0000
,  // measure 49
0001
0110
1000
0110
,  // measure 50
0001
0000
1000
0000
0100
0000
0000
0000
1000
0000
0000
0010
0000
0000
0100
0000
,  // measure 51
0001
1000
0100
0010
0100
1000
0010
0000
,  // measure 52
1000
0001
0010
0000
0001
0100
1000
0100
,  // measure 53
0002
0000
1003
0000
0010
0100
0001
0010
,  // measure 54
0100
1010
0100
0011
,  // measure 55
1001
0110
1001
0110
,  // measure 56
1000
0000
0001
0000
0100
0000
0000
0000
0001
0000
0000
0100
0000
0000
0010
0000
,  // measure 57
1000
1001
0100
0011
,  // measure 58
0100
1000
0001
0010
0100
1000
0010
0000
,  // measure 59
0100
0001
1000
0100
0010
0001
1000
0010
,  // measure 60
2002
0000
0000
0000
,  // measure 61
0000
0000
0000
3003
,  // measure 62
0001
0000
0100
0010
0100
0000
0001
0000
1000
0000
0010
0100
0010
0000
1000
0000
,  // measure 63
0002
0103
2002
3003
,  // measure 64
1000
0000
0010
0100
0010
0000
1000
0000
0001
0000
0100
0010
0100
0000
0001
0000
,  // measure 65
2000
3100
0022
0033
,  // measure 66
0100
0000
1000
0010
1000
0000
0100
0000
0010
0000
0001
0100
0001
0000
0010
0000
,  // measure 67
0100
0100
0100
0100
2002
0000
3003
0000
,  // measure 68
0001
0000
1000
0100
1000
0000
0001
0000
0010
0000
0100
0010
0100
0000
1000
0000
,  // measure 69
0010
0100
0010
1000
0000
1001
1001
0000
,  // measure 70
0001
0100
0001
0100
0001
0000
0000
0000
1000
0100
1000
0100
1000
0000
0000
0000
,  // measure 71
0001
0000
0100
0010
0100
0000
0001
0000
1000
0000
0100
0000
0010
0000
0001
0000
,  // measure 72
1000
0010
1000
0010
1000
0000
0000
0000
0001
0010
0001
0010
0001
0000
0000
0000
,  // measure 73
2001
0000
0000
0000
3001
0010
0100
1000
,  // measure 74
0010
0100
0010
0100
0010
0000
0000
0000
1000
0001
1000
0001
1000
0000
0000
0000
,  // measure 75
0100
0000
0010
0001
0010
0000
0100
0000
1000
0000
0010
0000
0100
0000
0001
0000
,  // measure 76
1000
0100
1000
0100
1000
0000
0000
0000
0001
1000
0001
1000
0001
0000
0000
0000
,  // measure 77
0100
0010
1000
0010
0000
1001
1001
0000
,  // measure 78
0220
0000
0000
0000
,  // measure 79
0000
0000
0330
0000
;

//---------------dance-single - ----------------
#NOTES:
     dance-single:
     :
     Challenge:
     16:
     0.876,0.918,0.324,0.324,0.594:
0000
0000
0000
0000
,
0000
0000
0000
0000
,
0000
0000
0000
0000
,
0000
0000
0000
0000
,
0000
0000
0000
0000
,
0100
0001
0100
0001
1000
0100
1000
0200
,
0000
0310
0100
2000
0000
3010
0100
0001
,
1000
0100
1000
0100
0001
0100
0001
1100
,
0000
0000
1100
0000
0000
0000
1001
0000
0000
0000
0001
0010
0100
0000
0100
0000
,
2002
0000
0000
3003
,
1000
0010
1000
0010
1000
0000
0001
0000
1000
0010
1000
0010
1000
0000
0001
0000
,
1000
0010
1000
0010
1000
0000
0001
0000
0010
0000
0100
0000
1000
0000
0001
0000
,
0010
0001
0010
0001
0010
0000
0100
0000
0010
0001
0010
0001
0010
0000
0100
0000
,
2000
0000
0000
0000
0000
0000
0000
0000
3001
1000
0001
1000
0001
0000
0010
0100
,
1000
0001
1000
0001
1000
0000
0010
0000
1000
0001
1000
0001
1000
0000
0010
0000
,
1000
0001
1000
0001
1000
0000
0010
0000
0100
0000
0001
0000
0010
0000
0100
0000
,
1000
0001
1000
0001
1000
0000
0100
0000
1000
0001
1000
0001
1000
0000
0100
0000
,
1000
0100
0010
0001
0100
0010
1000
0000
0000
0000
1001
0000
1001
0000
0000
0000
,
0001
1000
0100
1000
0002
0000
1003
0100
,
0010
0001
1000
0001
0020
0000
0130
1000
,
0001
0100
0010
0100
0001
0100
0010
0000
,
1200
0000
0310
0000
0021
0000
0130
1000
,
0001
0100
1000
0100
0001
0010
0100
1000
,
0001
0010
1000
0010
0001
1000
0100
0010
,
0001
0101
0000
0101
0000
1010
0000
1010
,
0001
0000
0001
0000
1000
0000
1000
0000
0001
0010
0100
1000
0001
1000
0100
1000
,
0001
0100
0010
0100
0002
0000
1003
0100
,
0010
0100
1000
0001
0200
0000
0310
0100
,
0001
1000
0100
1000
0001
1000
0100
0000
,
1020
0000
0130
0000
0201
0000
0310
1000
,
0001
0010
1000
0010
0001
1000
0100
0010
,
0001
0100
1000
0100
0001
1000
0100
1000
,
0100
0011
0000
0011
0000
1100
0000
1100
,
0001
1000
0001
0000
1000
0001
1000
0000
0100
0010
0001
1000
0010
0000
0000
0000
,
1000
0000
0001
0000
0100
0000
0001
0000
2000
0000
0000
3200
0000
0000
0301
0000
,
0100
1000
0001
0010
0100
0010
0001
0000
,
0100
0001
0010
1000
0010
0001
1000
0100
,
0010
0001
1000
0100
0001
0100
1000
0001
,
0100
0000
0000
0000
0010
0000
0100
0000
0002
0000
0000
0023
0000
0000
0130
0000
,
0010
0001
1000
0010
0001
0010
1000
0000
,
1001
0100
0010
0001
1100
0010
0001
0010
,
0100
0000
1000
0001
1000
0000
0001
1000
0001
0010
0100
1000
0010
0100
0010
0100
,
0020
0000
0000
0030
,
1001
0000
0100
0000
0010
0000
0001
0000
1000
0010
1000
0000
0001
0100
0001
0000
,
1000
0000
0100
0000
0010
0000
0100
0000
1000
0001
1000
0000
0001
0010
0001
0000
,
1000
0000
0000
1000
0010
0000
0000
0010
0100
0000
0000
0100
0001
0000
0000
0000
,
0201
0320
2030
3002
,
1003
0000
0100
0000
0010
0000
0100
0000
2000
0000
0000
3020
0000
0000
0130
0000
,
0001
0000
0000
0001
1000
0000
0000
1000
0100
0000
0000
0100
0010
0000
0000
0000
,
0001
0000
0100
0000
0010
0000
0100
0000
0002
0000
0000
0023
0000
0000
0130
0000
,
1000
0000
0010
0100
0001
0000
0001
0000
0010
0100
1000
0000
1000
0000
0010
0100
,
0001
0000
0010
0000
0100
0000
0010
0000
0001
1000
0001
0000
1000
0100
1000
0000
,
0010
0000
0100
0000
0001
0000
0100
0000
0010
1000
0010
0000
1000
0001
1000
0000
,
0001
0000
0000
0001
0010
0000
0000
0010
0100
0000
0000
0100
1000
0000
0000
0000
,
1020
0000
0230
0000
0302
0000
1003
0100
,
0010
0000
0001
0000
1000
0000
0001
0000
0020
0000
0000
0230
0000
0000
1300
0000
,
0010
0000
0000
0010
0100
0000
0000
0100
0001
0000
0000
0001
1000
0000
0000
0000
,
0100
0000
0010
0001
1000
0000
1000
0000
0010
0000
0100
0001
0010
0001
0100
0000
,
0001
0010
0100
1000
0001
0100
0001
1000
0100
0010
0001
1000
0010
1000
0001
1000
,
0020
0000
0100
0000
,
0100
0100
0100
0130
,
0001
0100
0001
0100
0001
0000
1000
0000
0100
1000
0100
1000
0100
0000
0010
0000
,
0001
0100
0001
0100
0001
0000
1000
0000
0110
0000
0010
0000
0010
0000
0010
0000
,
1000
0001
1000
0001
1000
0000
0100
0000
0010
0001
0010
0001
0010
0000
0100
0000
,
1002
0000
0000
0000
0000
0000
0000
0000
1003
0010
0100
0010
1000
0000
0001
0000
,
0010
0001
0010
0001
1000
0000
0100
0000
0010
0001
0010
0001
1000
0000
0010
0000
,
0100
0001
0100
0001
1000
0000
0100
0000
1001
0000
0001
0000
0001
0000
0001
0000
,
0010
0100
0010
0100
1000
0000
0001
0000
0010
0100
0010
0100
1000
0000
0001
0000
,
0100
0001
0100
0001
1000
0100
0010
0000
0000
0000
1001
0000
1001
0000
0000
0000
,
0001
1000
0010
1000
0001
0000
0010
0000
0100
1000
0001
1000
0100
0000
0010
0000
,
0001
0100
0010
0100
0001
0000
1000
0000
1100
0000
0100
0000
0011
0000
0010
0000
,
0100
1000
0001
1000
0100
0000
0010
0000
0001
1000
0010
1000
0001
0000
0010
0000
,
1002
0000
0000
0000
0000
0000
0000
0000
0103
0010
0100
0010
1000
0100
0010
0000
,
0001
1000
0010
1000
0001
0000
0010
0000
0100
0010
0001
0010
0100
0000
1000
0000
,
0001
0010
0001
0010
0100
1000
0001
0000
0101
0000
0100
0000
1010
0000
0010
0000
,
0100
0001
0010
0001
0100
0000
0010
0000
1000
0100
0010
0100
1000
0000
0001
0000
,
0010
0001
0010
0001
1000
0010
0100
0000
0000
0000
1001
0000
1001
0000
0000
0000
,
0220
0000
0000
0000
,
0000
0000
0330
0000
;

//---------------dance-single - ----------------
#NOTES:
     dance-single:
     :
     Beginner:
     3:
     0.134,0.173,0.135,0.000,0.000:
0000
0000
0000
0000
,
0000
0000
0000
0000
,
0000
0000
0000
0000
,
0000
0000
0000
0000
,
0000
0000
0000
0000
,
1000
0000
0000
0000
,
0000
0000
0000
0000
,
0001
0000
0000
0000
,
0000
0000
0000
0000
,
1001
0000
0000
0000
,
0010
0000
0010
0000
,
0010
0000
0000
0000
,
0010
0000
0010
0000
,
0010
0000
0000
0000
,
0100
0000
0100
0000
,
0100
0000
0000
0000
,
0100
0000
0100
0000
,
0100
0000
0000
0000
,
1001
0000
0000
0000
,
0000
0000
0000
0000
,
0000
0000
0000
0000
,
0100
0000
0100
0000
,
1000
0000
0000
0000
,
0000
0000
0000
0000
,
0010
0000
0010
0000
,
0100
0000
0000
0000
,
1001
0000
0000
0000
,
0000
0000
0000
0000
,
0000
0000
0000
0000
,
0010
0000
0010
0000
,
0001
0000
0000
0000
,
0000
0000
0000
0000
,
0100
0000
0100
0000
,
0010
0000
0000
0000
,
1001
0000
0000
0000
,
1000
0000
0000
0000
,
0100
0000
0000
0000
,
0010
0000
0000
0000
,
1001
0000
0000
0000
,
0001
0000
0000
0000
,
0010
0000
0000
0000
,
0100
0000
0000
0000
,
1001
0000
0000
0000
,
0010
0000
0010
0000
,
0010
0000
0010
0000
,
0010
0000
0010
0000
,
0010
0000
0000
0000
,
0100
0000
0100
0000
,
0100
0000
0100
0000
,
0100
0000
0100
0000
,
0100
0000
0000
0000
,
1000
0000
1000
0000
,
1000
0000
1000
0000
,
1000
0000
0000
0000
,
0000
0000
0000
0000
,
0001
0000
0001
0000
,
0001
0000
0001
0000
,
0001
0000
0000
0000
,
0100
0000
0000
0000
,
0010
0000
0000
0000
,
0000
0000
0000
0000
,
1001
0000
1000
0000
,
1000
0000
0000
0000
,
1001
0000
0001
0000
,
0001
0000
0000
0000
,
1001
0000
1000
0000
,
1000
0000
0000
0000
,
1001
0000
0001
0000
,
0001
0000
0000
0000
,
0110
0000
0100
0000
,
0100
0000
0000
0000
,
0110
0000
0010
0000
,
0010
0000
0000
0000
,
0110
0000
0100
0000
,
0100
0000
0000
0000
,
0110
0000
0010
0000
,
0010
0000
0000
0000
,
1001
0000
0000
0000
;
