#TITLE:MODEL FT4;
#SUBTITLE:;
#ARTIST:BEMANI Sound Team "Mutsuhiko Izumi";
#TITLETRANSLIT:;
#SUBTITLETRANSLIT:;
#ARTISTTRANSLIT:Mutsuhiko Izumi;
#CREDIT:DigiMindAxel;
#BANNER:MODEL FT4.png;
#BACKGROUND:MODEL FT4-bg.png;
#LYRICSPATH:;
#CDTITLE:GITADORA.png;
#MUSIC:MODEL FT4.ogg;
#METERTYPE:DDR X;
#OFFSET:-0.181;
#SAMPLESTART:8.067;
#SAMPLELENGTH:12.000;
#SELECTABLE:YES;
#BPMS:0.000=310.000,376.000=290.000,441.000=310.000;
#STOPS:;
#BGCHANGES:-4.000=MODEL FT4.avi=1.000=1=1=0,
99999=-nosongbg-=1.000=0=0=0 // don't automatically add -songbackground-
;

//---------------dance-single - ----------------
#NOTES:
     dance-single:
     :
     Easy:
     10:
     0.426,0.558,0.122,0.146,0.004: // measure 1
0000
0000
0000
0000
,  // measure 2
0000
0000
0000
0000
,  // measure 3
0000
0000
0000
0000
,  // measure 4
0000
0000
0000
0000
,  // measure 5
0000
0000
0000
0000
,  // measure 6
0000
0000
0000
0000
,  // measure 7
0000
0000
0000
0000
,  // measure 8
2002
0000
0000
0000
,  // measure 9
0000
0000
0000
0000
,  // measure 10
3003
0000
0000
0000
,  // measure 11
0000
0000
0000
0000
,  // measure 12
1000
0100
1000
0000
,  // measure 13
0001
1000
0001
0000
,  // measure 14
0010
0001
0010
0000
,  // measure 15
0100
0000
1000
0000
,  // measure 16
0100
0010
0100
0000
,  // measure 17
1000
0010
1000
0000
,  // measure 18
0001
0010
0001
0000
,  // measure 19
0100
0000
0010
0000
,  // measure 20
1000
0001
1000
0001
,  // measure 21
1000
0001
1000
0000
,  // measure 22
0100
1000
0100
1000
,  // measure 23
0100
1000
0100
0000
,  // measure 24
0010
0001
0010
0001
,  // measure 25
0010
0001
0010
0000
,  // measure 26
0001
0000
1000
0010
,  // measure 27
0000
1000
0100
0010
,  // measure 28
0001
1000
0001
0000
,  // measure 29
1000
0010
1000
0000
,  // measure 30
0001
0100
0001
0000
,  // measure 31
1000
0001
0010
0100
,  // measure 32
1000
0001
1000
0000
,  // measure 33
0100
1000
0100
0000
,  // measure 34
0010
0001
0010
0000
,  // measure 35
0001
1000
0100
0010
,  // measure 36
0001
0100
0001
0100
,  // measure 37
0001
0100
0001
0000
,  // measure 38
1000
0001
1000
0001
,  // measure 39
1000
0001
1000
0000
,  // measure 40
0100
1000
0100
1000
,  // measure 41
0100
1000
0100
0000
,  // measure 42
1000
0000
0010
0100
,  // measure 43
0000
0001
0010
0100
,  // measure 44
1000
0000
0001
1000
,  // measure 45
0001
0000
1000
0000
,  // measure 46
1001
0000
0000
0001
,  // measure 47
1000
0000
0000
1000
,  // measure 48
0001
0000
1000
0100
,  // measure 49
1000
0000
0010
0000
,  // measure 50
1001
0000
0000
1000
,  // measure 51
0001
0000
0000
0001
,  // measure 52
1000
0000
0100
1000
,  // measure 53
0100
0000
0010
0000
,  // measure 54
1001
0000
0000
0001
,  // measure 55
1000
0000
0000
1000
,  // measure 56
0001
0000
0010
0000
,  // measure 57
0100
0000
1000
0000
,  // measure 58
0010
0100
0001
1000
,  // measure 59
0010
0100
0001
1000
,  // measure 60
0200
0000
0000
1300
,  // measure 61
0001
0010
0100
1000
,  // measure 62
0002
0000
0000
0000
,  // measure 63
0000
0000
0000
0003
,  // measure 64
2001
0000
0000
0000
,  // measure 65
3010
0000
0200
0000
,  // measure 66
0001
0000
0000
0301
,  // measure 67
0000
0000
0000
0000
,  // measure 68
2000
0000
0000
0000
,  // measure 69
0100
0000
0000
0000
,  // measure 70
3100
0010
0100
0010
,  // measure 71
0001
0000
0100
0001
,  // measure 72
0200
0000
0000
0000
,  // measure 73
0301
1000
0001
0000
,  // measure 74
0010
0000
0100
0000
,  // measure 75
1000
0000
1001
0000
,  // measure 76
0001
0000
0010
0000
,  // measure 77
0100
0000
1000
0000
,  // measure 78
0001
0010
0100
1000
,  // measure 79
0010
0000
0000
0000
,  // measure 80
0100
0001
0100
0000
,  // measure 81
0001
1000
0001
0000
,  // measure 82
0100
0001
0100
0000
,  // measure 83
0001
1000
0001
0000
,  // measure 84
1000
0100
1000
0000
,  // measure 85
0001
1000
0001
0000
,  // measure 86
1000
0100
1000
0000
,  // measure 87
0001
1000
0001
1000
,  // measure 88
0100
0000
0010
0000
,  // measure 89
0001
0100
0001
0000
,  // measure 90
0010
0000
0100
0000
,  // measure 91
1000
0001
1000
0000
,  // measure 92
0010
0000
0100
0000
,  // measure 93
0001
0100
0001
0000
,  // measure 94
0010
0000
0100
0000
1000
0000
0000
1001
,  // measure 95
0000
0000
0000
0000
,  // measure 96
0001
0000
0000
0000
,  // measure 97
0100
0000
0000
0000
,  // measure 98
0010
0000
0000
0000
,  // measure 99
1000
0000
0000
0000
,  // measure 100
0001
0000
0000
0000
,  // measure 101
0010
0000
0000
0000
,  // measure 102
0100
0000
0000
0000
,  // measure 103
1000
0000
0000
0000
,  // measure 104
0002
0000
0000
0000
,  // measure 105
0000
0000
0000
0000
,  // measure 106
0203
0000
0000
0000
,  // measure 107
0000
0000
0000
0000
,  // measure 108
0320
0000
0000
0000
,  // measure 109
0000
0000
0000
0000
,  // measure 110
0130
0000
0000
0110
,  // measure 111
0000
0000
0000
0000
,  // measure 112
0001
1000
0001
0000
,  // measure 113
1000
0100
1000
0000
,  // measure 114
0001
1000
0001
1000
,  // measure 115
0000
0001
0010
0100
,  // measure 116
1000
0100
1000
0000
,  // measure 117
0001
0100
0001
0000
,  // measure 118
1000
0100
1000
0100
,  // measure 119
0000
0010
0001
1000
,  // measure 120
0010
0100
0010
0100
,  // measure 121
0010
0100
0010
0000
,  // measure 122
0100
0001
0100
0001
,  // measure 123
0100
0001
0100
0000
,  // measure 124
0001
1000
0001
1000
,  // measure 125
0001
1000
0001
0000
,  // measure 126
0110
0000
0000
1001
,  // measure 127
0000
0001
0010
0100
,  // measure 128
1000
0000
0000
1001
,  // measure 129
0000
0000
0000
0000
,  // measure 130
0001
0000
0000
0100
,  // measure 131
0010
0000
0000
0010
,  // measure 132
1000
0000
0000
1001
,  // measure 133
0000
0000
0000
0000
,  // measure 134
1001
0000
0000
1000
,  // measure 135
0100
0000
0000
0100
,  // measure 136
0010
0001
0010
0000
,  // measure 137
0001
1000
0001
0000
,  // measure 138
1001
0000
0000
1000
,  // measure 139
0010
0000
0000
0010
,  // measure 140
0200
0000
0000
0000
,  // measure 141
0302
0000
0000
0000
,  // measure 142
2003
0000
0000
0000
,  // measure 143
3020
0000
0000
0000
,  // measure 144
0230
0000
0000
0000
,  // measure 145
0302
0000
0000
0000
,  // measure 146
2003
0000
0000
0000
,  // measure 147
3100
0000
0000
0000
0000
0000
0000
0000
1001
0000
0000
0000
,  // measure 148
0000
0000
0000
0000
,  // measure 149
0000
0000
0000
0000
,  // measure 150
0001
0000
0000
0100
0000
0100
0000
0100
,  // measure 151
0000
0010
0000
0000
1000
0000
1000
0000
,  // measure 152
1000
0000
0001
0000
0000
0010
0000
0010
,  // measure 153
0000
0010
0000
0100
0000
1000
0000
0000
;

//---------------dance-single - ----------------
#NOTES:
     dance-single:
     :
     Medium:
     13:
     0.647,0.806,0.138,0.171,0.114: // measure 1
0000
0000
0000
0000
,  // measure 2
0000
0000
0000
0000
,  // measure 3
0000
0000
0000
0000
,  // measure 4
0000
0000
0000
0000
,  // measure 5
0000
0000
0000
0000
,  // measure 6
0000
0000
0000
0000
,  // measure 7
0000
0000
0000
0000
,  // measure 8
2002
0000
0000
0000
,  // measure 9
0000
0000
0000
3003
,  // measure 10
1000
0000
0001
1000
0001
0000
1000
0001
,  // measure 11
1000
0000
0000
0000
,  // measure 12
0100
0000
1000
0100
0000
0000
0010
0000
,  // measure 13
0001
0000
0010
0001
0000
0000
1000
0000
,  // measure 14
0010
0000
1000
0010
0000
0000
0100
0000
,  // measure 15
0000
0001
0010
0100
,  // measure 16
1000
0000
0001
1000
0000
0000
0001
0000
,  // measure 17
0100
0000
0010
0100
0000
0000
0010
0000
,  // measure 18
1000
0000
0001
1000
0000
0000
0001
0000
,  // measure 19
0000
1000
0100
0010
,  // measure 20
0001
0100
0010
0100
,  // measure 21
0001
1000
0001
0000
1000
0000
0100
0000
,  // measure 22
0010
0001
0010
0000
0001
0000
0100
0000
,  // measure 23
0010
1000
0010
0000
0100
0000
0010
0000
,  // measure 24
1000
0001
1000
0000
0100
0000
0010
0000
,  // measure 25
0100
1000
0100
0000
0010
0000
0001
0000
,  // measure 26
0200
0000
0000
0010
0000
0000
0310
0000
,  // measure 27
0000
1000
0100
0010
,  // measure 28
0001
0000
0010
0001
0000
0000
1000
0000
,  // measure 29
0010
0000
1000
0010
0000
0000
1000
0000
,  // measure 30
0001
0000
0010
0001
0000
0000
1000
0000
,  // measure 31
0000
0100
0010
0001
,  // measure 32
1000
0000
0010
1000
0000
0000
0010
0000
,  // measure 33
0100
0000
0001
0100
0000
0000
0001
0000
,  // measure 34
1000
0000
0100
1000
0000
0000
0100
0000
,  // measure 35
0000
1000
0100
0010
,  // measure 36
0001
0010
0100
0010
,  // measure 37
0001
1000
0001
0000
0100
0000
0010
0000
,  // measure 38
0100
0001
0100
0000
0010
0000
1000
0000
,  // measure 39
0001
1000
0001
0000
0010
0000
0100
0000
,  // measure 40
1000
0010
1000
0000
0010
0000
0100
0000
,  // measure 41
0001
1000
0001
0000
0010
0000
0100
0000
,  // measure 42
2000
0000
0000
0001
0000
0000
3001
0000
,  // measure 43
0000
1000
0010
0100
,  // measure 44
0001
0000
1000
0010
1000
0000
0001
0000
,  // measure 45
0010
0000
0000
0000
0100
0000
0000
0000
0010
0000
0000
0000
,  // measure 46
0100
0000
0000
1000
0000
0000
0100
0000
,  // measure 47
0010
0000
0000
0001
0000
0000
0100
0000
,  // measure 48
0010
0000
1000
0001
1000
0000
0010
0000
,  // measure 49
0100
0000
0000
0000
0010
0000
0000
0000
0100
0000
0000
0000
,  // measure 50
0010
0000
0000
0001
0000
0000
1000
0000
,  // measure 51
0010
0000
0000
0100
0000
0000
0001
0000
,  // measure 52
1000
0000
0100
1000
0100
0000
0010
0000
,  // measure 53
0001
0000
0000
0000
1000
0000
0000
0000
0001
0000
0000
0000
,  // measure 54
1000
0000
0000
0100
0000
0000
0010
0000
,  // measure 55
0001
0000
0000
1000
0000
0000
0010
0000
,  // measure 56
0100
0000
0001
1000
0001
1000
0001
0000
,  // measure 57
0010
0000
0000
0000
0100
0000
0000
0000
1000
0000
0000
0000
,  // measure 58
0001
0000
0000
0000
0001
0000
0000
0000
0100
0000
0000
0000
,  // measure 59
0010
0000
0000
0000
0010
0000
0000
0000
0100
0000
0000
0000
,  // measure 60
0001
0000
0000
0000
0001
0000
0000
0000
0010
0000
0000
0000
,  // measure 61
0100
0000
0000
0000
0100
0000
0000
0000
1000
0000
0000
0000
,  // measure 62
0200
0000
0000
0000
,  // measure 63
0000
0000
0000
0300
,  // measure 64
2001
0000
0001
0000
,  // measure 65
3001
1000
0200
0000
,  // measure 66
1000
0000
0000
2000
,  // measure 67
0000
0000
0000
3300
,  // measure 68
0020
0000
0001
0000
,  // measure 69
0001
0000
0100
0000
,  // measure 70
0130
1000
0100
0010
,  // measure 71
0001
0000
1000
0001
1000
0001
1000
0001
,  // measure 72
2000
0000
0010
0000
,  // measure 73
3010
0100
0010
1000
,  // measure 74
0001
0100
1000
0100
,  // measure 75
0001
0000
1001
0000
,  // measure 76
1000
0100
0001
0100
,  // measure 77
1000
0001
0010
0100
,  // measure 78
0010
0001
1000
0010
,  // measure 79
0100
0010
0100
0010
0100
0010
0100
0000
,  // measure 80
0001
0000
0010
0001
0010
0000
0100
0000
,  // measure 81
1000
0010
1000
0010
1000
0000
0000
0000
,  // measure 82
0001
0000
0010
0001
0010
0000
0100
0000
,  // measure 83
1000
0010
1000
0010
1000
0000
0000
0000
,  // measure 84
0001
0000
0010
0001
0010
0000
0100
0000
,  // measure 85
1000
0010
1000
0010
1000
0000
0000
0000
,  // measure 86
1020
0000
1000
0000
,  // measure 87
1030
0000
0001
0010
0001
0010
0001
0000
,  // measure 88
1000
0000
0100
1000
0100
0000
0010
0000
,  // measure 89
0001
0100
0001
0100
0001
0000
0000
0000
,  // measure 90
1000
0000
0100
1000
0100
0000
0010
0000
,  // measure 91
0001
0100
0001
0100
0001
0000
0000
0000
,  // measure 92
1000
0000
0100
1000
0100
0000
0010
0000
,  // measure 93
0001
0100
0101
0000
,  // measure 94
0010
0100
0010
0000
0010
0000
0010
0100
,  // measure 95
0000
0000
0000
0000
,  // measure 96
0001
0000
0000
0001
0000
0000
0010
0000
,  // measure 97
0100
0000
0000
0100
0000
0000
1000
0000
,  // measure 98
0010
0000
0000
0010
0000
0000
0010
0000
,  // measure 99
0000
1000
0100
0010
,  // measure 100
0001
0000
0000
0001
0000
0000
0100
0000
,  // measure 101
0010
0000
0000
0010
0000
0000
1000
0000
,  // measure 102
0100
0000
0000
0100
0000
0000
0100
0000
,  // measure 103
0000
1000
0100
0010
,  // measure 104
0002
0000
0000
0000
,  // measure 105
0103
0010
1000
0001
,  // measure 106
2000
0000
0000
0010
,  // measure 107
3010
0000
0000
0000
,  // measure 108
0200
0000
0000
0000
,  // measure 109
0310
1000
0100
0010
,  // measure 110
0100
0000
0000
0100
0000
0000
1001
0000
,  // measure 111
0000
0000
1000
0001
1000
0001
1000
0001
,  // measure 112
0100
0000
0001
0100
0000
0000
0010
0000
,  // measure 113
1000
0000
0001
0010
0000
0000
0100
0000
,  // measure 114
1000
0000
0010
1000
0000
0000
1001
0000
,  // measure 115
0000
0001
0010
0100
,  // measure 116
1000
0000
0001
0100
0000
0000
0001
0000
,  // measure 117
1000
0000
0100
1000
0000
0000
0100
0000
,  // measure 118
0010
0000
0001
0010
0000
0000
1001
0000
,  // measure 119
0000
1000
0100
0010
,  // measure 120
0001
1000
0001
0000
0010
0000
0100
0000
,  // measure 121
1000
0010
1000
0000
0001
1000
0001
0000
,  // measure 122
1000
0100
1000
0000
0001
0000
0100
0000
,  // measure 123
0010
0100
0010
0100
0010
0000
0000
0000
,  // measure 124
1000
0001
1000
0000
0100
0000
0010
0000
,  // measure 125
0001
0100
0001
0000
0100
0010
0100
0000
,  // measure 126
1001
0000
0000
0010
0000
0000
0110
0000
,  // measure 127
0000
0001
0010
0100
,  // measure 128
1000
0000
0010
1000
0010
0000
2020
0000
,  // measure 129
0000
0000
3030
0000
,  // measure 130
0100
0000
0000
0001
0000
0000
0011
0000
,  // measure 131
0100
0000
0000
1000
0000
0000
1100
0000
,  // measure 132
0010
0000
0001
1000
0001
0000
2002
0000
,  // measure 133
0000
0000
0000
3003
,  // measure 134
1010
0000
0000
0010
0000
0000
0101
0000
,  // measure 135
0010
0000
0000
0100
0000
0000
1000
0000
,  // measure 136
0001
0000
0010
0001
0010
0000
0100
0000
,  // measure 137
1000
0000
0000
0000
0010
0000
0000
0000
0100
0000
0000
0000
,  // measure 138
0001
1000
0000
0001
1000
0000
0100
0000
,  // measure 139
0010
0001
0000
0010
0001
0000
1000
0000
,  // measure 140
0200
0000
0000
1300
,  // measure 141
0010
0000
0000
0000
0010
0000
0000
0000
0100
0000
0000
0000
,  // measure 142
0002
0000
0000
1003
,  // measure 143
0100
0000
0000
0000
0100
0000
0000
0000
0010
0000
0000
0000
,  // measure 144
0002
0000
0000
0103
,  // measure 145
0010
0000
0000
0000
0010
0000
0000
0000
1000
0000
0000
0000
,  // measure 146
0001
0000
0000
0000
0010
0000
0000
0000
0100
0000
0000
0000
,  // measure 147
1000
0000
0000
0000
0001
0000
0000
0000
1001
0000
0000
0000
,  // measure 148
0000
0000
0000
0000
,  // measure 149
0000
0000
0000
0000
,  // measure 150
0010
0000
1000
0001
0000
0001
0000
0001
,  // measure 151
0000
0100
0000
0010
1000
0000
1000
0000
,  // measure 152
1000
0000
0001
0000
0010
0100
0000
0100
,  // measure 153
0000
0100
0000
1000
0001
1000
0000
0000
;

//---------------dance-single - ----------------
#NOTES:
     dance-single:
     :
     Hard:
     16:
     0.857,1.000,0.422,0.276,0.142: // measure 1
0000
0000
0000
0000
,  // measure 2
0000
0000
0000
0000
,  // measure 3
0000
0000
0000
0000
,  // measure 4
0000
0000
0000
0000
,  // measure 5
0000
0000
0000
0000
,  // measure 6
0000
0000
0000
0000
,  // measure 7
0000
0000
0000
0000
,  // measure 8
0202
0000
0000
0000
,  // measure 9
0000
0000
0000
0303
,  // measure 10
0010
1000
0010
1000
0001
0000
1000
0001
,  // measure 11
0010
0000
0000
0000
,  // measure 12
0001
0000
0100
0001
0100
0000
0001
0000
,  // measure 13
1000
0000
0100
1000
0100
0000
1000
0000
,  // measure 14
0001
0000
0100
0001
1000
0000
1001
0000
,  // measure 15
0000
0001
0010
0100
,  // measure 16
1000
0000
0010
0100
0010
0000
1000
0000
,  // measure 17
0001
0000
0100
0001
0100
0000
0001
0000
,  // measure 18
1000
0000
0010
0100
0001
0000
0101
0000
,  // measure 19
0000
0100
0010
1000
,  // measure 20
0200
0010
0010
0310
,  // measure 21
0001
0100
0001
0100
0010
0100
0010
1000
,  // measure 22
0200
1000
1000
1300
,  // measure 23
0020
0100
0100
0130
,  // measure 24
0002
0100
0100
0103
,  // measure 25
0010
1000
0010
1000
0001
0010
0001
0010
,  // measure 26
0200
0000
0000
1000
0000
0000
1300
0000
,  // measure 27
0000
0010
0001
1000
,  // measure 28
0010
0000
0100
0010
0100
0000
0001
0100
,  // measure 29
0001
0000
0100
0010
0100
0000
0001
1000
,  // measure 30
0001
0000
1000
0100
0010
0000
0110
0000
,  // measure 31
0000
0100
0010
0001
,  // measure 32
1000
0000
0010
0100
0010
0000
1000
0010
,  // measure 33
1000
0000
0001
0010
0001
0000
0010
0100
,  // measure 34
0010
0000
0001
0100
0010
0000
0110
0000
,  // measure 35
0000
0010
0100
0001
,  // measure 36
0200
0010
0010
0310
,  // measure 37
1000
0100
1000
0100
0010
0001
0010
0001
,  // measure 38
2000
0010
0010
3010
,  // measure 39
0200
0001
0001
0301
,  // measure 40
2000
0100
0100
3100
,  // measure 41
0010
0001
0010
0001
0100
0010
0100
0010
,  // measure 42
2000
0000
0000
0001
0000
0000
3001
0000
,  // measure 43
0000
1000
0010
0100
,  // measure 44
0001
0000
0010
0100
1000
0000
0010
0000
,  // measure 45
0100
0000
0000
0000
0100
0000
0000
0000
0001
0000
0000
0000
,  // measure 46
1001
0000
0000
1001
0000
0000
1000
0000
,  // measure 47
1100
0000
0000
1100
0000
0000
0010
0000
,  // measure 48
0011
0000
0010
0001
0100
0000
0010
0100
,  // measure 49
0001
0000
0000
0000
0001
0000
0000
0000
1000
0000
0000
0000
,  // measure 50
1001
0000
0000
1001
0000
0000
0001
0000
,  // measure 51
0101
0000
0000
0101
0000
0000
0010
0000
,  // measure 52
1010
0000
1000
0100
0010
0000
0100
0000
,  // measure 53
1000
0000
0000
0000
1000
0000
0000
0000
0001
0000
0000
0000
,  // measure 54
1001
0000
0000
1001
0000
0000
1000
0000
,  // measure 55
1010
0000
0000
1010
0000
0000
0100
0000
,  // measure 56
0101
0000
0100
0001
0100
0001
0100
0001
,  // measure 57
2000
0000
0000
0000
0100
0000
0000
0000
3100
0000
0000
0000
,  // measure 58
0010
0000
0000
0000
0001
0000
0000
0000
0010
0000
0000
0000
,  // measure 59
0200
0000
0000
0000
1000
0000
0000
0000
1300
0000
0000
0000
,  // measure 60
0001
0000
0000
0000
0010
0000
0000
0000
0100
0000
0000
0000
,  // measure 61
2000
0000
0000
0000
0010
0000
0000
0000
3010
0000
0000
0000
,  // measure 62
2002
0000
0000
0000
,  // measure 63
0000
0000
0000
3003
,  // measure 64
0001
0100
1000
0100
,  // measure 65
0001
0010
0100
0010
,  // measure 66
0001
0000
1000
0010
1000
0000
0001
1000
,  // measure 67
0001
0000
1000
0010
1000
0000
0001
1000
,  // measure 68
0001
0010
1000
0010
,  // measure 69
0001
1000
0010
0100
,  // measure 70
0001
0000
1000
0100
1000
0000
0001
1000
,  // measure 71
0001
0000
1000
0100
1000
0100
0010
0001
,  // measure 72
0100
0000
0010
0000
0100
0000
0001
1000
,  // measure 73
0001
1000
0001
0010
0001
0010
0100
1000
,  // measure 74
0100
1000
0001
0100
0001
0100
0010
1000
,  // measure 75
0010
1000
0001
0010
0200
0000
0000
0310
,  // measure 76
0001
0010
0001
1000
0010
1000
0010
0100
,  // measure 77
0010
0100
0010
1000
0100
1000
0100
0010
,  // measure 78
0001
0010
0001
1000
0010
0100
0001
0000
,  // measure 79
1000
0001
1000
0001
1000
0001
1000
0000
,  // measure 80
0010
0000
0010
1000
0100
0000
0010
0001
,  // measure 81
0100
0000
0100
0010
0100
0000
0000
0000
,  // measure 82
0001
0000
0001
0010
0100
0000
1000
0010
,  // measure 83
0100
0000
0100
0001
0100
0000
0000
0000
,  // measure 84
0001
0000
0001
1000
0100
0000
0010
0100
,  // measure 85
0010
0000
0010
0001
0100
0000
0000
0000
,  // measure 86
0001
1000
0001
1000
0001
1000
0001
0000
,  // measure 87
0010
0001
0010
0001
1000
0010
1000
0000
,  // measure 88
0010
0000
0010
1000
0100
0000
0010
0001
,  // measure 89
0010
0000
0010
0100
1000
0000
0000
0000
,  // measure 90
0010
0000
0010
0100
0001
0000
1000
0100
,  // measure 91
0010
0000
0010
0100
0010
0000
0000
0000
,  // measure 92
0001
0000
0001
0100
0010
0000
0100
0001
,  // measure 93
1000
0001
0101
0000
,  // measure 94
0100
0001
0100
0001
0100
0000
0001
1000
,  // measure 95
0000
0100
0100
0010
,  // measure 96
0001
0000
1000
0020
0000
0000
1030
0001
,  // measure 97
1000
0000
0010
2000
0000
0000
3010
0100
,  // measure 98
0010
0000
0100
0002
0000
0000
0013
0000
,  // measure 99
0000
0100
0100
1000
,  // measure 100
0001
0000
0100
0002
0000
0000
1003
0100
,  // measure 101
1000
0000
0010
0200
0000
0000
0301
1000
,  // measure 102
0001
0000
1000
0200
0000
0000
1300
0000
,  // measure 103
0000
0010
0010
0100
,  // measure 104
2002
0000
0000
3003
,  // measure 105
1000
0100
0010
0001
,  // measure 106
0220
0000
0000
0000
0330
0000
1000
0001
,  // measure 107
2000
0000
0000
3000
,  // measure 108
0220
0000
0000
0330
,  // measure 109
0001
1000
0001
0000
0100
0000
0010
0000
,  // measure 110
1010
0000
0000
1000
0000
0000
1001
0000
,  // measure 111
0000
0000
0001
0100
0001
0100
0001
0100
,  // measure 112
0010
0000
1000
0010
1000
0000
0010
0100
,  // measure 113
0010
0000
0100
0001
1000
0000
0100
1000
,  // measure 114
0100
0000
0010
0001
0100
0000
0101
0000
,  // measure 115
0000
0001
0010
0100
,  // measure 116
1000
0000
0100
1000
0100
0000
0010
0001
,  // measure 117
0100
0000
0010
0100
0010
0000
0100
0001
,  // measure 118
1000
0000
0100
0010
0001
0000
0011
0000
,  // measure 119
0000
0001
0100
0010
,  // measure 120
1000
0000
0001
0010
0001
0000
1000
0001
,  // measure 121
1000
0001
0010
0100
0010
0100
1000
0000
,  // measure 122
0010
0000
0100
0010
0100
0000
0001
0100
,  // measure 123
0001
1000
0100
1000
0001
0000
0000
0000
,  // measure 124
0010
0000
0100
1000
0100
0000
0010
0100
,  // measure 125
0010
0001
0100
0001
0100
0010
1000
0000
,  // measure 126
1010
0000
0000
0010
0000
0000
1001
0000
,  // measure 127
0000
0001
1000
0100
,  // measure 128
0010
0000
0001
0100
0001
0100
0010
1000
,  // measure 129
0100
0000
0000
0000
0010
0000
0000
0000
0001
0000
0000
0000
,  // measure 130
1100
0000
0000
0110
0000
0000
0011
0000
,  // measure 131
1001
0000
0000
1010
0000
0000
0101
0000
,  // measure 132
1001
0000
1000
0100
1000
0100
0010
0001
,  // measure 133
0010
0000
0000
0000
0100
0000
0000
0000
1000
0000
0000
0000
,  // measure 134
0011
0000
0000
0110
0000
0000
1100
0000
,  // measure 135
1001
0000
0000
0101
0000
0000
1010
0000
,  // measure 136
1001
0000
0001
1000
0100
0000
0010
0100
,  // measure 137
0010
0001
0010
0100
0010
0001
0100
0010
,  // measure 138
0100
0000
0000
0101
0000
0000
0010
0000
,  // measure 139
0110
0000
0000
0100
0000
0000
0101
0000
,  // measure 140
2002
0000
0000
0000
3003
0000
1000
0100
,  // measure 141
0010
0000
0000
0000
0001
0000
0000
0000
0100
0000
0000
0000
,  // measure 142
0010
0000
0000
0000
1000
0000
0000
0000
0001
0000
1000
0000
,  // measure 143
0001
0000
0000
0000
0010
0000
0000
0000
0100
0000
0000
0000
,  // measure 144
1002
0000
0000
0000
0000
0000
1003
0010
,  // measure 145
0100
0000
0000
0000
0001
0000
0000
0000
0100
0000
0000
0000
,  // measure 146
0010
0000
1000
0000
0001
0000
0010
0000
0100
0000
1000
0000
,  // measure 147
0100
0000
0000
0000
1100
0000
0000
0000
1001
0000
0000
0000
,  // measure 148
0000
0000
0000
0000
,  // measure 149
0000
0000
0000
0000
,  // measure 150
0001
0010
0100
1000
0000
1000
0000
1000
,  // measure 151
0001
0010
0100
1000
0001
0000
0001
0000
,  // measure 152
0001
1000
0010
0100
0001
1000
0000
1000
,  // measure 153
0000
1000
0001
0100
0010
1000
0000
0000
;

//---------------dance-single - ----------------
#NOTES:
     dance-single:
     :
     Challenge:
     17:
     1.000,1.000,0.788,0.187,0.179: // measure 1
0000
0000
0000
0000
,  // measure 2
0000
0000
0000
0000
,  // measure 3
0000
0000
0000
0000
,  // measure 4
0000
0000
0000
0000
,  // measure 5
0000
0000
0000
0000
,  // measure 6
0000
0000
0000
0000
,  // measure 7
0000
0000
0000
0000
,  // measure 8
1002
0000
1003
0100
,  // measure 9
0010
0001
1000
0010
,  // measure 10
1000
0010
0100
0001
1000
0000
0001
1000
,  // measure 11
0100
0000
0000
0000
,  // measure 12
1001
0000
1000
0010
0100
0000
0001
1000
,  // measure 13
0001
0000
0100
0010
1000
0000
0001
1000
,  // measure 14
0001
0000
0010
0100
1000
0000
1001
0000
,  // measure 15
0000
0000
0001
0010
0001
0010
0100
1000
,  // measure 16
0100
0000
1000
0100
0010
0000
0001
0100
,  // measure 17
0001
0000
0010
0100
1000
0000
0010
1000
,  // measure 18
0010
0000
0100
0001
1000
0000
1001
0000
,  // measure 19
0000
0000
1000
0100
1000
0100
0010
0001
,  // measure 20
1000
1010
1000
1010
,  // measure 21
0010
0100
0010
1000
0100
0010
0001
1000
,  // measure 22
0001
0101
0001
0101
,  // measure 23
0100
0110
0100
0110
,  // measure 24
1000
1100
1000
1100
,  // measure 25
0010
0001
0010
0001
0100
0010
1000
0010
,  // measure 26
0100
0000
0001
1000
0000
1000
0002
0000
,  // measure 27
0000
0000
0013
0001
0010
0001
0100
0010
,  // measure 28
0100
0000
0010
1000
0100
0000
0010
0100
,  // measure 29
0010
0000
0001
0010
0100
0000
0010
0001
,  // measure 30
0010
0000
0001
0010
0100
0000
1100
0000
,  // measure 31
0000
0000
1000
0010
1000
0010
0100
0001
,  // measure 32
0100
0001
1000
0100
0010
0000
0100
1000
,  // measure 33
0100
0000
0010
0001
0010
0000
0001
0010
,  // measure 34
0100
0000
1000
0010
0100
0000
0101
0000
,  // measure 35
0000
0000
0001
1000
0001
1000
0100
0010
,  // measure 36
0100
1100
0100
1100
,  // measure 37
0010
0100
0010
0001
0100
0010
1000
0010
,  // measure 38
0100
0101
0100
0101
,  // measure 39
0010
0110
0010
0110
,  // measure 40
1000
1100
1000
1100
,  // measure 41
0010
0001
0010
0001
0010
0100
0010
0100
,  // measure 42
1000
0000
0010
0100
0000
0100
0020
0000
,  // measure 43
0000
0000
1030
0001
1000
0001
0010
0100
,  // measure 44
1000
0000
0001
0100
0001
0100
0010
1000
,  // measure 45
0100
0000
0000
0000
1100
0000
0000
0000
0010
0000
0000
0000
,  // measure 46
0011
0000
0000
1001
0000
0000
1100
0000
,  // measure 47
1001
0000
0000
0110
0000
0000
1001
0000
,  // measure 48
1010
0000
0010
0100
0010
0100
0001
0010
,  // measure 49
0100
0000
0000
0000
1100
0000
0000
0000
0010
0000
0000
0000
,  // measure 50
0011
0000
0000
1001
0000
0000
1100
0000
,  // measure 51
1001
0000
0000
0110
0000
0000
1001
0000
,  // measure 52
0011
0000
0001
0010
0001
0010
0100
1000
,  // measure 53
0010
0000
0000
0000
1010
0000
0000
0000
0100
0000
0000
0000
,  // measure 54
0101
0000
0000
1001
0000
0000
1010
0000
,  // measure 55
1001
0000
0000
0011
0000
0000
1100
0000
,  // measure 56
1001
0000
1000
0100
1000
0001
1000
0100
,  // measure 57
1000
0000
0000
0000
1100
0000
0000
0000
1001
0000
0000
0000
,  // measure 58
0001
0000
0100
0000
1000
0000
0100
0000
0001
0000
0010
0000
,  // measure 59
0100
0000
1000
0000
0001
0000
0100
0000
0001
0000
1000
0000
,  // measure 60
0001
0000
0010
0000
1000
0000
0010
0000
0001
0000
1000
0000
,  // measure 61
0010
0000
0100
0000
0010
0000
1000
0000
0100
0000
0010
0000
,  // measure 62
2002
0000
0000
0000
,  // measure 63
0000
0000
0000
3003
,  // measure 64
1000
0000
0010
0100
0010
0000
1000
0000
,  // measure 65
1100
0010
0011
0100
,  // measure 66
0110
0000
0001
1000
0001
0000
0201
0000
,  // measure 67
0000
0000
0301
0100
0001
0000
1000
0100
,  // measure 68
1000
0000
0001
1000
0001
0000
0010
0000
,  // measure 69
0100
1100
0010
0110
,  // measure 70
0101
0000
0001
1000
0001
0000
1000
0001
,  // measure 71
1000
0000
0100
0010
0001
1000
0010
1000
,  // measure 72
0002
0000
0000
0000
0000
0000
1003
0001
,  // measure 73
1000
0100
1000
0001
0010
1000
0010
0001
,  // measure 74
1000
0100
0010
0001
0010
0001
0100
0010
,  // measure 75
0100
0010
1000
0000
1002
0000
0000
1003
,  // measure 76
0010
1000
0100
1000
0010
1000
0100
0010
,  // measure 77
0001
0100
1000
0100
0001
0010
0100
1000
,  // measure 78
0001
0010
1000
0010
0001
0010
0100
0000
,  // measure 79
1000
0001
1000
0001
1000
0001
1000
0000
,  // measure 80
0001
0100
1000
0100
0001
0100
0010
0001
,  // measure 81
0010
0100
0001
0010
0200
0000
0000
0000
,  // measure 82
1300
0010
0001
0010
1000
0010
0100
1000
,  // measure 83
0100
0010
1000
0010
0200
0000
0000
0000
,  // measure 84
0301
0010
1000
0010
0001
1000
0010
0001
,  // measure 85
0010
1000
0100
0010
0002
0000
0000
0000
,  // measure 86
1003
0010
1000
0010
0100
0001
0100
0001
,  // measure 87
0010
0100
1000
0001
0100
0001
1000
0000
,  // measure 88
0100
0010
0001
1000
0100
0001
0100
1000
,  // measure 89
0001
0010
0100
1000
0002
0000
0000
0000
,  // measure 90
0103
0010
1000
0001
0100
1000
0100
0001
,  // measure 91
0010
0100
0010
0001
2000
0000
0000
0000
,  // measure 92
3001
0100
1000
0100
0010
1000
0100
0010
,  // measure 93
0100
1000
0001
0000
0101
0000
0000
0000
,  // measure 94
0100
0001
0010
0100
1000
0001
0100
0001
,  // measure 95
0000
0000
0010
0001
0010
0001
1000
0100
,  // measure 96
1000
0010
0100
0001
0000
0000
1000
0100
,  // measure 97
1000
0010
0100
0001
0000
0000
1000
0100
,  // measure 98
1000
0010
0100
0001
0000
0000
1001
0000
,  // measure 99
0000
0000
0010
1000
0010
1000
0001
0010
,  // measure 100
0001
0100
0010
1000
0000
0000
0001
0010
,  // measure 101
0001
0100
0010
1000
0000
0000
0001
0010
,  // measure 102
0001
0100
0010
1000
0000
0000
1001
0000
,  // measure 103
0000
0000
0001
0010
0001
0010
0100
1000
,  // measure 104
0002
0000
0000
0003
,  // measure 105
1000
0100
1000
0100
0010
0001
0100
0000
,  // measure 106
0202
0000
0000
0000
0303
0000
0100
0010
,  // measure 107
2000
0000
0000
3000
,  // measure 108
2002
0000
0000
3003
,  // measure 109
0001
0100
0001
0100
0010
1000
0001
0000
,  // measure 110
1001
0000
0000
0110
0000
0000
1001
0000
,  // measure 111
0000
0000
0001
0100
0010
0001
0010
0100
,  // measure 112
0001
0000
1000
0100
1000
0000
0010
0100
,  // measure 113
0000
0100
0000
0100
0001
0000
0010
0100
,  // measure 114
1000
0000
0100
1000
0001
0000
1001
0000
,  // measure 115
0000
0000
1000
0010
0100
1000
0100
0010
,  // measure 116
1000
0000
0010
0100
0010
0000
1000
0001
,  // measure 117
0000
0001
0000
0001
0010
0000
0100
1000
,  // measure 118
0100
1000
0010
0100
0001
0000
0101
0000
,  // measure 119
0000
0000
0100
0001
0010
0100
1000
0001
,  // measure 120
0100
0101
0001
1001
,  // measure 121
1000
0010
0001
0010
1000
0100
1000
0000
,  // measure 122
0010
1010
0010
1010
,  // measure 123
1000
0001
0010
0100
0010
0001
1000
0000
,  // measure 124
0100
1100
0100
1100
,  // measure 125
1000
0010
0001
0010
1000
0100
0010
0000
,  // measure 126
0101
0000
0100
0010
1000
0000
1001
0000
,  // measure 127
0000
0000
0001
0010
0001
0010
0100
1000
,  // measure 128
0010
0000
1000
0001
0010
0001
1000
0001
,  // measure 129
0010
0000
0000
0000
0011
0000
0000
0000
0110
0000
0000
0000
,  // measure 130
1100
0000
1000
0010
0000
0010
0100
0000
,  // measure 131
0001
0100
0000
0100
0010
0000
1010
0000
,  // measure 132
1001
0000
0001
1000
0100
1000
0001
0100
,  // measure 133
0001
0000
0000
0000
0101
0000
0000
0000
1010
0000
0000
0000
,  // measure 134
1001
0000
1000
0001
0000
0001
0010
0000
,  // measure 135
0110
0000
0100
1000
0000
1000
0001
0000
,  // measure 136
1001
0000
0001
0100
0010
0001
0010
0100
,  // measure 137
0001
0000
0000
0000
0101
0000
0000
0000
1010
0000
0000
0000
,  // measure 138
1001
0000
1000
0010
0000
0010
0100
0000
,  // measure 139
0101
0000
0010
1000
0000
1000
0001
0000
,  // measure 140
2002
0000
0000
0000
,  // measure 141
0000
0000
0000
3003
,  // measure 142
1000
0000
0010
0000
0100
0000
0001
0000
0010
0000
1000
0000
,  // measure 143
0010
0000
0001
0000
0010
0000
0100
0000
0010
0000
0001
0000
,  // measure 144
2002
0000
0000
0000
,  // measure 145
0000
0000
0000
3003
,  // measure 146
0100
0000
1000
0000
0100
0000
0001
0000
0100
0000
1000
0000
,  // measure 147
1001
0000
0000
0000
0110
0000
0000
0000
1001
0000
0000
0000
,  // measure 148
0000
0000
0000
0000
,  // measure 149
0000
0000
0000
0000
,  // measure 150
1000
0001
0100
0010
0000
0110
0000
0010
,  // measure 151
1000
0100
0010
0001
0100
0000
0110
0000
,  // measure 152
0100
0010
1000
0001
0100
0010
0000
0110
,  // measure 153
0000
0010
1000
0001
0010
0100
0000
0000
;

//---------------dance-single - ----------------
#NOTES:
     dance-single:
     :
     Beginner:
     5:
     0.201,0.310,0.081,0.000,0.000: // measure 1
0000
0000
0000
0000
,  // measure 2
0000
0000
0000
0000
,  // measure 3
0000
0000
0000
0000
,  // measure 4
0000
0000
0000
0000
,  // measure 5
0000
0000
0000
0000
,  // measure 6
0000
0000
0000
0000
,  // measure 7
0000
0000
0000
0000
,  // measure 8
1001
0000
0000
0000
,  // measure 9
0000
0000
0000
0000
,  // measure 10
1001
0000
0000
0000
,  // measure 11
0000
0000
0000
0000
,  // measure 12
0001
0000
0000
0000
,  // measure 13
0001
0000
0000
0000
,  // measure 14
0100
0000
0000
0000
,  // measure 15
0100
0000
0000
0000
,  // measure 16
0010
0000
0000
0000
,  // measure 17
0010
0000
0000
0000
,  // measure 18
1000
0000
0000
0000
,  // measure 19
1000
0000
0000
0000
,  // measure 20
0001
0000
1000
0000
,  // measure 21
0001
0000
1000
0000
,  // measure 22
0001
0000
1000
0000
,  // measure 23
0001
0000
0000
0000
,  // measure 24
0100
0000
0001
0000
,  // measure 25
0100
0000
0001
0000
,  // measure 26
0100
0000
0000
0100
,  // measure 27
0000
0000
0000
0000
,  // measure 28
0010
0000
0000
0000
,  // measure 29
0010
0000
0000
0000
,  // measure 30
1000
0000
0000
0000
,  // measure 31
1000
0000
0000
0000
,  // measure 32
0001
0000
0000
0000
,  // measure 33
0001
0000
0000
0000
,  // measure 34
0010
0000
0000
0000
,  // measure 35
0010
0000
0000
0000
,  // measure 36
0001
0000
1000
0000
,  // measure 37
0001
0000
1000
0000
,  // measure 38
0001
0000
0000
0000
,  // measure 39
0001
0000
0000
0000
,  // measure 40
1000
0000
0100
0000
,  // measure 41
1000
0000
0100
0000
,  // measure 42
1000
0000
0000
1000
,  // measure 43
0000
0000
0000
0000
,  // measure 44
0010
0000
0000
0000
,  // measure 45
0100
0000
0000
0000
,  // measure 46
0010
0000
0000
0000
,  // measure 47
0100
0000
0000
0000
,  // measure 48
0001
0000
0000
0000
,  // measure 49
0010
0000
0000
0000
,  // measure 50
0001
0000
0000
0000
,  // measure 51
0001
0000
0000
0000
,  // measure 52
1000
0000
0000
0000
,  // measure 53
0100
0000
0000
0000
,  // measure 54
1000
0000
0000
0000
,  // measure 55
1000
0000
0000
0000
,  // measure 56
0010
0000
0000
0000
,  // measure 57
0100
0000
0000
0000
,  // measure 58
0001
0000
0000
0000
,  // measure 59
1000
0000
0000
0000
,  // measure 60
0001
0000
0000
0000
,  // measure 61
0010
0000
0000
0000
,  // measure 62
0100
0000
0000
0000
,  // measure 63
0000
0000
0000
0000
,  // measure 64
1000
0000
0001
0000
,  // measure 65
1000
0000
0001
0000
,  // measure 66
1000
0000
0000
0100
,  // measure 67
0000
0000
0000
0000
,  // measure 68
0010
0000
0001
0000
,  // measure 69
0010
0000
0001
0000
,  // measure 70
0010
0000
0000
0100
,  // measure 71
0000
0000
0000
0000
,  // measure 72
1000
0000
0001
0000
,  // measure 73
1000
0000
0001
0000
,  // measure 74
1000
0000
0000
0010
,  // measure 75
0000
0000
0000
0000
,  // measure 76
0100
0000
0001
0000
,  // measure 77
0100
0000
0001
0000
,  // measure 78
0100
0000
0000
0010
,  // measure 79
0000
0000
0000
0000
,  // measure 80
1000
0000
1000
0000
,  // measure 81
1000
0000
0000
0000
,  // measure 82
0001
0000
0001
0000
,  // measure 83
0001
0000
0000
0000
,  // measure 84
1000
0000
1000
0000
,  // measure 85
1000
0000
0000
0000
,  // measure 86
0001
0000
0001
0000
,  // measure 87
0001
0000
0000
0000
,  // measure 88
0010
0000
0010
0000
,  // measure 89
0010
0000
0000
0000
,  // measure 90
0100
0000
0100
0000
,  // measure 91
0100
0000
0000
0000
,  // measure 92
1000
0000
1000
0000
,  // measure 93
0010
0000
0000
0000
,  // measure 94
0100
0000
0000
0000
,  // measure 95
0000
0000
0000
0000
,  // measure 96
0001
0000
0000
0000
,  // measure 97
0000
0000
0000
0000
,  // measure 98
1000
0000
0000
0000
,  // measure 99
0000
0000
0000
0000
,  // measure 100
0100
0000
0000
0000
,  // measure 101
0000
0000
0000
0000
,  // measure 102
0010
0000
0000
0000
,  // measure 103
0000
0000
0000
0000
,  // measure 104
1001
0000
0000
0000
,  // measure 105
0000
0000
0000
0000
,  // measure 106
1001
0000
0000
0000
,  // measure 107
0000
0000
0000
0000
,  // measure 108
0110
0000
0000
0000
,  // measure 109
0000
0000
0000
0000
,  // measure 110
0110
0000
0000
0000
,  // measure 111
0000
0000
0000
0000
,  // measure 112
1001
0000
0000
0000
,  // measure 113
0001
0000
0000
0000
,  // measure 114
1000
0000
0000
0000
,  // measure 115
0000
0000
0000
0000
,  // measure 116
0100
0000
0000
0000
,  // measure 117
1000
0000
0000
0000
,  // measure 118
0010
0000
0000
0000
,  // measure 119
0000
0000
0000
0000
,  // measure 120
0100
0000
0001
0000
,  // measure 121
0100
0000
0001
0000
,  // measure 122
0100
0000
0001
0000
,  // measure 123
1000
0000
0000
0000
,  // measure 124
0100
0000
1000
0000
,  // measure 125
0100
0000
1000
0000
,  // measure 126
0100
0000
0000
0010
,  // measure 127
0000
0000
0000
0000
,  // measure 128
0001
0000
0000
0000
,  // measure 129
1000
0000
0000
0000
,  // measure 130
0001
0000
0000
0000
,  // measure 131
0010
0000
0000
0000
,  // measure 132
0001
0000
0000
0000
,  // measure 133
1000
0000
0000
0000
,  // measure 134
0100
0000
0000
0000
,  // measure 135
0010
0000
0000
0000
,  // measure 136
0001
0000
0100
0000
,  // measure 137
0001
0000
0100
0000
,  // measure 138
0001
0000
1000
0000
,  // measure 139
0001
0000
1000
0000
,  // measure 140
0100
0000
0000
0000
,  // measure 141
0000
0000
0000
0000
,  // measure 142
0100
0000
0000
0000
,  // measure 143
0100
0000
0000
0000
,  // measure 144
0010
0000
0000
0000
,  // measure 145
0010
0000
0000
0000
,  // measure 146
0001
0000
0000
0000
,  // measure 147
0001
0000
0000
0000
,  // measure 148
0000
0000
0000
0000
,  // measure 149
0000
0000
0000
0000
,  // measure 150
1001
0000
0000
0000
,  // measure 151
0000
0110
0000
0000
0000
0000
0000
0000
,  // measure 152
0000
1001
0000
0000
,  // measure 153
0000
0001
1000
0000
;
