#TITLE:METALGEAR SOLID;
#SUBTITLE:~Main Theme GB;
#ARTIST:ESPACIO BROTHERS;
#TITLETRANSLIT:;
#SUBTITLETRANSLIT:~Main Theme GB;
#ARTISTTRANSLIT:;
#CREDIT:DigiMindAxel;
#BANNER:METALGEAR SOLID ~Main Theme GB.png;
#BACKGROUND:METALGEAR SOLID ~Main Theme GB-bg.png;
#LYRICSPATH:;
#CDTITLE:beatmania.png;
#MUSIC:METALGEAR SOLID ~Main Theme GB.ogg;
#METERTYPE:DDR X;
#OFFSET:-8.492;
#SAMPLESTART:57.714;
#SAMPLELENGTH:12.000;
#SELECTABLE:YES;
#BPMS:0.000=145.820;
#STOPS:;
#BGCHANGES:;

//---------------dance-single - ----------------
#NOTES:
     dance-single:
     :
     Easy:
     4:
     0.252,0.275,0.109,0.218,0.000:
2000
0000
3100
0010
,
0001
1000
0001
1000
,
0200
0000
1300
0000
,
1001
0000
0000
0000
,
0010
0100
0010
0100
,
0001
1000
0001
0000
,
0100
0010
0100
0010
,
1001
0000
0000
0000
,
2000
0000
3010
1000
,
0002
0000
0000
1003
,
0002
0000
0013
0100
,
2000
0000
0000
0000
,
3002
0000
0013
0100
,
2000
0000
0000
3001
,
0020
0000
0031
0100
,
0020
0000
0000
0030
,
1001
0000
0000
0000
,
0002
0000
0103
0010
,
1000
0002
0000
0013
,
0200
0000
0000
1300
,
0001
0100
0010
1000
,
0200
0000
1300
0010
,
0200
0000
0000
0301
,
2000
0000
3100
0010
,
0002
0000
0000
0000
,
2003
0000
0000
0000
,
3001
0000
0010
0000
,
0001
0000
0100
0000
,
0010
0000
1000
0000
,
0100
0000
0010
0000
,
0001
0001
1001
0000
,
1000
1000
1001
0000
,
0001
0001
1001
0000
,
1000
1000
0000
0000
,
0010
0100
0010
0100
,
0001
1000
0001
1000
,
0100
0010
0100
0010
,
1001
0000
0000
0000
,
1001
0100
0010
0001
,
0001
0010
0100
1000
,
1000
0010
0100
0001
,
1001
0000
0000
0000
,
0010
0100
0010
0000
,
1000
0001
1000
0000
,
0001
0100
0001
0000
,
2002
0000
0000
3003
,
1000
0100
1000
0001
,
1000
0100
0010
0000
,
0001
0100
0001
1000
,
0001
0010
0000
0000
,
0001
1000
0100
0010
,
0100
1000
0010
0100
,
0001
1000
0100
0010
,
0001
2002
0000
0000
,
0000
0000
0000
0000
,
0000
0000
3003
0000
;

//---------------dance-single - ----------------
#NOTES:
     dance-single:
     :
     Hard:
     10:
     0.502,0.468,0.099,0.496,0.174:
2001
0000
3001
1000
0100
0010
0100
0000
,
1000
0001
0010
0000
0100
1000
0001
0000
,
0201
0000
0301
1000
0010
0100
0001
0000
,
2002
0000
0000
3003
,
1000
0000
0000
1000
0000
0000
1000
0000
0010
0000
0100
0000
0000
0000
0000
0000
,
0001
0000
0000
0001
0000
0000
0001
0000
0100
0000
0010
0000
0000
0000
0000
0000
,
1000
0000
0000
1000
0000
0000
1000
0000
0100
0000
0010
0000
0000
0000
0000
0000
,
1001
0000
0000
1001
0000
0000
1001
0000
0000
0000
0000
0000
0010
0000
0100
0000
,
0002
0000
0100
0000
0103
0001
0010
0100
,
2000
0000
3002
0000
0103
0000
0010
1000
,
0002
0000
0010
0000
0013
0100
1000
0001
,
0200
0000
0302
0000
2003
0000
3001
0010
,
0200
0000
1000
0000
1300
0001
0100
0010
,
2000
0000
3020
0000
0130
0000
0001
0010
,
0200
0000
0000
0000
0310
0000
0001
1000
0001
0000
0000
1000
0000
0000
0100
0000
,
0020
0000
0001
0000
0001
0001
0000
0000
,
0031
0000
0000
1000
0000
0100
0000
0000
,
1001
0000
0010
0000
0100
1000
0010
0100
,
0002
0000
0023
0000
0130
0000
1000
0010
,
0001
0000
0010
0000
1000
0001
0010
0100
,
2000
0000
3002
0000
0203
0000
1300
0100
,
0001
0000
0010
0000
0100
0010
0001
1000
,
0020
0000
0230
0000
0301
0000
1000
0100
,
0020
0000
0000
0000
0031
0000
1000
0010
1000
0000
0000
0010
0000
0000
0100
0000
,
0002
0000
1000
0000
1000
1003
0000
0000
,
0200
0000
1000
0000
1000
1300
0000
0000
,
0001
0010
0000
0001
1000
0000
0200
0000
,
1000
0000
1000
1300
0000
0000
0010
0000
,
0001
0000
0200
0000
0000
0000
0001
0000
0001
0000
0000
0001
0000
0000
0301
0000
,
0000
0000
1000
0000
0001
0010
0100
0000
,
0020
0000
0000
0001
0000
0000
0031
0000
0010
0000
0100
0000
0000
0000
1000
0010
,
2000
0000
0000
0010
0000
0000
3010
0000
0100
0000
0001
0000
0000
0000
0010
0001
,
0020
0000
0000
0001
0000
0000
0031
0000
0100
0000
0010
0000
0000
0000
1000
0001
,
2000
0020
0000
3030
,
2000
0000
0000
0001
0000
0000
3001
0000
1000
0000
0100
0000
0000
0000
0010
0001
,
0020
0000
0000
0001
0000
0000
0031
0000
0100
0000
0010
0000
0000
0000
1000
0001
,
2000
0000
0000
0001
0000
0000
3001
0000
1000
0000
0100
0000
0000
0000
0010
0100
,
0020
0000
0000
0000
,
1030
0010
0100
1000
0100
0010
1000
1000
,
0001
0100
0010
0001
0010
0100
0100
0100
,
0002
0000
1003
0001
0010
0100
1000
0000
,
1001
0000
0000
0000
0000
0000
0000
0000
0000
0000
0001
1000
0001
0000
1000
0001
,
1000
0100
0010
0001
1000
0010
1000
0000
,
0100
0001
0100
1000
0100
0010
0001
0000
,
1000
0100
0010
0001
1000
0001
0100
0000
,
2002
0000
0000
3003
,
0002
0000
0000
0100
0000
0000
0103
0000
0010
0000
1000
0000
0000
0000
0010
0100
,
0020
0000
0000
0100
0000
0000
0130
0000
0001
0000
0010
0000
0000
0000
0100
1000
,
0200
0000
0000
1000
0000
0000
1300
0000
0010
0000
0100
0000
0000
0000
0001
1000
,
0002
2000
0000
3003
,
2000
0000
0000
0100
0000
0000
3100
0000
0010
0000
0001
0000
0000
0000
0100
0010
,
0200
0000
0000
0010
0000
0000
0310
0000
1000
0000
0001
0000
0000
0000
0010
0001
,
0020
0000
0000
0001
0000
0000
0031
0000
0010
0000
0100
0000
0000
0000
1000
0010
,
1000
2002
0000
0000
,
0000
0000
0000
0000
,
0000
0000
3003
0000
;

//---------------dance-single - ----------------
#NOTES:
     dance-single:
     :
     Challenge:
     13:
     0.635,0.633,0.169,0.278,0.437: // measure 1
0001
0000
1000
0100
0000
1000
0100
0000
0010
0000
0001
0000
1000
0000
0010
0000
,  // measure 2
0100
0010
1000
0000
0001
0010
0100
0000
,  // measure 3
1000
0000
0010
0100
0000
0010
0100
0000
0001
0000
1000
0000
0100
0000
0000
0000
,  // measure 4
2000
0000
0000
0000
0000
0000
0000
0000
0000
0000
3001
1000
0001
0000
1000
0001
,  // measure 5
1000
0000
0000
0001
0000
0000
0010
0000
1000
0000
0010
0000
0001
0000
0000
0000
,  // measure 6
1000
0000
0000
0001
0000
0000
0100
0000
1000
0000
0100
0000
0001
0000
0000
0000
,  // measure 7
0010
0000
0000
0100
0000
0000
1000
0000
0010
0000
0001
0000
0010
0000
0000
0000
,  // measure 8
1001
0000
0000
1001
0000
0000
0110
0000
0000
0000
0000
0000
0001
0000
0010
0000
,  // measure 9
0100
0000
1000
0001
1000
0000
0100
0000
1000
0000
0001
1000
0001
0000
0010
0000
,  // measure 10
0100
0000
0010
0001
0010
0000
0001
0000
0100
0000
0010
0100
0010
0000
1000
0000
,  // measure 11
0100
0000
0010
0100
0010
0000
0001
0000
1000
0000
0010
1000
0010
0000
0100
0000
,  // measure 12
0001
0000
0100
0010
0100
0000
0001
0000
1000
0000
0100
1000
0100
0000
0010
0000
,  // measure 13
0001
0000
1000
0010
1000
0000
0001
0000
0010
0000
0100
1000
0100
0000
1000
0000
,  // measure 14
0001
0000
0100
0001
0100
0000
0001
0000
1000
0000
0010
0100
0010
0000
1000
0000
,  // measure 15
0001
0000
0010
0001
0010
0000
0100
0000
1000
0000
0001
0100
0001
0000
1000
0000
,  // measure 16
0001
0000
0010
0100
0000
0010
0100
0000
1000
0000
0010
0000
0100
0000
0000
0000
,  // measure 17
0001
0010
0100
1000
0001
0010
0100
1000
,  // measure 18
0002
0000
0100
0000
0103
0001
0010
0001
,  // measure 19
0200
0000
0320
0000
1030
0000
0001
0010
,  // measure 20
0200
0000
1000
0000
1300
0001
0100
0010
,  // measure 21
2000
0000
3002
0000
0203
0000
0310
1000
,  // measure 22
0002
0000
0010
0000
0013
0100
1000
0001
,  // measure 23
0200
0000
0302
0000
1003
0000
0001
0010
,  // measure 24
0200
0000
0000
0000
0310
0000
0001
0100
0020
0000
0000
2030
0000
0000
3001
0000
,  // measure 25
1000
0000
0010
0100
0000
0010
0100
0000
0001
0000
1000
0000
0100
0000
0000
0000
,  // measure 26
1000
0000
0100
0010
0000
0100
0010
0000
0001
0000
0100
0000
0010
0000
0000
0000
,  // measure 27
1000
0000
0010
1000
0001
0000
0020
0000
0000
0000
0100
0000
0130
0000
0000
0000
,  // measure 28
1000
0000
0100
0010
0001
0000
0200
0000
0000
0000
0001
0000
0301
0000
1000
0000
,  // measure 29
0100
0000
0010
0001
0100
0000
0020
0000
0000
0000
1000
0000
1030
0000
0000
0000
,  // measure 30
0001
0000
0100
0010
1000
0000
0020
0000
0000
0000
1000
0000
1030
0000
0001
0000
,  // measure 31
0010
0000
0100
0010
0000
0100
0010
0000
0001
0000
0101
0000
0000
0000
0010
1000
,  // measure 32
0100
0000
0010
0001
0000
0010
0001
0000
1000
0000
1100
0000
0000
0000
0010
0100
,  // measure 33
1000
0000
0001
0100
0000
0001
0100
0000
0001
0000
1001
0000
0000
0000
1000
0010
,  // measure 34
0200
0002
0000
0303
,  // measure 35
0001
0000
1000
0100
0000
1000
0100
0000
0010
0000
0011
0000
0000
0000
0100
1000
,  // measure 36
0010
0000
0100
0001
0000
0100
0001
0000
0010
0000
1100
0000
0000
0000
0010
0100
,  // measure 37
1000
0000
0001
0100
0000
0001
0100
0000
0001
0000
1001
0000
0000
0000
1000
0010
,  // measure 38
0200
0000
0000
0000
,  // measure 39
0301
0000
0010
0000
0100
0000
1000
0000
0001
0000
0100
0001
0100
0001
0100
0001
,  // measure 40
0100
0000
0010
0000
1000
0000
0100
0000
0010
0000
0100
1000
0100
1000
0100
1000
,  // measure 41
0100
0000
1000
0001
0000
1000
0001
0000
0100
0000
0010
0000
0100
0000
0001
0000
,  // measure 42
1000
0000
0000
0000
0000
0000
0000
0000
0000
0000
0010
0100
0010
0000
0100
0010
,  // measure 43
0100
0000
0001
0010
0000
0001
0010
0000
0100
0000
1000
0000
0001
0000
0100
0000
,  // measure 44
0001
0000
1000
0100
0010
0000
0100
0010
0001
0000
1000
0000
0020
0000
0000
0000
,  // measure 45
0130
0000
0001
0010
0000
0001
0010
0000
0100
0000
1000
0000
0010
0000
0000
0000
,  // measure 46
2002
0000
0000
3003
,  // measure 47
1000
0000
0100
0010
0000
0001
0100
0000
0001
0000
1001
0000
0000
0000
0001
0100
,  // measure 48
0010
0000
1000
0100
0000
0010
0100
0000
1000
0000
1010
0000
0000
0000
0100
0001
,  // measure 49
0010
0000
0100
1000
0000
0001
0100
0000
0010
0000
1010
0000
0000
0000
1000
0100
,  // measure 50
0020
0002
0000
0033
,  // measure 51
0001
0000
0100
0010
0000
1000
0100
0000
0010
0000
0011
0000
0000
0000
0100
0010
,  // measure 52
1000
0000
0100
0010
0000
0001
0100
0000
0010
0000
1010
0000
0000
0000
0100
0001
,  // measure 53
1000
0000
0100
0010
0000
0100
1000
0000
0010
0000
0110
0000
0000
0000
0001
0100
,  // measure 54
0010
2002
0000
0000
,  // measure 55
0000
0000
0000
0000
,  // measure 56
0000
0000
3003
0000
;

//---------------dance-single - ----------------
#NOTES:
     dance-single:
     :
     Medium:
     7:
     0.353,0.385,0.109,0.159,0.000:
0001
1000
0010
0100
,
0001
0000
1000
0000
0000
0001
1000
0000
,
0001
0010
0100
1000
,
1001
0000
0000
0000
,
1010
0000
0010
0000
0010
0100
0000
0000
,
1001
0000
0001
0000
0001
0010
0000
0000
,
1100
0000
0100
0000
0100
1000
0000
0000
,
0110
0000
0000
0110
0000
0000
0000
0000
,
0100
0010
0100
0000
1000
0001
1000
0000
,
0001
0100
0001
1000
0100
0000
0010
0000
,
0001
0010
0001
0000
1000
0001
1000
0000
,
0010
1000
0010
1000
0001
0000
0010
0000
,
0100
0010
0100
0000
1000
0010
1000
0000
,
0001
0010
0001
0010
0100
0000
1000
0000
,
0010
0100
0010
0000
0100
0001
0100
0000
,
0001
1000
0001
1000
0001
0100
0000
0000
,
1001
0000
0000
0000
,
0002
0100
0103
0010
,
1000
0200
0010
0310
,
0002
1000
1003
0001
,
0010
0200
1000
1300
,
0020
0000
0100
0000
0130
0000
0001
1000
,
0001
2000
0100
3100
,
0020
0001
0031
1000
,
0020
0000
0100
0000
0100
0130
0000
0000
,
0002
0000
0010
0000
0010
0013
0000
0000
,
0100
0000
0000
1000
0000
0000
0001
0000
,
0100
0000
0000
0010
0000
0000
0100
0000
,
0001
0000
0000
0010
0000
0000
0100
0000
,
1000
0000
0000
0001
0000
0000
0010
0000
,
0100
0000
0100
0000
1000
0100
0000
0010
,
0001
0000
0001
0000
0010
0001
0000
0100
,
0010
0000
0010
0000
0100
0001
0000
1000
,
0100
0000
0000
0000
,
0010
0000
0010
0000
0001
1000
0000
0100
,
0010
0000
0010
0000
0001
0010
0000
0001
,
0100
0000
0100
0000
0010
1000
0000
0001
,
0010
0000
0000
0000
,
0001
0100
0100
0001
1000
0000
1000
0000
,
0100
0010
0010
0001
0100
0000
0100
0000
,
0020
0000
1000
0000
1000
1030
0000
0000
,
1001
0000
0000
0000
,
0020
0000
0001
0000
0001
0031
0000
0000
,
1000
0010
1000
0010
0100
0000
0001
0000
,
0020
0000
0001
0000
0001
0031
0000
0000
,
2002
0000
0000
3003
,
1100
0000
0100
0000
0100
1000
0000
0010
,
0100
0000
0100
0000
0001
0010
0000
0001
,
1000
0000
1000
0000
0100
0010
0000
0001
,
0100
0000
0000
0000
,
0001
0000
0001
0000
0010
0001
0000
0100
,
0010
0000
0010
0000
1000
0100
0000
1000
,
0001
0000
0001
0000
0100
0010
0000
1000
,
0010
2002
0000
0000
,
0000
0000
0000
0000
,
0000
0000
3003
0000
;

//---------------dance-single - ----------------
#NOTES:
     dance-single:
     :
     Beginner:
     2:
     0.098,0.132,0.020,0.000,0.000:
0001
0000
0000
0000
,
0000
0000
0000
0000
,
1000
0000
0000
0000
,
0010
0000
0000
0000
,
1000
0000
0000
0000
,
0100
0000
0000
0000
,
0010
0000
0000
0000
,
1001
0000
0000
0000
,
0001
0000
0000
0000
,
0100
0000
0000
0000
,
0010
0000
0000
0000
,
0100
0000
0000
0000
,
0001
0000
0000
0000
,
1000
0000
0000
0000
,
0100
0000
0000
0000
,
0010
0000
0000
0000
,
1001
0000
0000
0000
,
1000
0000
0000
0000
,
0100
0000
0000
0000
,
1000
0000
0000
0000
,
0001
0000
0000
0000
,
0100
0000
0000
0000
,
0010
0000
0000
0000
,
0100
0000
0000
0000
,
0001
0000
0000
0000
,
1000
0000
0000
0000
,
0010
0000
0000
0000
,
0000
0000
0000
0000
,
0010
0000
0000
0000
,
0000
0000
0000
0000
,
0100
0000
0100
0000
,
0010
0000
0010
0000
,
0100
0000
0100
0000
,
0010
0000
0000
0000
,
1000
0000
1000
0000
,
0001
0000
0001
0000
,
1000
0000
1000
0000
,
0001
0000
0000
0000
,
0010
0000
0000
0000
,
0100
0000
0000
0000
,
1000
0000
1000
0000
,
0001
0000
0000
0000
,
0010
0000
0001
0000
,
0100
0000
0000
0000
,
0010
0000
1000
0000
,
0001
0000
0000
0000
,
0010
0000
0010
0000
,
0100
0000
0100
0000
,
0010
0000
0010
0000
,
0100
0000
0000
0000
,
1000
0000
1000
0000
,
0001
0000
0001
0000
,
1000
0000
1000
0000
,
0001
0100
0000
0000
;
