#TITLE:メロス;
#SUBTITLE:;
#ARTIST:水曜日のカンパネラ;
#TITLETRANSLIT:MELOS;
#SUBTITLETRANSLIT:;
#ARTISTTRANSLIT:SUIYOUBI NO CAMPANELLA;
#CREDIT:DigiMindAxel;
#BANNER:MELOS.png;
#BACKGROUND:MELOS-bg.png;
#LYRICSPATH:MELOS.lrc;
#CDTITLE:DigiMindAxel original simfile.png;
#MUSIC:MELOS.ogg;
#METERTYPE:DDR X;
#OFFSET:-0.553;
#SAMPLESTART:63.552;
#SAMPLELENGTH:12.000;
#SELECTABLE:YES;
#BPMS:0.000=160.000,40.000=80.000,48.000=160.000,64.000=80.000,68.000=160.000,285.000=80.000,293.000=160.000;
#STOPS:156.000=1.125
;
#BGCHANGES:0.000=MELOS.avi=1.000=1=1=0,
99999=-nosongbg-=1.000=0=0=0 // don't automatically add -songbackground-
;

//---------------dance-single - ----------------
#NOTES:
     dance-single:
     :
     Easy:
     3:
     0.177,0.304,0.047,0.158,0.000: // measure 1
0000
0000
0000
0000
,  // measure 2
0000
0000
0000
0000
,  // measure 3
0000
0000
0000
0000
,  // measure 4
0000
0000
0000
0000
,  // measure 5
0000
0000
0000
0000
,  // measure 6
0000
0000
0000
0000
,  // measure 7
0002
0000
0000
0000
,  // measure 8
2003
0000
0000
0000
,  // measure 9
3200
0000
0000
0000
,  // measure 10
0310
0000
0000
0000
,  // measure 11
1001
1000
1000
1000
,  // measure 12
0001
0001
0001
0001
,  // measure 13
0010
0000
0100
0000
,  // measure 14
0010
0000
0100
0000
,  // measure 15
1000
0001
1000
0000
,  // measure 16
0100
0000
0010
0000
,  // measure 17
0002
0100
0103
0000
,  // measure 18
0010
0000
1000
0000
,  // measure 19
0100
0000
0000
0000
,  // measure 20
0010
0000
0001
0000
,  // measure 21
0100
0000
0010
0000
,  // measure 22
0100
0000
0001
0000
,  // measure 23
1000
0000
0100
0000
,  // measure 24
0020
0000
0000
0230
,  // measure 25
0000
0000
0300
0000
,  // measure 26
0002
0000
0000
2003
,  // measure 27
0000
0000
3000
0000
,  // measure 28
0000
0010
0000
0100
,  // measure 29
0000
0010
0000
0000
,  // measure 30
1000
0000
0001
1000
,  // measure 31
0001
0000
0020
0000
,  // measure 32
0000
0032
0000
0000
,  // measure 33
0003
0000
0200
0000
,  // measure 34
0000
0320
0000
0000
,  // measure 35
0000
0030
0000
1000
,  // measure 36
0000
0000
0100
0000
,  // measure 37
0000
0010
0000
0000
,  // measure 38
0001
1000
0001
1000
,  // measure 39
0001
0000
0000
0000
,  // measure 40
0000
1002
0000
1003
,  // measure 41
0000
0000
0000
0000
,  // measure 42
0000
0120
0000
0130
,  // measure 43
0000
0000
0000
0000
,  // measure 44
0000
2001
0000
3001
,  // measure 45
0000
0000
0000
0000
,  // measure 46
0000
0120
0000
0130
,  // measure 47
0000
0000
0000
0000
,  // measure 48
0000
1001
0000
0001
,  // measure 49
0000
0000
0000
1000
,  // measure 50
0000
0000
0000
0100
,  // measure 51
0000
0000
0000
0010
,  // measure 52
0000
0000
0000
0001
,  // measure 53
0000
0000
0000
0100
,  // measure 54
0000
0000
0000
0010
,  // measure 55
0000
0000
0000
0000
,  // measure 56
0000
1000
0001
1000
,  // measure 57
0000
0100
0000
0010
,  // measure 58
0000
0001
1000
0001
,  // measure 59
0000
0010
0000
0100
,  // measure 60
0000
1000
0001
1000
,  // measure 61
0000
0010
0000
0100
,  // measure 62
0000
0001
1000
0001
,  // measure 63
0000
0100
0000
0010
,  // measure 64
0000
1000
0001
1000
,  // measure 65
0000
0100
0000
0010
,  // measure 66
0000
0001
0100
0001
,  // measure 67
0000
0100
0000
0010
,  // measure 68
0000
1000
0001
1000
,  // measure 69
0000
0100
0000
0010
,  // measure 70
0000
0001
0010
0001
,  // measure 71
0000
0100
0000
0010
,  // measure 72
0000
2000
0000
3002
,  // measure 73
0000
0023
0000
0032
,  // measure 74
0000
1003
0100
0010
,  // measure 75
0000
0100
1000
0100
,  // measure 76
0000
0010
0100
1000
,  // measure 77
0000
0010
0100
0010
,  // measure 78
0100
0000
0000
0000
;

//---------------dance-single - ----------------
#NOTES:
     dance-single:
     :
     Medium:
     9:
     0.361,0.517,0.150,0.095,0.000: // measure 1
0000
0000
0000
0000
,  // measure 2
0000
0000
0000
0000
,  // measure 3
0000
0000
0000
0000
,  // measure 4
0000
0000
0000
0000
,  // measure 5
0000
0000
0000
0000
,  // measure 6
0000
0000
0000
0000
,  // measure 7
1000
0001
0010
1000
,  // measure 8
0010
0001
1000
0010
,  // measure 9
0200
0001
0001
0001
,  // measure 10
0301
0000
0000
0100
,  // measure 11
0110
1100
0110
0011
,  // measure 12
0110
1100
0110
0011
,  // measure 13
0001
0000
1000
0100
1000
0000
0010
0000
,  // measure 14
0110
0000
0100
0001
0100
0000
0001
0000
,  // measure 15
1100
0000
0010
0100
0010
0000
0001
0000
,  // measure 16
0101
0000
0100
0010
1000
0000
1001
0000
,  // measure 17
0120
0100
0230
0301
,  // measure 18
1001
0000
0100
1000
0100
0000
0000
0010
,  // measure 19
0000
0000
0002
0000
,  // measure 20
1003
0000
0001
0100
0010
0000
1000
0001
,  // measure 21
1000
0000
0100
0000
0010
0000
0001
0100
,  // measure 22
0010
0110
1001
0100
,  // measure 23
0010
0001
0100
0000
0001
1000
0001
0000
,  // measure 24
2000
0000
0000
0100
0000
0000
0100
0000
,  // measure 25
0000
0100
0000
0000
3100
0000
0010
0000
,  // measure 26
0002
0000
0000
0100
0000
0000
0100
0000
,  // measure 27
0000
0100
0000
0000
0103
0000
0010
0000
,  // measure 28
1000
0100
0001
0100
,  // measure 29
1000
0000
0100
0010
0001
0000
1000
0010
,  // measure 30
0100
0000
0001
0000
0010
0100
0010
0000
,  // measure 31
0001
1000
0010
1000
0002
0000
0000
0010
,  // measure 32
0000
0000
0010
0000
0000
0010
0000
0000
,  // measure 33
0013
0000
0100
0000
2000
0000
0000
0010
,  // measure 34
0000
0000
0010
0000
0000
0010
0000
0000
,  // measure 35
3010
0100
0001
0010
,  // measure 36
0100
0010
0100
0000
1000
0010
0100
0000
,  // measure 37
1001
0000
1000
0001
0000
1000
0001
0000
,  // measure 38
0010
0000
0100
1000
0001
0000
0100
0000
,  // measure 39
0220
0000
0000
0000
,  // measure 40
0330
0000
1000
0001
1000
0000
0000
0001
,  // measure 41
1000
0001
0000
0000
0000
0000
0000
0010
,  // measure 42
0000
0000
0010
0001
0010
0000
0000
0001
,  // measure 43
0010
0001
0000
0000
0000
0000
0000
0100
,  // measure 44
0000
0000
0100
0010
0100
0000
0000
0010
,  // measure 45
0100
0010
0000
0000
0000
0000
0000
1000
,  // measure 46
0000
0000
1000
0010
1000
0000
0000
0010
,  // measure 47
1000
0010
0000
0000
0000
0000
0000
0100
,  // measure 48
0000
0000
0100
0001
0100
0000
0000
0001
,  // measure 49
0100
0001
0000
0000
0000
0000
0000
0010
,  // measure 50
0000
0000
0100
1000
0100
0000
0000
0100
,  // measure 51
1000
0100
0000
0000
0000
0000
0000
0010
,  // measure 52
0000
0000
0010
0001
0010
0000
0000
0010
,  // measure 53
0001
0010
0000
0000
0000
0000
0000
0001
,  // measure 54
0000
0000
0100
0010
0100
0000
0000
0010
,  // measure 55
0100
0010
0000
0000
0000
0000
0000
0000
,  // measure 56
0000
0000
1000
0010
1000
0000
0001
1000
,  // measure 57
0010
1000
0000
0000
0001
0000
0000
1000
,  // measure 58
0000
0000
0001
0010
0001
0000
1000
0001
,  // measure 59
0010
0001
0000
0000
1000
0000
0000
0010
,  // measure 60
0000
0000
0100
0010
0100
0000
0001
0100
,  // measure 61
0010
0100
0000
0000
0001
0000
0000
0010
,  // measure 62
0000
0000
0100
1000
0100
0000
0010
0100
,  // measure 63
1000
0100
0000
0000
0010
0000
0000
0001
,  // measure 64
0000
0000
1000
0100
1000
0000
0001
1000
,  // measure 65
0100
1000
0000
0000
0010
0000
0000
0100
,  // measure 66
0000
0000
0001
0010
0001
0000
1000
0001
,  // measure 67
0010
0001
0000
0000
1000
0000
0000
0100
,  // measure 68
0000
0000
0010
0100
0010
0000
0001
0010
,  // measure 69
0100
0010
0000
0000
0001
0000
0000
0100
,  // measure 70
0000
0000
0010
1000
0010
0000
0100
0010
,  // measure 71
1000
0010
0000
0000
0100
0000
0001
0000
,  // measure 72
0010
0200
0000
0000
,  // measure 73
0000
0320
0000
0000
,  // measure 74
0000
0130
1001
0000
0001
0100
0001
0000
,  // measure 75
1000
0100
0010
0000
0100
0000
1000
0000
,  // measure 76
0010
0000
0100
0001
0100
0000
0010
1000
,  // measure 77
0100
0000
0010
0001
0010
0001
1000
0010
,  // measure 78
0100
0000
0000
0000
;

//---------------dance-single - ----------------
#NOTES:
     dance-single:
     :
     Hard:
     11:
     0.512,0.638,0.189,0.245,0.016: // measure 1
0000
0000
0000
0000
,  // measure 2
0000
0000
0000
0000
,  // measure 3
0000
0000
0000
0000
,  // measure 4
0000
0000
0000
0000
,  // measure 5
0000
0000
0000
0000
,  // measure 6
0000
0000
0000
0000
0000
0000
0000
0002
,  // measure 7
0000
0013
0100
1000
0001
0100
0000
0002
,  // measure 8
0000
0103
0010
1000
0100
0010
0000
0001
,  // measure 9
1000
0010
0110
0010
,  // measure 10
1001
0000
0000
0000
1000
0001
0010
0000
,  // measure 11
1002
0000
0000
0000
0103
0000
0000
0101
0000
0000
0200
0000
0310
0000
0000
0000
,  // measure 12
1001
0000
1000
0000
1200
0000
0000
1300
0020
0000
0000
0000
0130
0000
0000
0000
,  // measure 13
1001
0000
1000
0100
1000
0000
1000
0001
,  // measure 14
0100
0000
0010
0100
0010
0000
0010
1000
,  // measure 15
0100
0000
0010
0100
0010
0000
0010
0001
,  // measure 16
0100
0000
0001
1000
0100
0000
1100
0000
,  // measure 17
1002
0000
0000
1000
0000
0000
0100
0100
0100
0103
0000
0000
,  // measure 18
0101
0000
0001
1000
0100
0000
0010
0100
,  // measure 19
0000
0000
0000
0000
1000
0001
1000
0001
,  // measure 20
0100
0000
0010
1000
0100
0000
0100
0010
,  // measure 21
0100
0000
0010
0001
1000
0010
1000
0001
,  // measure 22
0000
1001
1100
1001
,  // measure 23
0001
0100
0010
0000
1000
0100
0010
0001
,  // measure 24
1000
0000
0010
1000
0000
0001
0010
0000
,  // measure 25
0100
1000
0000
0001
0100
0000
0010
0100
,  // measure 26
0010
0000
1000
0001
0000
0010
0001
0000
,  // measure 27
1000
0100
0000
1000
0001
0000
0100
0010
,  // measure 28
0100
0000
0001
1000
0010
0000
0100
0001
,  // measure 29
0010
0001
0010
0000
0100
1000
0001
0100
,  // measure 30
0001
0000
0100
0001
1000
0100
0010
0001
,  // measure 31
1000
0100
0001
0100
1000
0000
0001
0010
,  // measure 32
0000
0100
0010
0000
0001
0100
0000
0010
,  // measure 33
0100
0000
0001
1000
0100
0000
0010
0100
,  // measure 34
0000
1000
0010
0000
0100
0001
0000
0010
,  // measure 35
0100
0000
1000
0010
0100
0001
1000
0000
,  // measure 36
0001
1000
0100
1000
0001
0100
0010
1000
,  // measure 37
0100
0000
0010
0100
0000
1000
0010
0000
,  // measure 38
0100
0001
0010
0100
1000
0001
0100
0001
,  // measure 39
2002
0000
0000
0000
,  // measure 40
3003
0000
1000
1000
1000
0000
0001
0100
,  // measure 41
0100
0100
0000
0000
0010
0000
0100
0002
,  // measure 42
0000
0003
0010
0010
0010
0000
0100
1000
,  // measure 43
1000
1000
0000
0000
0010
0000
0100
0002
,  // measure 44
0000
0003
1000
1000
1000
0000
0100
0010
,  // measure 45
0010
0010
0000
0000
0001
0000
1000
0200
,  // measure 46
0000
0300
1000
1000
1000
0000
0010
0100
,  // measure 47
0100
0100
0001
1000
0100
0000
0010
0001
,  // measure 48
0100
0000
0020
0100
0130
0000
0001
0200
,  // measure 49
0010
0310
0000
0000
1000
0000
0010
2000
,  // measure 50
0000
3000
0002
0010
0013
0000
0100
0020
,  // measure 51
0001
0031
0000
0000
0100
0000
1000
0002
,  // measure 52
0000
0003
2000
0010
3010
0000
0100
0002
,  // measure 53
1000
1003
0000
0000
0001
0000
0100
0020
,  // measure 54
0000
0030
2000
0001
3001
0000
0100
0020
,  // measure 55
0100
0130
0001
0100
1000
0100
0001
0010
,  // measure 56
0100
0000
1000
1000
1000
0000
0010
0100
,  // measure 57
0100
0100
0001
0000
0010
0000
0100
0010
,  // measure 58
0000
0000
0001
0001
0001
0000
0010
0100
,  // measure 59
0100
0100
1000
0000
0010
0000
1000
0100
,  // measure 60
0000
0000
0010
0010
0010
0000
0001
0100
,  // measure 61
0100
0100
0010
0000
1000
0000
0100
0010
,  // measure 62
0000
0000
0100
0100
0100
0000
1000
0001
,  // measure 63
0001
0001
0010
0100
1000
0001
0010
0100
,  // measure 64
1000
0000
0100
0100
0110
0000
0010
0001
,  // measure 65
0001
1001
0000
0000
1000
0000
0010
0100
,  // measure 66
0000
0000
0001
0001
0101
0000
0010
1000
,  // measure 67
1000
1100
0000
0000
0010
0000
0001
1000
,  // measure 68
0000
0000
0100
0100
1100
0000
0010
0001
,  // measure 69
0001
1001
0000
0000
1000
0000
0100
0010
,  // measure 70
0000
0000
0001
0001
0011
0000
0100
1000
,  // measure 71
1000
1000
0010
0100
0001
0100
0010
1000
,  // measure 72
0100
0010
0002
0203
0000
0000
0010
0000
,  // measure 73
0310
1000
0200
2300
0000
0000
0001
0000
,  // measure 74
3001
0101
1001
0000
1000
0010
0100
0010
,  // measure 75
1000
0002
0000
0010
0000
0023
0100
0000
,  // measure 76
0130
0000
1001
0000
0001
0010
0100
0010
,  // measure 77
0001
2000
0000
0010
0000
3010
0200
0001
,  // measure 78
0301
0000
0000
0000
;

//---------------dance-single - ----------------
#NOTES:
     dance-single:
     :
     Challenge:
     13:
     0.660,1.000,0.592,0.331,0.150: // measure 1
0000
0000
0000
0000
,  // measure 2
0000
0000
0000
0000
,  // measure 3
0000
0000
0000
0000
,  // measure 4
0000
0000
0000
0000
,  // measure 5
0000
0000
0000
0000
,  // measure 6
0000
0000
0000
0000
0000
0000
0000
1200
,  // measure 7
0000
1300
0001
0100
1000
0100
0001
0020
,  // measure 8
0000
0031
1000
0010
0100
0001
1000
0200
,  // measure 9
0000
1300
0001
0100
1000
0100
0001
0010
,  // measure 10
0000
0000
0010
0000
0000
0000
0100
0000
1000
0100
1000
0000
0001
0000
0000
0000
,  // measure 11
2002
0000
0000
0000
0000
0000
3003
0000
0011
0000
0000
0000
0000
0000
0110
0000
0000
0000
0000
0000
0010
1000
0010
1000
0020
0000
0200
0000
0330
0000
0000
0000
,  // measure 12
1001
0000
1001
0000
0012
0000
0000
1003
1020
0000
2030
0000
3001
0000
1000
0001
,  // measure 13
0010
0000
0100
1000
0001
1000
0100
1000
,  // measure 14
0001
1000
0100
0001
0100
1000
0001
0010
,  // measure 15
0100
1000
0000
0001
1000
0100
1000
0001
,  // measure 16
1000
0000
0010
0000
0100
0000
0001
0000
0100
0010
0100
0000
1001
0000
0000
0000
,  // measure 17
1020
0000
0000
2030
0000
0000
3002
0000
0000
0000
0000
0000
0103
0000
0100
0000
0100
0000
0110
0000
0000
1001
0000
0000
,  // measure 18
0001
0100
0010
0100
0001
1000
0000
1000
,  // measure 19
0000
0000
0000
0000
0000
0000
0000
0000
0010
0100
0010
0100
0010
0000
0110
0000
,  // measure 20
0000
0010
1000
0100
0001
0100
1000
0001
,  // measure 21
0010
0100
1000
0010
0100
1000
0100
0010
,  // measure 22
0000
0000
1000
0000
1000
0000
0000
0000
0001
0000
1000
0100
1000
0100
1000
0000
,  // measure 23
0001
1000
0001
1000
0001
0000
0000
0000
0010
0000
0100
0000
1000
0000
0001
0000
,  // measure 24
0200
0000
0301
2000
0000
3100
0020
0000
,  // measure 25
0031
0200
0000
0310
1000
0100
0010
0001
,  // measure 26
2000
0000
3010
0200
0000
0301
2000
0000
,  // measure 27
3100
0020
0000
0031
1000
0010
0100
0001
,  // measure 28
1000
0100
0010
0100
1000
0001
0000
0001
,  // measure 29
0100
0001
1001
0000
1000
0010
0010
0100
,  // measure 30
0001
0000
0001
0000
1000
0000
0010
0000
0100
0000
0001
0000
1000
0000
0010
0100
,  // measure 31
0010
0100
0010
0000
1000
0000
0100
0000
0020
0000
0000
0000
0031
0000
0200
0000
,  // measure 32
0000
0310
2000
0000
3001
0020
0000
0031
,  // measure 33
1000
0100
0001
0100
2000
0000
3001
0020
,  // measure 34
0000
0130
2000
0000
3001
0200
0000
0310
,  // measure 35
1000
0001
0100
1000
0100
0001
1000
0000
,  // measure 36
0001
0100
0010
0001
0010
0100
0001
1000
,  // measure 37
1001
0000
0001
0101
0000
0100
0110
0010
,  // measure 38
1000
0000
0100
0000
1000
0001
1000
0000
0100
0000
0010
0001
0010
0001
0010
0000
,  // measure 39
2002
0000
0000
0000
,  // measure 40
3003
0000
1000
1000
1100
0000
0100
1000
,  // measure 41
1000
1100
0000
0000
0110
0000
0011
0002
,  // measure 42
0000
0003
0010
0010
0011
0000
0001
0010
,  // measure 43
0010
0011
0000
0000
0110
0000
1100
0200
,  // measure 44
0000
0300
1000
1000
1010
0000
0010
1000
,  // measure 45
1000
1010
0000
0000
0110
0000
0101
0002
,  // measure 46
0000
0003
0100
0100
0101
0000
0001
0100
,  // measure 47
0100
0101
0001
1000
0100
0001
0100
1000
,  // measure 48
0001
0010
0100
0100
0100
0000
1001
0100
,  // measure 49
0100
0100
0000
0000
1001
0000
0110
0200
,  // measure 50
0000
0300
0010
0010
0010
0000
1001
0010
,  // measure 51
0010
0010
0000
0000
1001
0000
0110
0020
,  // measure 52
0000
0030
0100
0100
0100
0000
1001
0100
,  // measure 53
0100
0100
0000
0000
1001
0000
0110
0200
,  // measure 54
0000
0300
0010
0010
0010
0000
1001
0010
,  // measure 55
0010
0010
1000
0001
0100
1000
0100
0001
,  // measure 56
1000
0010
0100
0001
0101
0000
0010
1000
,  // measure 57
0100
1100
0000
0000
0011
0000
1001
1000
,  // measure 58
0000
0000
0100
1000
1100
0000
0010
0001
,  // measure 59
0100
0110
0000
0000
0110
0000
1001
0001
,  // measure 60
0000
0000
0010
0001
0011
0000
0100
1000
,  // measure 61
0010
0110
0000
0000
0110
0000
1010
1000
,  // measure 62
0000
0000
0010
0100
0110
0000
1000
0001
,  // measure 63
0010
0000
0011
0000
0100
0000
1000
0000
0010
0000
0100
0000
0001
1000
0001
1000
,  // measure 64
0001
0100
0010
0010
0110
0000
1000
0010
,  // measure 65
0010
0110
0000
0000
0011
0000
1100
1000
,  // measure 66
0000
0000
0001
0001
0101
0000
1000
0001
,  // measure 67
0001
0101
0000
0000
1001
0000
0011
0001
,  // measure 68
0000
0000
1000
1000
1100
0000
0010
1000
,  // measure 69
1000
1100
0000
0000
0011
0000
1100
1000
,  // measure 70
0000
0000
0010
0010
0110
0000
1000
0010
,  // measure 71
0010
0000
0110
0000
0001
0000
1000
0000
0010
0000
0100
0000
0001
1000
0001
1000
,  // measure 72
0001
0000
0010
0000
1100
0000
2000
0000
0010
3010
0000
0100
0000
0100
0000
0001
,  // measure 73
1000
0000
0010
0000
0101
0000
0002
0000
1000
1003
0000
0100
0000
0100
0000
1000
,  // measure 74
0001
1001
0201
0000
0301
1000
0100
1000
,  // measure 75
0001
0100
1000
0001
0010
1000
0001
0100
,  // measure 76
0001
0000
2001
0000
3010
1000
0100
0010
,  // measure 77
0100
0000
1000
0000
0001
0100
0001
0100
0001
0000
1000
0000
0100
1000
0100
1000
,  // measure 78
0200
0300
0000
0000
;

//---------------dance-single - ----------------
#NOTES:
     dance-single:
     :
     Beginner:
     2:
     0.082,0.152,0.071,0.000,0.000: // measure 1
0000
0000
0000
0000
,  // measure 2
0000
0000
0000
0000
,  // measure 3
0000
0000
0000
0000
,  // measure 4
0000
0000
0000
0000
,  // measure 5
0000
0000
0000
0000
,  // measure 6
0000
0000
0000
0000
,  // measure 7
0001
0000
0000
0000
,  // measure 8
0010
0000
0000
0000
,  // measure 9
0001
0000
0000
0000
,  // measure 10
0100
0000
0000
0000
,  // measure 11
0110
0000
0000
0000
,  // measure 12
1001
0000
0000
0000
,  // measure 13
1000
0000
0100
0000
,  // measure 14
1000
0000
0000
0000
,  // measure 15
0001
0000
1000
0000
,  // measure 16
0001
0000
0000
0000
,  // measure 17
0010
0000
0000
0000
,  // measure 18
0100
0000
1000
0000
,  // measure 19
0000
0000
0000
0000
,  // measure 20
0010
0000
0100
0000
,  // measure 21
0010
0000
0000
0000
,  // measure 22
1000
0000
0001
0000
,  // measure 23
1000
0000
0000
0000
,  // measure 24
1001
0000
0000
0000
,  // measure 25
0000
0000
0000
0000
,  // measure 26
0001
0000
0000
0100
,  // measure 27
0000
0000
0000
0000
,  // measure 28
0000
0010
0000
0000
,  // measure 29
0000
0000
1000
0000
,  // measure 30
0000
0000
0000
0000
,  // measure 31
0000
0000
0001
0000
,  // measure 32
0000
0000
0000
0000
,  // measure 33
0000
0000
0010
0000
,  // measure 34
0000
0000
0000
0000
,  // measure 35
0000
0000
0000
0100
,  // measure 36
0000
0000
0000
0000
,  // measure 37
1000
0000
0000
0000
,  // measure 38
0000
0000
0000
0000
,  // measure 39
0001
0000
0000
0000
,  // measure 40
0000
1001
0000
0000
,  // measure 41
0000
0000
0000
0000
,  // measure 42
0000
1000
0000
0000
,  // measure 43
0000
0000
0000
0000
,  // measure 44
0000
1001
0000
0000
,  // measure 45
0000
0000
0000
0000
,  // measure 46
0000
0001
0000
0000
,  // measure 47
0000
0000
0000
0000
,  // measure 48
0000
0110
0000
0000
,  // measure 49
0000
0000
0000
0000
,  // measure 50
0000
0100
0000
0000
,  // measure 51
0000
0000
0000
0000
,  // measure 52
0000
1001
0000
0000
,  // measure 53
0000
0000
0000
0000
,  // measure 54
0000
1000
0000
0000
,  // measure 55
0000
0001
0000
0000
,  // measure 56
0000
0010
0000
0000
,  // measure 57
0000
0010
0000
0000
,  // measure 58
0000
0100
0000
0000
,  // measure 59
0000
0100
0000
0000
,  // measure 60
0000
1000
0000
0000
,  // measure 61
0000
1000
0000
0000
,  // measure 62
0000
0001
0000
0000
,  // measure 63
0000
0001
0000
0000
,  // measure 64
0000
0010
0000
0000
,  // measure 65
0000
0010
0000
0000
,  // measure 66
0000
0100
0000
0000
,  // measure 67
0000
0100
0000
0000
,  // measure 68
0000
1000
0000
0000
,  // measure 69
0000
1000
0000
0000
,  // measure 70
0000
0010
0000
0000
,  // measure 71
0000
0010
0000
0000
,  // measure 72
0000
0000
0000
0000
,  // measure 73
0000
0000
0000
0000
,  // measure 74
0000
1001
0000
1000
,  // measure 75
0000
0001
0000
1000
,  // measure 76
0000
0001
0000
1000
,  // measure 77
0000
0001
0000
0000
,  // measure 78
1001
0000
0000
0000
;
