#VERSION:0.83;
#TITLE:♯MAGiCVLGiRL_TRVP_B3VTZ;
#SUBTITLE:;
#ARTIST:DJ Noriken;
#TITLETRANSLIT:MAGiCVLGiRL_TRVP_B3VTZ;
#SUBTITLETRANSLIT:;
#ARTISTTRANSLIT:;
#GENRE:;
#ORIGIN:;
#CREDIT:DigiMindAxel;
#BANNER:MAGiCVLGiRL_TRVP_B3VTZ.png;
#BACKGROUND:MAGiCVLGiRL_TRVP_B3VTZ-bg.png;
#PREVIEWVID:;
#JACKET:MAGiCVLGiRL_TRVP_B3VTZ-jacket.png;
#CDIMAGE:;
#DISCIMAGE:;
#LYRICSPATH:;
#CDTITLE:beatmania IIDX.png;
#MUSIC:MAGiCVLGiRL_TRVP_B3VTZ.ogg;
#OFFSET:-12.026000;
#SAMPLESTART:12.012001;
#SAMPLELENGTH:12.000000;
#SELECTABLE:YES;
#DISPLAYBPM:100.000000:200.000000;
#BPMS:0.000=100.000,
80.000=50.000,
80.500=100.000,
95.500=200.000,
223.000=100.000,
223.500=200.000,
255.000=100.000;
#STOPS:;
#DELAYS:;
#WARPS:;
#TIMESIGNATURES:0.000=4=4;
#TICKCOUNTS:0.000=4;
#COMBOS:0.000=1;
#SPEEDS:0.000=1.000=0.000=0;
#SCROLLS:0.000=1.000;
#FAKES:;
#LABELS:0.000=Song Start;
#BGCHANGES:;
#KEYSOUNDS:;
#ATTACKS:
;

//---------------dance-single - ----------------
#NOTEDATA:;
#CHARTNAME:;
#STEPSTYPE:dance-single;
#DESCRIPTION:;
#CHARTSTYLE:;
#DIFFICULTY:Easy;
#METER:6;
#RADARVALUES:0.251155,0.256721,0.007991,0.103887,0.000000,220.000000,219.000000,1.000000,13.000000,0.000000,0.000000,0.000000,0.000000,0.000000,0.251155,0.256721,0.007991,0.103887,0.000000,220.000000,219.000000,1.000000,13.000000,0.000000,0.000000,0.000000,0.000000,0.000000;
#CREDIT:;
#DISPLAYBPM:100.000000:200.000000;
#NOTES:
// measure 0
0001
0001
0010
0010
,  // measure 1
0100
2000
0000
3000
,  // measure 2
0100
0100
0010
0010
,  // measure 3
0001
2000
0000
3000
,  // measure 4
0100
0100
0100
0000
,  // measure 5
0010
0010
0010
0000
,  // measure 6
0001
0001
1000
1000
,  // measure 7
0001
0010
0100
0000
,  // measure 8
1000
0010
0100
0010
,  // measure 9
1000
0001
0010
0001
,  // measure 10
1000
0100
0010
0100
,  // measure 11
1000
0010
0100
0001
,  // measure 12
0010
0000
0000
0000
0001
1000
0001
0000
,  // measure 13
0010
0100
0010
0001
,  // measure 14
0100
0010
1000
0100
,  // measure 15
0010
0000
0001
0000
1000
0001
1000
0000
,  // measure 16
0200
0000
2300
0000
,  // measure 17
3200
0000
0320
0000
,  // measure 18
0032
0000
0203
0000
,  // measure 19
0302
0000
0000
2003
0000
0000
3001
0000
,  // measure 20
0000
0010
0000
0001
0000
0100
0000
0010
,  // measure 21
0000
0200
0000
0000
0000
0300
0000
0010
,  // measure 22
0000
1000
0000
0010
0000
0100
0000
0001
,  // measure 23
0000
0020
0000
0000
0000
0030
0000
0001
,  // measure 24
0000
1000
0000
0001
0000
0000
0000
0010
,  // measure 25
0000
0001
0000
0010
0000
0000
0000
0100
,  // measure 26
0000
0010
0000
0100
0000
0000
0000
1000
,  // measure 27
0000
0100
0000
1000
0000
0000
0000
0010
,  // measure 28
0000
0100
0000
0010
0000
0100
0000
0001
,  // measure 29
0000
0010
0000
0100
0000
1000
0000
0001
,  // measure 30
0000
0001
0000
0001
0000
0001
0000
1000
,  // measure 31
0000
0000
0000
0000
0000
0000
0000
0010
,  // measure 32
0000
1000
0000
0100
0000
1000
0000
0100
,  // measure 33
0000
1000
0000
0100
0000
0010
0000
0001
,  // measure 34
0000
0100
0000
0010
0000
0100
0000
0010
,  // measure 35
0000
1000
0000
0010
0000
0100
0000
0001
,  // measure 36
0000
1000
0000
0100
0000
1000
0000
0100
,  // measure 37
0000
1000
0000
0100
0000
0010
0000
0001
,  // measure 38
0000
0100
0000
0010
0000
0100
0000
0001
,  // measure 39
0000
1000
0000
0100
0000
0000
0000
1001
,  // measure 40
0000
1000
0000
0001
0000
1000
0000
0100
,  // measure 41
0000
1000
0000
0010
0000
0100
0000
0001
,  // measure 42
0000
1000
0000
0100
0000
1000
0000
0100
,  // measure 43
0000
0010
0000
0001
0000
0100
0000
0010
,  // measure 44
0000
1000
0000
0001
0000
1000
0000
0001
,  // measure 45
0000
1000
0000
0001
0000
0010
0000
0100
,  // measure 46
0000
0010
0000
0100
0000
1000
0000
0100
,  // measure 47
0000
0000
0000
0000
0000
0000
0000
1000
,  // measure 48
0000
0010
0000
0100
0000
0100
0000
0001
,  // measure 49
0000
1000
0000
0100
0000
0100
0000
1000
,  // measure 50
0000
0001
0000
0010
0000
0010
0000
0010
,  // measure 51
0000
0010
0000
0001
0000
0000
0000
0100
,  // measure 52
0000
0010
0000
1000
0000
1000
0000
0100
,  // measure 53
0000
0010
0000
0001
0000
0001
0000
0010
,  // measure 54
0000
0100
0000
1000
0000
1000
0000
0010
,  // measure 55
0000
0100
0000
0001
0000
0000
0000
0000
,  // measure 56
1000
0100
0100
1000
,  // measure 57
0010
0100
0100
0001
,  // measure 58
1000
0100
0010
0001
,  // measure 59
1000
0010
0000
0100
,  // measure 60
0001
1000
0000
0100
,  // measure 61
1000
0001
0000
0010
,  // measure 62
0100
1000
0001
0100
,  // measure 63
0000
0000
0000
0020
,  // measure 64
0000
0030
0000
0000
;

//---------------dance-single - ----------------
#NOTEDATA:;
#CHARTNAME:;
#STEPSTYPE:dance-single;
#DESCRIPTION:;
#CHARTSTYLE:;
#DIFFICULTY:Medium;
#METER:12;
#RADARVALUES:0.465779,0.564786,0.319652,0.119870,0.087904,408.000000,368.000000,40.000000,15.000000,0.000000,0.000000,0.000000,0.000000,0.000000,0.465779,0.564786,0.319652,0.119870,0.087904,408.000000,368.000000,40.000000,15.000000,0.000000,0.000000,0.000000,0.000000,0.000000;
#CREDIT:;
#DISPLAYBPM:100.000000:200.000000;
#NOTES:
// measure 0
0100
1000
0100
0000
0010
0100
0010
0000
,  // measure 1
0001
0010
0002
0000
0100
0000
0103
0000
,  // measure 2
0100
0010
0100
0000
0001
0100
0001
0000
,  // measure 3
1000
0010
1000
0000
1001
0000
0000
0000
,  // measure 4
0001
0001
0010
0010
0001
0001
0100
0100
,  // measure 5
0010
0010
1000
1000
0100
0010
0001
0100
,  // measure 6
1001
0001
1000
1000
0011
0010
0100
1000
,  // measure 7
1010
0000
0010
0000
0101
0000
0100
0000
1001
0000
0000
0000
0100
0010
0100
0000
,  // measure 8
0001
1000
0100
1000
0100
0010
0001
0100
,  // measure 9
0001
0010
1000
0010
1000
0010
0001
0100
,  // measure 10
0010
1000
0100
1000
0010
0100
0001
0010
,  // measure 11
0001
0000
0100
0000
1000
0000
0100
0000
1000
0000
0100
0000
0001
1000
0001
0000
,  // measure 12
2002
0000
0000
0000
3003
0000
0000
1001
,  // measure 13
0010
0000
0100
0000
0001
0000
0010
0000
0100
0000
1000
0000
0001
1000
1001
0000
,  // measure 14
0001
0100
0001
0100
0001
0010
0100
1000
,  // measure 15
0110
0100
0001
0010
0100
0010
0001
0000
,  // measure 16
1000
0000
0010
1000
0000
0000
0000
0000
0001
0000
0100
0001
0000
0000
0000
0000
,  // measure 17
1000
0010
0100
1000
0100
0010
1000
0000
,  // measure 18
0001
0100
0001
1000
0100
0010
0001
0000
,  // measure 19
0010
0000
0000
0100
0000
0000
1000
0000
0000
0010
0000
0000
0100
0000
0000
0000
,  // measure 20
0000
0000
0000
0000
0000
0000
0001
0000
1000
0100
1000
0000
0000
0000
0001
0000
,  // measure 21
0100
0010
0200
0000
0000
0000
0010
0000
0000
0000
0310
0000
0010
0000
1000
0000
,  // measure 22
0100
1000
0100
0000
0000
0000
0010
0000
0001
0100
0001
0000
0000
0000
1000
0000
,  // measure 23
0010
0100
0020
0000
0000
0000
0100
0000
0000
0000
0130
0000
0100
0000
1001
0000
,  // measure 24
0000
0000
1000
0000
0000
0000
1000
0000
0000
0100
0000
0000
1000
0000
0001
0000
,  // measure 25
0000
0000
0001
0000
0000
0000
0100
0000
0000
0010
0000
0000
0100
0000
0001
0000
,  // measure 26
0000
0000
0001
0000
0000
0000
0010
0000
0000
0001
0000
0000
0010
0000
0100
0000
,  // measure 27
0000
0000
0100
0000
0000
0000
1000
0000
0000
0010
0000
0000
1000
0000
0001
0000
,  // measure 28
0000
0000
0001
0000
0000
0000
0010
0000
0000
0001
0000
0000
0010
0000
0100
0000
,  // measure 29
0000
0000
0100
0000
0000
0000
1000
0000
0000
0010
0000
0000
1000
0000
0001
0000
,  // measure 30
0000
0000
0010
0000
0000
0000
0100
0000
0000
1000
0000
0000
0100
0000
0010
0000
,  // measure 31
0000
0010
0000
0000
0000
0000
0000
1001
,  // measure 32
0000
1000
0100
1000
0000
0001
1000
0001
,  // measure 33
0000
1000
0100
1000
0100
0010
0000
1001
,  // measure 34
0000
0001
0100
0001
0000
1000
0001
1000
,  // measure 35
0000
0001
0100
0001
0100
0010
0000
1001
,  // measure 36
0000
1000
0010
1000
0000
0001
1000
0001
,  // measure 37
0000
1000
0010
1000
0010
0100
0000
1001
,  // measure 38
0000
0001
0100
0010
0000
1000
0010
0000
,  // measure 39
1000
0001
0010
0001
0000
0000
0000
0110
,  // measure 40
0000
1001
0000
1001
0000
1000
0100
0010
,  // measure 41
0000
0100
1000
0100
0010
0001
0000
0101
,  // measure 42
0000
1001
0000
1001
0000
1000
0010
0100
,  // measure 43
0000
0001
0100
0001
1000
0100
0000
1100
,  // measure 44
0000
1001
0000
1001
0000
0011
0000
1001
,  // measure 45
0000
1001
0000
0110
0000
0110
0000
1001
,  // measure 46
0000
1000
0100
0010
0000
0001
0010
0100
,  // measure 47
0000
0000
0000
1001
0000
1001
0000
1000
,  // measure 48
0010
1000
0010
0200
0000
0001
0000
0301
,  // measure 49
1000
0001
1000
0200
0000
1000
0000
1300
,  // measure 50
0010
1000
0010
0200
0000
0001
0000
0301
,  // measure 51
0000
1000
0000
1100
0000
0011
0000
0001
,  // measure 52
0100
0001
0100
0020
0000
1000
0000
1030
,  // measure 53
0001
1000
0001
0020
0000
0001
0000
0031
,  // measure 54
0100
0001
0100
0020
0000
1000
0000
1030
,  // measure 55
0000
0001
0000
0010
0000
0100
0000
0000
,  // measure 56
1100
0000
0100
1000
0020
0000
0100
0000
,  // measure 57
0130
1001
1001
0011
,  // measure 58
0010
0001
0200
0000
0010
0000
0310
0000
,  // measure 59
1000
0000
0100
0000
1000
0000
0010
0000
0100
0000
0000
0000
0001
0000
0000
0100
,  // measure 60
0000
0000
0001
0000
1000
0000
0000
0000
1000
0000
0000
0000
0100
0000
0000
1000
,  // measure 61
0000
0000
0100
0000
0010
0000
0000
0000
0010
0000
0000
0000
0001
0000
0000
1000
,  // measure 62
0000
0001
0100
0000
0010
0000
1010
0000
,  // measure 63
0000
0000
0010
0100
0010
0000
2002
0000
,  // measure 64
0000
3003
0000
0000
;

//---------------dance-single - ----------------
#NOTEDATA:;
#CHARTNAME:;
#STEPSTYPE:dance-single;
#DESCRIPTION:;
#CHARTSTYLE:;
#DIFFICULTY:Hard;
#METER:15;
#RADARVALUES:0.683827,0.847178,0.511444,0.295678,0.579370,599.000000,535.000000,64.000000,37.000000,0.000000,0.000000,0.000000,0.000000,0.000000,0.683827,0.847178,0.511444,0.295678,0.579370,599.000000,535.000000,64.000000,37.000000,0.000000,0.000000,0.000000,0.000000,0.000000;
#CREDIT:;
#DISPLAYBPM:100.000000:200.000000;
#NOTES:
// measure 0
0001
0000
0000
1000
0000
0000
0100
0000
0010
0000
0000
0000
0000
0000
0000
0000
0001
0000
0000
1000
0000
0000
0100
0000
0010
0000
0000
0000
0000
0000
0000
0000
,  // measure 1
0001
0000
0000
1000
0000
0000
0100
0000
0020
0000
0000
0000
0000
0000
0000
0000
0001
0000
0000
0000
0001
0000
0000
0000
0130
0000
0000
0000
0000
0000
0000
0000
,  // measure 2
1000
0000
0000
0001
0000
0000
0100
0000
0010
0000
0000
0000
0000
0000
0000
0000
1000
0000
0000
0001
0000
0000
0100
0000
0010
0000
0000
0000
0000
0000
0000
0000
,  // measure 3
1000
0000
0000
0001
0000
0000
0100
0000
0010
0000
0000
0000
1000
0000
0000
0000
2002
0000
0000
0000
0000
0000
0000
0000
0000
0000
0000
0000
3003
0000
0000
0000
,  // measure 4
0101
0001
0100
0010
0100
0010
1000
0100
1000
0100
0010
0001
0010
0001
1000
0010
,  // measure 5
0000
1000
0010
1000
0001
0100
0001
0100
0001
1000
0001
1000
0100
0010
0001
1000
,  // measure 6
0100
0010
0100
0010
0001
0100
0001
0100
0010
1000
0010
1000
0001
0010
0001
0010
,  // measure 7
0100
1000
0001
1000
0100
1000
0001
0100
0020
0000
0000
0000
0100
0130
0110
0000
,  // measure 8
1001
0000
1000
0100
0000
0010
0110
0000
0100
0000
0001
0010
0000
0100
0110
0000
,  // measure 9
1010
0000
0100
0001
0000
1000
1100
0000
0010
0000
0001
0100
0000
0010
1010
0000
,  // measure 10
1001
0000
0001
0010
0000
0100
0110
0000
1000
0000
0010
0100
0000
0001
0101
0000
,  // measure 11
0110
0000
1000
0100
0010
0000
0110
0000
0000
0001
0101
0000
0010
0010
0110
0000
,  // measure 12
2002
0000
0000
0000
0000
0000
3003
0000
1000
0100
0010
0001
1000
1000
1010
0000
,  // measure 13
0110
0000
0100
0001
0010
0100
0010
0001
0010
0100
1000
0001
0100
0100
1001
0000
,  // measure 14
0110
0000
0010
1000
0100
0001
0100
1000
0100
0001
0100
1000
0001
0010
0100
0000
,  // measure 15
1010
0000
0010
0100
0101
0000
1001
0000
1000
0100
1000
0001
0100
0100
0100
0000
,  // measure 16
0002
0000
1000
1003
0000
0001
0010
0100
2000
0000
0001
3001
0000
1000
0010
0000
,  // measure 17
0100
0001
2000
0000
3100
0010
0001
0200
0000
0310
0100
0020
0000
1030
0002
0000
,  // measure 18
0003
1000
0001
0000
0010
0100
1000
0020
0000
0000
0130
0001
0000
1000
0001
0000
,  // measure 19
0021
0000
0000
0230
0000
0000
2300
0000
0000
3002
0000
0000
0013
0010
0100
0100
,  // measure 20
0000
0000
1000
0001
0010
0100
1000
0010
0001
0010
0000
1000
0100
0000
0010
0100
,  // measure 21
2000
0000
3001
0010
1000
0010
0000
0001
1000
0100
0000
0010
0001
0000
0010
1000
,  // measure 22
0010
0001
1000
0000
0100
1000
0001
0010
1000
0000
0010
0001
1000
0100
0010
0000
,  // measure 23
0001
1001
0000
1000
2200
0000
0000
0000
3300
0000
1000
1000
0001
0001
0100
0000
,  // measure 24
0000
0000
1001
0000
0000
0000
0001
0000
0000
0100
0000
0000
0010
0000
1010
0000
,  // measure 25
0000
0000
1001
0000
0000
0000
0001
0000
0000
0010
0000
0000
0100
0000
1100
0000
,  // measure 26
0000
0000
1001
0000
0000
0000
1000
0000
0000
0010
0000
0000
0100
0000
0101
0000
,  // measure 27
0000
0000
1001
0000
0000
0000
1000
0000
0000
0100
0000
0000
0010
0000
0001
0000
,  // measure 28
1000
0010
1000
0000
0001
0000
0010
0000
0100
0010
0100
0000
1000
0000
0001
0000
,  // measure 29
1000
0100
1000
0000
0001
0000
0010
0000
0100
0010
0100
0000
1000
0000
0010
0100
,  // measure 30
0010
0000
1000
0010
1000
0000
0001
0100
0001
0100
0001
1000
0001
1000
0100
0000
,  // measure 31
0000
2200
0000
0000
0000
3300
0000
0021
,  // measure 32
0000
0031
0100
1000
0100
0001
0100
0010
,  // measure 33
1000
0100
0001
0100
1000
1100
0000
0021
,  // measure 34
0000
0031
0100
1000
0100
0001
0010
0100
,  // measure 35
0100
0010
0010
0001
0100
0110
0000
1020
,  // measure 36
0000
1030
0001
0100
1000
0100
0001
1000
,  // measure 37
0010
0100
0001
0100
0010
0110
0000
1020
,  // measure 38
0000
1030
0001
0011
0000
0110
0000
0000
,  // measure 39
0100
1000
0010
0100
0100
0110
0000
1001
,  // measure 40
0000
1000
0100
0001
0100
1000
0100
0001
,  // measure 41
0100
1000
0100
0010
0001
0100
0000
1001
,  // measure 42
0000
0001
0100
1000
0100
0001
0100
1000
,  // measure 43
1000
0010
0010
0100
0100
0001
0000
1001
,  // measure 44
0000
1000
0100
1100
0000
0010
0001
0011
,  // measure 45
0000
0100
0010
0110
0000
1001
0000
1000
,  // measure 46
0010
0001
0010
1000
0100
0010
0100
2000
,  // measure 47
0000
0000
0000
0001
0000
3001
0000
1000
,  // measure 48
0010
0100
0001
0010
0000
0011
0000
0100
,  // measure 49
1000
0010
0100
0001
0000
0101
0000
0010
,  // measure 50
1000
0100
0010
0001
1000
0010
2000
0000
,  // measure 51
3001
0100
0002
1000
0000
1003
0000
0001
,  // measure 52
0010
1000
0010
0001
0000
1001
0000
1000
,  // measure 53
0010
0001
0010
1000
0000
1001
0000
0001
,  // measure 54
0010
0100
0010
0001
1000
0010
2000
0000
,  // measure 55
3001
0100
0002
0000
1003
0100
0000
0000
,  // measure 56
0010
0100
1000
0001
0100
0001
2000
0000
,  // measure 57
3200
0000
0320
0000
0032
0000
1003
0010
,  // measure 58
0001
0010
1000
0100
1000
0001
1000
0100
,  // measure 59
0001
0000
0100
0000
1000
0000
0001
0000
0010
0000
0100
0010
0100
0000
0000
1010
,  // measure 60
0000
0000
1010
0000
1001
0000
0000
0000
0001
1000
0001
1000
0001
0000
0000
0011
,  // measure 61
0000
0000
0011
0000
1001
0000
0000
0000
1000
0001
1000
0001
0100
0001
0100
0001
,  // measure 62
0010
0100
0010
0100
1000
0010
1000
0010
0100
0001
0010
0100
1000
0000
0000
0000
,  // measure 63
0000
0000
0010
0010
0110
0000
2002
0000
,  // measure 64
0000
3003
0000
0000
;

//---------------dance-single - ----------------
#NOTEDATA:;
#CHARTNAME:;
#STEPSTYPE:dance-single;
#DESCRIPTION:;
#CHARTSTYLE:;
#DIFFICULTY:Beginner;
#METER:2;
#RADARVALUES:0.100462,0.152834,0.007991,0.000000,0.000000,88.000000,87.000000,1.000000,0.000000,0.000000,0.000000,0.000000,0.000000,0.000000,0.100462,0.152834,0.007991,0.000000,0.000000,88.000000,87.000000,1.000000,0.000000,0.000000,0.000000,0.000000,0.000000,0.000000;
#CREDIT:;
#DISPLAYBPM:100.000000:200.000000;
#NOTES:
// measure 0
1000
0000
1000
0000
,  // measure 1
1000
0000
0000
0000
,  // measure 2
0001
0000
0001
0000
,  // measure 3
0001
0000
0000
0000
,  // measure 4
0010
0000
0000
0000
,  // measure 5
0010
0000
0000
0000
,  // measure 6
0100
0000
0100
0000
,  // measure 7
0100
0000
0100
0000
,  // measure 8
1001
0000
0000
0000
,  // measure 9
0001
0000
0000
0000
,  // measure 10
0010
0000
0000
0000
,  // measure 11
0100
0000
1000
0000
,  // measure 12
0100
0000
1000
0000
,  // measure 13
0010
0000
0100
0000
,  // measure 14
0001
0000
0001
0000
,  // measure 15
1000
0000
1000
0000
,  // measure 16
0100
0000
0010
0000
,  // measure 17
0100
0000
0010
0000
,  // measure 18
0001
0000
0100
0000
,  // measure 19
0001
0000
0000
0000
,  // measure 20
0000
0000
0000
1000
0000
0000
0000
0001
,  // measure 21
0000
0000
0000
1000
0000
0000
0000
0100
,  // measure 22
0000
0000
0000
0100
0000
0000
0000
0010
,  // measure 23
0000
0000
0000
0010
0000
0000
0000
0001
,  // measure 24
0000
0000
0000
0000
0000
0000
0000
0001
,  // measure 25
0000
0000
0000
0000
0000
0000
0000
1000
,  // measure 26
0000
0000
0000
0000
0000
0000
0000
1000
,  // measure 27
0000
0000
0000
0000
0000
0000
0000
0010
,  // measure 28
0000
0000
0000
0010
0000
0000
0000
0100
,  // measure 29
0000
0000
0000
0100
0000
0000
0000
0010
,  // measure 30
0000
0000
0000
0010
0000
0000
0000
0010
,  // measure 31
0000
0000
0000
0000
0000
0000
0000
1000
,  // measure 32
0000
0000
0000
0000
0000
0000
0000
0100
,  // measure 33
0000
0000
0000
0000
0000
0000
0000
1000
,  // measure 34
0000
0000
0000
0000
0000
0000
0000
0001
,  // measure 35
0000
0000
0000
0000
0000
0000
0000
1000
,  // measure 36
0000
0000
0000
0000
0000
0000
0000
0100
,  // measure 37
0000
0000
0000
0000
0000
0000
0000
0010
,  // measure 38
0000
0000
0000
0000
0000
0000
0000
0001
,  // measure 39
0000
0000
0000
0000
0000
0000
0000
1000
,  // measure 40
0000
0000
0000
0000
0000
0000
0000
0001
,  // measure 41
0000
0000
0000
0000
0000
0000
0000
0010
,  // measure 42
0000
0000
0000
0000
0000
0000
0000
0001
,  // measure 43
0000
0000
0000
0000
0000
0000
0000
1000
,  // measure 44
0000
0000
0000
0000
0000
0000
0000
1000
,  // measure 45
0000
0000
0000
0000
0000
0000
0000
0010
,  // measure 46
0000
0000
0000
0010
0000
0000
0000
0000
,  // measure 47
0000
0010
0000
0000
0000
0000
0000
0100
,  // measure 48
0000
0000
0000
0000
0000
0000
0000
0010
,  // measure 49
0000
0000
0000
0000
0000
0000
0000
0100
,  // measure 50
0000
0000
0000
0000
0000
0000
0000
0001
,  // measure 51
0000
0000
0000
0000
0000
0000
0000
1000
,  // measure 52
0000
0000
0000
0000
0000
0000
0000
0100
,  // measure 53
0000
0000
0000
0000
0000
0000
0000
1000
,  // measure 54
0000
0000
0000
0000
0000
0000
0000
0010
,  // measure 55
0000
0000
0000
0000
,  // measure 56
0000
0000
0000
0100
,  // measure 57
0000
0100
0000
0100
,  // measure 58
0000
0000
0000
0001
,  // measure 59
0000
0000
0000
1000
,  // measure 60
0000
1000
0000
1000
,  // measure 61
0000
1000
0000
0001
,  // measure 62
0000
0001
0000
0001
,  // measure 63
0000
0000
0000
0010
;

//---------------dance-single - ----------------
#NOTEDATA:;
#CHARTNAME:;
#STEPSTYPE:dance-single;
#DESCRIPTION:;
#CHARTSTYLE:;
#DIFFICULTY:Challenge;
#METER:17;
#RADARVALUES:0.908726,1.129571,0.871052,0.359609,1.018891,796.000000,687.000000,109.000000,45.000000,0.000000,0.000000,0.000000,0.000000,0.000000,0.908726,1.129571,0.871052,0.359609,1.018891,796.000000,687.000000,109.000000,45.000000,0.000000,0.000000,0.000000,0.000000,0.000000;
#CREDIT:;
#DISPLAYBPM:100.000000:200.000000;
#NOTES:
// measure 0
0100
0000
0000
0010
0000
0000
1000
0000
1001
0000
0000
0000
0000
0000
0000
0000
0100
0000
0000
0010
0000
0000
1000
0000
1001
0000
0000
0000
0000
0000
0000
0000
,  // measure 1
0100
0000
0000
0010
0000
0000
1000
0000
0001
0000
0000
0000
0010
0000
0000
0000
0100
0000
0000
0000
1000
0000
0000
0000
0010
0000
0100
0000
0010
0000
0000
0000
,  // measure 2
1001
0000
0000
0001
0100
0000
0010
0000
0100
0000
0010
0000
0100
0000
0010
0000
1001
0000
0000
0001
0010
0000
0100
0000
0010
0000
0100
0000
0010
0000
0100
0000
,  // measure 3
1001
0000
0000
1000
0010
0000
0100
0000
0110
0000
0001
0000
0010
0000
0001
0000
1002
0000
0000
0000
0000
0000
0000
0000
1000
0000
0000
0000
1003
0000
0000
0000
,  // measure 4
0001
1000
0001
0000
0100
0000
0100
0000
0010
0000
0010
0000
1000
0001
1000
0000
0100
0000
0100
0000
0010
0000
0010
0000
0001
0000
0100
0000
1000
0000
0100
0000
,  // measure 5
0001
1000
0001
0000
0010
0000
0010
0000
0100
0000
0100
0000
1000
0010
1000
0000
0001
0000
0001
0000
1000
0000
0100
0000
0001
0000
0100
0000
1000
0000
0010
0000
,  // measure 6
0100
0010
0100
0000
0001
0100
0001
0000
1000
0010
1000
0000
0100
0000
0010
0000
0001
1000
0001
0000
1000
0100
1000
0000
0001
0010
0001
0000
0100
0000
0010
0000
,  // measure 7
1000
0001
1000
0000
0100
1000
0100
0000
0010
0100
0010
0000
0001
0010
0001
0000
1001
0000
0000
0000
0000
0000
0010
0000
0100
0000
0100
0000
0110
0000
0000
0000
,  // measure 8
1002
0000
0000
0000
0103
0000
0100
0000
0010
0000
0010
0000
0100
0000
0100
0010
1000
0000
1000
0000
0001
0000
0001
0000
1000
0000
0100
0000
0011
0000
0000
0000
,  // measure 9
2001
0000
0000
0000
3100
0000
0100
0000
0010
0000
0010
0000
0100
0000
0100
0010
0001
0000
0100
0000
1000
0000
0100
0000
0101
0000
0010
0000
1010
0000
0000
0000
,  // measure 10
1002
0000
0000
0000
0103
0000
0100
0000
0010
0000
0010
0000
0100
0000
0100
0010
1000
0000
1000
0000
0001
0000
0001
0000
1000
0000
0010
0000
0101
0000
0000
0000
,  // measure 11
2001
0000
0000
0000
3100
0000
0100
0000
0010
0000
0010
0000
0100
0000
0100
0010
0001
0000
0100
0000
0010
0000
0000
0000
0110
0000
0110
0000
0110
0000
0000
0000
,  // measure 12
2002
0000
0000
0000
0000
0000
3003
0000
1000
0100
0001
0100
1100
0010
0011
0000
,  // measure 13
1002
0000
0000
0000
0103
0010
0100
0000
0010
0100
0010
0000
1000
0100
1000
0000
0100
1000
0100
0000
1000
0000
0010
0000
0100
0000
0100
0000
0110
0000
0000
0000
,  // measure 14
2001
0000
0000
0000
3100
0010
0100
0000
0010
0100
0010
0000
0001
0100
0001
0000
0100
0001
0100
0000
0010
0000
1000
0000
1100
0000
0010
0000
0110
0000
0000
0000
,  // measure 15
1002
0000
0000
0000
1003
0100
1000
0000
0001
0010
0001
0000
1000
0001
1000
0000
0001
1000
0001
0000
0010
0000
0100
0000
1000
0000
1000
0000
1010
0000
0000
0000
,  // measure 16
0210
0000
0301
1000
0000
1000
0010
0100
0120
0000
1030
0001
0000
0001
0100
0000
,  // measure 17
0010
1000
1002
0000
0013
0100
1000
1020
0000
0130
0010
0201
0000
0320
2000
3030
,  // measure 18
0000
1000
1002
0000
0103
0010
1000
1200
0000
0000
0310
0001
0000
0001
1000
0000
,  // measure 19
1020
0000
0130
0102
0000
1003
2001
0000
3001
0012
0000
1003
0010
0010
0100
0100
,  // measure 20
0000
0000
1000
0010
0101
0000
1000
0010
0101
0000
1000
0100
0011
0000
1000
0100
,  // measure 21
0011
0000
0100
0010
1001
0000
0100
0010
1001
0000
0100
0010
0110
0000
0001
0100
,  // measure 22
1010
0000
0001
0100
1010
0000
0001
0010
1100
0000
0001
0010
1100
0000
0010
0100
,  // measure 23
1001
0000
0010
0100
2002
0000
0000
0000
3003
0000
0100
0100
0010
0010
1001
0000
,  // measure 24
0000
0000
1001
0000
0000
0000
0001
0000
0100
0010
0000
0100
0010
0000
1100
0000
,  // measure 25
0000
0000
1100
0000
0000
0000
1000
0000
0100
0010
0000
0100
0010
0000
0101
0000
,  // measure 26
0000
0000
0101
0000
0000
0000
0001
0000
1000
0100
0000
1000
0100
0000
0011
0000
,  // measure 27
0000
0000
0011
0000
0000
0000
0001
0000
0100
0010
0000
0100
0010
0000
1001
0000
,  // measure 28
0100
1000
0001
0000
0001
0000
0100
0000
0010
1000
0001
0000
0001
0000
1001
0000
,  // measure 29
0010
0001
1000
0000
1000
0000
0001
0000
0100
0001
1000
0000
1000
0000
0100
0010
,  // measure 30
0100
0010
0001
0100
0001
0100
0010
1000
0010
1000
0001
0010
0100
0000
1001
0000
,  // measure 31
0000
2002
0000
0000
0000
3003
0000
0210
,  // measure 32
0000
0000
0301
0100
0001
0000
1000
0010
1000
0000
0001
0010
0100
0000
1000
0100
,  // measure 33
1000
0000
0001
0010
0001
0000
0100
0000
0010
0000
1001
0000
0000
0000
1020
0000
,  // measure 34
0000
0000
1030
0100
1000
0000
0001
0010
0001
0000
1000
0010
0100
0000
0101
0000
,  // measure 35
0100
0110
0010
1010
1000
1001
0000
0201
,  // measure 36
0000
0000
0301
0010
0100
0000
0010
0100
1000
0000
0010
1000
0001
0000
1000
0010
,  // measure 37
0100
0000
0010
0100
0001
0000
0010
0000
0100
0000
1001
0000
0000
0000
1200
0000
,  // measure 38
0000
0000
1300
0010
0100
0000
0101
0000
0000
0000
0101
0000
0000
0000
0000
0000
,  // measure 39
1010
0010
0110
1001
1001
1001
0000
2002
,  // measure 40
3003
0000
1000
0010
0100
0000
0010
0100
0001
0000
0010
0100
1000
0000
0001
1000
,  // measure 41
0100
0000
1000
0001
0010
0000
1100
0000
0100
0000
1001
0000
0000
0000
1020
0000
,  // measure 42
0000
0000
1030
0001
0010
0000
0100
1000
0001
0000
0100
0010
1000
0000
1001
0000
,  // measure 43
0001
0011
0010
0110
0100
1001
0000
0201
,  // measure 44
0000
0000
0301
0100
1000
0000
0001
0100
0010
0000
0001
0010
1000
0000
0001
0010
,  // measure 45
0100
1000
0001
0100
0001
0100
0010
1000
0100
0000
1001
0000
0000
0000
0100
0001
,  // measure 46
0100
0001
0010
0100
0010
0100
1000
0010
0100
0001
0010
0100
1000
0001
2000
0000
,  // measure 47
0000
0000
0000
0000
0000
0000
0010
0000
0010
0000
3010
0000
0000
0000
0100
0001
,  // measure 48
1000
0000
0100
0000
0010
0000
0001
1000
0010
0000
1000
0000
1010
0000
0000
0000
,  // measure 49
1000
0100
0001
0000
0100
0000
1000
0100
0010
0000
0100
0010
0001
0000
0100
0010
,  // measure 50
1000
0000
0100
0000
0010
0000
0001
1000
0020
0000
1000
0000
2030
0000
0000
0000
,  // measure 51
3001
0100
0020
0000
0100
0000
0130
0000
0000
0000
1001
0000
0000
0000
0010
1000
,  // measure 52
0001
0000
0010
0000
0100
0000
1000
0001
0200
0000
0001
0000
0301
0000
1000
0100
,  // measure 53
0010
0000
0100
0000
1000
0000
0010
0100
0002
0000
1000
0000
1003
0000
0001
0100
,  // measure 54
1000
0000
0100
0000
0001
0010
0100
0000
0010
0100
1000
0000
0001
0000
0100
0001
,  // measure 55
2000
0100
3200
0000
0010
0310
0000
0000
,  // measure 56
0001
1000
0010
0000
1000
0000
0100
0000
0010
0000
0100
0000
1000
0100
0001
0000
,  // measure 57
1000
0100
0010
0000
1000
0010
0001
0000
1000
0010
0100
0000
1000
0001
0100
0000
,  // measure 58
0010
0000
1000
0000
0001
1000
0100
0000
0010
0000
0001
0000
0101
0000
0100
0000
,  // measure 59
0110
0000
0000
0000
1001
0000
1000
0000
1010
0000
0100
0010
0001
0000
0000
0011
,  // measure 60
0000
0000
0011
0000
1001
0000
0000
0000
1000
0010
0100
0001
1000
0000
0000
1010
,  // measure 61
0000
0000
1010
0000
1001
0000
0000
0000
1000
0100
0010
0001
1000
0010
0100
0010
,  // measure 62
1000
0100
0010
0001
1000
0010
0100
0010
1000
0001
0010
0100
1000
0000
0000
0000
,  // measure 63
0000
0000
0110
0110
0110
0000
2002
0000
,  // measure 64
0000
3003
0000
0000
;
