#TITLE:マチ子300。;
#SUBTITLE:;
#ARTIST:26;
#TITLETRANSLIT:MACHIKO 300.;
#SUBTITLETRANSLIT:;
#ARTISTTRANSLIT:;
#CREDIT:DigiMindAxel;
#BANNER:MACHIKO 300..png;
#BACKGROUND:MACHIKO 300.-bg.png;
#LYRICSPATH:MACHIKO 300..lrc;
#CDTITLE:BEMANI game remix.png;
#MUSIC:MACHIKO 300..ogg;
#METERTYPE:DDR X;
#OFFSET:-3.573;
#SAMPLESTART:73.000;
#SAMPLELENGTH:12.000;
#SELECTABLE:YES;
#DISPLAYBPM:304.000:608.000;
#BPMS:0.000=304.000,335.500=152.000,337.000=76.000,338.000=304.000,404.000=608.000,532.000=304.000;
#STOPS:338.000=1.457
;
#BGCHANGES:;

//---------------dance-single - ----------------
#NOTES:
     dance-single:
     :
     Hard:
     16:
     0.862,1.000,0.258,0.258,0.058: // measure 1
0001
0000
1000
0000
0100
1000
0000
0100
,  // measure 2
1000
0000
0100
0000
0010
0001
0010
0000
,  // measure 3
0001
0000
0100
0000
0010
1000
0000
0010
,  // measure 4
1000
0001
1001
0000
,  // measure 5
1100
0100
1000
0010
,  // measure 6
0100
0001
0010
0100
,  // measure 7
1000
0010
1010
0000
,  // measure 8
0100
0001
0101
0000
,  // measure 9
1001
0000
0100
0000
0010
0001
0000
0010
,  // measure 10
0001
1000
0010
0100
,  // measure 11
0010
1000
1100
0000
,  // measure 12
0010
0001
0101
0000
,  // measure 13
1001
0000
1000
0000
0010
0100
0000
0010
,  // measure 14
0100
0001
0100
0010
,  // measure 15
1000
0000
0001
0000
0010
0001
0000
0010
,  // measure 16
0001
0100
0110
0000
,  // measure 17
1001
0000
0100
0000
0010
0001
0010
0000
,  // measure 18
0100
0000
1000
0000
0010
0100
0010
0000
,  // measure 19
2000
0000
3200
0000
,  // measure 20
0320
0000
0032
0000
,  // measure 21
1003
0001
1000
0000
1001
0000
0000
0000
,  // measure 22
0001
0000
0010
0000
0100
1000
0100
0000
,  // measure 23
1000
0010
0001
0010
,  // measure 24
1000
0000
0100
0000
0010
0001
0010
0000
,  // measure 25
0001
1000
0001
0000
1001
0000
0000
0000
,  // measure 26
1000
0000
0100
0000
0010
0001
1000
0000
,  // measure 27
1001
0000
1100
0000
,  // measure 28
0011
0000
0100
0000
1000
0001
0010
0000
,  // measure 29
1001
0001
0010
0100
,  // measure 30
1000
0001
1000
0000
0001
0100
0001
0000
,  // measure 31
0010
0000
0100
0000
1000
0001
0100
0000
,  // measure 32
0001
0000
0100
0000
0010
0100
0010
0000
,  // measure 33
0100
0000
0001
0010
0001
0010
0001
0010
,  // measure 34
0001
0000
1000
0100
1000
0100
1000
0000
,  // measure 35
1000
0100
1000
0000
0001
0010
0001
0000
,  // measure 36
0001
0010
0100
1000
0010
0100
0001
1000
,  // measure 37
0002
0010
0013
0100
,  // measure 38
2000
0100
3100
0010
,  // measure 39
0002
0100
0103
0010
,  // measure 40
1000
0001
1000
0000
0001
1000
0001
0000
,  // measure 41
2000
0010
3010
0100
,  // measure 42
0002
0100
0103
0010
,  // measure 43
1000
0001
1000
0000
0001
1000
0001
0000
,  // measure 44
0100
0010
0100
0000
0110
0000
0000
0000
,  // measure 45
1100
0010
0001
1000
,  // measure 46
1100
0010
0001
1000
,  // measure 47
1100
0010
0001
0010
,  // measure 48
0100
0010
0100
0000
1000
0010
1000
0000
,  // measure 49
1001
0100
0010
1000
,  // measure 50
1001
0100
0010
1000
,  // measure 51
0001
1000
0001
0000
0100
0010
0100
0001
,  // measure 52
0010
0100
1000
0001
1000
0001
0100
0010
,  // measure 53
0200
0001
0301
1000
,  // measure 54
0200
1000
1300
0010
,  // measure 55
0100
0010
1000
0100
,  // measure 56
2000
0000
3002
0000
,  // measure 57
0203
0010
0310
1000
,  // measure 58
0200
1000
1300
0010
,  // measure 59
0100
0001
0100
0000
0001
1000
0001
0000
,  // measure 60
1000
0100
1000
0000
0001
0000
0010
0000
,  // measure 61
0200
1000
1300
0010
,  // measure 62
0200
0001
0301
1000
,  // measure 63
0100
1000
0100
0000
0010
0001
0010
0000
,  // measure 64
0001
1000
0001
0000
0010
0000
0100
0000
,  // measure 65
2000
0010
3010
0100
,  // measure 66
0002
1000
1003
0010
,  // measure 67
1000
0001
1000
0000
0001
0010
0001
0000
,  // measure 68
1000
0100
1000
0000
0010
0000
0100
0000
,  // measure 69
1001
0000
0001
0000
0010
0001
0000
0010
,  // measure 70
0001
0000
0010
0000
0100
1000
0000
0100
,  // measure 71
1000
0000
0100
0000
0010
0001
0010
0001
,  // measure 72
0010
0100
1001
0000
,  // measure 73
1001
0000
0001
0000
0100
0001
0000
0100
,  // measure 74
0001
0000
0010
0000
0100
1000
0000
0100
,  // measure 75
1000
0000
0001
0000
1000
0100
1000
0100
,  // measure 76
1000
0010
0100
0001
1000
0100
1000
0000
,  // measure 77
1001
0000
0001
0000
0010
0001
0000
0010
,  // measure 78
0001
0000
1000
0000
0010
0100
0000
0010
,  // measure 79
0100
0000
0001
0000
1000
0100
1000
0100
,  // measure 80
1000
0010
0110
0000
,  // measure 81
1001
0000
1000
0100
1000
0100
1000
0100
,  // measure 82
1000
0000
0001
0010
0001
0010
0001
0010
,  // measure 83
0001
0000
0100
0000
0010
0000
1000
0000
0010
0000
0100
0000
,  // measure 84
0010
0000
1000
0000
0001
0000
2002
0000
0000
0000
0000
0000
,  // measure 85
0000
0000
3003
0000
,  // measure 86
1000
0100
1000
0100
1000
0000
0001
0010
,  // measure 87
0001
0010
0001
0000
0100
0010
0100
0010
,  // measure 88
0100
0000
0001
0100
0001
0100
0001
0000
,  // measure 89
1000
0010
1000
0010
1000
0000
0001
1000
,  // measure 90
0001
1000
0001
0000
1000
0100
1000
0010
,  // measure 91
1000
0000
0001
0010
0001
0100
0001
0000
,  // measure 92
0100
0010
0100
0000
0001
0010
0100
0000
,  // measure 93
1000
0100
0010
0000
0001
1000
0100
0000
,  // measure 94
0010
0001
0010
0001
0010
0000
0100
1000
,  // measure 95
0100
1000
0100
0000
1000
0100
1000
0001
,  // measure 96
1000
0000
0001
0010
0001
1000
0001
0000
,  // measure 97
0100
0010
0100
0010
0100
0000
0001
1000
,  // measure 98
0001
1000
0100
0000
0010
0001
0010
0001
,  // measure 99
1000
0000
0010
1000
0010
1000
0001
0000
,  // measure 100
0010
0100
1000
0000
0100
1000
0100
0000
,  // measure 101
0010
0001
0100
0000
0001
0100
0001
0000
,  // measure 102
1000
0100
1000
0100
,  // measure 103
0010
0001
1000
0000
,  // measure 104
0001
0010
0001
0010
,  // measure 105
0100
1000
0001
0000
,  // measure 106
1000
0010
1000
0010
,  // measure 107
0100
0001
1000
0000
,  // measure 108
0001
0100
0001
0100
,  // measure 109
0010
1000
0001
0000
,  // measure 110
1000
0100
1000
0001
,  // measure 111
1000
0100
1000
0000
,  // measure 112
0001
0010
0001
1000
,  // measure 113
0001
0010
0001
0000
,  // measure 114
1000
0100
0010
0000
,  // measure 115
0001
0010
0100
0000
,  // measure 116
1000
0010
0100
0000
,  // measure 117
0001
0100
0010
0000
,  // measure 118
1000
0100
1000
0100
,  // measure 119
0010
0001
1000
0000
,  // measure 120
0100
1000
0100
1000
,  // measure 121
0001
0010
0100
0000
,  // measure 122
0010
0001
0010
0001
,  // measure 123
1000
0010
0100
0000
,  // measure 124
0001
0010
0001
0010
,  // measure 125
0100
1000
0010
0000
,  // measure 126
0100
0001
0100
0001
,  // measure 127
0010
0100
1000
0000
,  // measure 128
0001
0100
0010
0000
,  // measure 129
1000
0010
0100
0000
,  // measure 130
0001
0010
0100
0000
,  // measure 131
1000
0100
0010
0000
,  // measure 132
0001
0100
0010
0100
,  // measure 133
0001
1000
0100
1000
,  // measure 134
0001
0000
1001
0000
,  // measure 135
1000
0010
0001
0010
,  // measure 136
2000
0000
3100
0000
,  // measure 137
0010
0001
0100
0010
,  // measure 138
2000
0000
3001
0000
,  // measure 139
1000
0010
0001
0010
,  // measure 140
2000
0000
3200
0000
,  // measure 141
2300
0000
3002
0000
,  // measure 142
1003
0100
1000
0000
0001
1000
0001
0000
,  // measure 143
0010
0001
0010
0001
0100
0010
1000
0100
,  // measure 144
0020
0001
0031
0100
,  // measure 145
0020
0100
0130
0001
,  // measure 146
1000
0000
1000
0000
1000
0000
0000
0000
0000
0000
0000
0000
,  // measure 147
0001
0000
0001
0000
0001
0000
0000
0000
0000
0000
0000
0000
,  // measure 148
0100
0000
0100
0000
0100
0000
0010
0000
0010
0000
0010
0000
,  // measure 149
2002
0000
0000
0000
,  // measure 150
0000
0000
0000
0000
,  // measure 151
0000
0000
0000
0000
,  // measure 152
0000
0000
0000
0000
,  // measure 153
0000
0000
0000
0000
,  // measure 154
3003
0000
0000
0000
;

//---------------dance-single - ----------------
#NOTES:
     dance-single:
     :
     Easy:
     10:
     0.479,0.574,0.350,0.167,0.000: // measure 1
1001
0000
0000
0000
,  // measure 2
0001
0000
0000
0000
,  // measure 3
1000
0000
0000
0000
,  // measure 4
0001
0000
0000
0000
,  // measure 5
1001
0000
1000
0000
,  // measure 6
1000
0100
0010
0001
,  // measure 7
0100
0000
1001
0000
,  // measure 8
0100
0000
1001
0000
,  // measure 9
1001
0000
0001
0000
,  // measure 10
0001
0010
0100
1000
,  // measure 11
0010
0000
1001
0000
,  // measure 12
0010
0000
1001
0000
,  // measure 13
1001
0000
1000
0000
,  // measure 14
1000
0010
0100
0001
,  // measure 15
0010
0000
1001
0000
,  // measure 16
0010
0000
1001
0000
,  // measure 17
1001
0000
0001
0000
,  // measure 18
0110
0000
1000
0000
,  // measure 19
0002
0000
0023
0000
,  // measure 20
0230
0000
2300
0000
,  // measure 21
3001
0000
0001
0000
,  // measure 22
1000
0100
1000
0001
,  // measure 23
0010
0000
0010
0000
,  // measure 24
0010
0001
1000
0100
,  // measure 25
1000
0000
1000
0000
,  // measure 26
0001
0010
0001
1000
,  // measure 27
0100
0000
0100
0000
,  // measure 28
0100
1000
0001
0010
,  // measure 29
0001
0000
0001
0000
,  // measure 30
1000
0010
1000
0001
,  // measure 31
0100
0000
0100
0000
,  // measure 32
0010
0000
0010
1000
,  // measure 33
0001
0000
0001
0000
,  // measure 34
1000
0000
1000
0001
,  // measure 35
2000
0000
3200
0000
,  // measure 36
0320
0000
0032
0000
,  // measure 37
1003
1000
1000
0000
,  // measure 38
0001
0001
0001
0000
,  // measure 39
1000
1000
1000
0000
,  // measure 40
0001
0010
0100
1000
,  // measure 41
0010
0010
0010
0000
,  // measure 42
0100
0100
0100
0000
,  // measure 43
0010
1000
0100
0010
,  // measure 44
0001
0000
1001
0000
,  // measure 45
1000
1000
1000
0000
,  // measure 46
0001
0001
0001
0000
,  // measure 47
1000
1000
1000
0000
,  // measure 48
0001
0010
0100
1000
,  // measure 49
0010
0010
0010
0000
,  // measure 50
0100
0100
0100
0000
,  // measure 51
0001
1000
0100
0010
,  // measure 52
0001
1000
0001
0000
,  // measure 53
0110
0000
0100
0000
,  // measure 54
1000
0001
0100
0000
,  // measure 55
0001
0000
0100
0000
,  // measure 56
0001
0010
0100
1000
,  // measure 57
0001
0000
0010
0000
,  // measure 58
0001
1000
0100
0000
,  // measure 59
1000
0000
0100
0000
,  // measure 60
1000
0001
0010
0100
,  // measure 61
1000
0000
0001
0000
,  // measure 62
1000
0001
0010
0000
,  // measure 63
0001
0000
0010
0000
,  // measure 64
0001
1000
0100
0010
,  // measure 65
0001
0000
1000
0000
,  // measure 66
0010
1000
0001
0000
,  // measure 67
1000
0000
0001
0000
,  // measure 68
1000
0001
0010
0100
,  // measure 69
2000
0000
0000
0000
,  // measure 70
0001
0001
3001
0000
,  // measure 71
1000
0000
0001
0000
,  // measure 72
1000
0000
1000
0000
,  // measure 73
0020
0000
0000
0000
,  // measure 74
0100
0100
0130
0000
,  // measure 75
0001
0000
1000
0000
,  // measure 76
0001
0000
0001
0000
,  // measure 77
0200
0000
0000
0000
,  // measure 78
0010
0010
0310
0000
,  // measure 79
1000
0000
0001
0000
,  // measure 80
1000
0000
1000
0000
,  // measure 81
0020
0000
0000
0000
,  // measure 82
0100
0100
0130
0000
,  // measure 83
1001
0000
1000
0000
,  // measure 84
1000
0000
2002
0000
,  // measure 85
0000
0000
3003
0000
,  // measure 86
1001
0000
0001
0000
,  // measure 87
1000
0100
0001
0100
,  // measure 88
1000
0001
0001
0000
,  // measure 89
1000
0100
0001
0100
,  // measure 90
1000
0001
0001
0000
,  // measure 91
1000
0000
1001
0000
,  // measure 92
0001
0000
1001
0000
,  // measure 93
0110
0000
0110
0000
,  // measure 94
1001
0000
1000
0000
,  // measure 95
0001
0100
1000
0100
,  // measure 96
0001
1000
1000
0000
,  // measure 97
0001
0100
1000
0100
,  // measure 98
0001
1000
1000
0000
,  // measure 99
0001
0000
1001
0000
,  // measure 100
1000
0000
1001
0000
,  // measure 101
0110
0000
0110
0000
,  // measure 102
1001
0000
0000
0000
,  // measure 103
0001
0000
0000
0000
,  // measure 104
1000
0000
0010
0000
,  // measure 105
0001
0000
0010
0000
,  // measure 106
1000
0000
0001
0000
,  // measure 107
0001
0000
0000
0000
,  // measure 108
1000
0000
0010
0000
,  // measure 109
0001
0000
0010
0000
,  // measure 110
1000
0000
0001
0000
,  // measure 111
0001
0000
0000
0000
,  // measure 112
0100
0000
0000
0000
,  // measure 113
0110
0000
0000
0000
,  // measure 114
0010
0000
0000
0000
,  // measure 115
0110
0000
0000
0000
,  // measure 116
1001
0000
0000
0000
,  // measure 117
1001
0000
0000
0000
,  // measure 118
1001
0000
0000
0000
,  // measure 119
1000
0000
0000
0000
,  // measure 120
0001
0000
0100
0000
,  // measure 121
1000
0000
0100
0000
,  // measure 122
0001
0000
1000
0000
,  // measure 123
1000
0000
0000
0000
,  // measure 124
0001
0000
0010
0000
,  // measure 125
1000
0000
0010
0000
,  // measure 126
0001
0000
1000
0000
,  // measure 127
1000
0000
0000
0000
,  // measure 128
0010
0000
0000
0000
,  // measure 129
0110
0000
0000
0000
,  // measure 130
0100
0000
0000
0000
,  // measure 131
0110
0000
0000
0000
,  // measure 132
1001
0000
0000
0000
,  // measure 133
1001
0000
0000
0000
,  // measure 134
1001
0000
1000
0000
,  // measure 135
0001
0010
0100
0010
,  // measure 136
0001
0000
0001
0000
,  // measure 137
0100
0010
1000
0010
,  // measure 138
0100
0000
1001
0000
,  // measure 139
0001
0010
0100
0010
,  // measure 140
0002
0000
0203
0000
,  // measure 141
0320
0000
2030
0000
,  // measure 142
3001
0000
1001
0000
,  // measure 143
1000
0010
0100
0010
,  // measure 144
1000
0000
1000
0000
,  // measure 145
0100
0010
0001
0010
,  // measure 146
0100
0000
0000
0000
,  // measure 147
0110
0000
0000
0000
,  // measure 148
0100
0000
0110
0000
,  // measure 149
2002
0000
0000
0000
,  // measure 150
0000
0000
0000
0000
,  // measure 151
0000
0000
0000
0000
,  // measure 152
0000
0000
0000
0000
,  // measure 153
0000
0000
0000
0000
,  // measure 154
3003
0000
0000
0000
;

//---------------dance-single - ----------------
#NOTES:
     dance-single:
     :
     Medium:
     13:
     0.592,0.765,0.583,0.050,0.046: // measure 1
1001
0000
0000
0000
,  // measure 2
1000
0000
0000
0000
,  // measure 3
1000
0000
0001
0000
,  // measure 4
1000
0000
0001
0000
,  // measure 5
1001
0000
0001
0000
,  // measure 6
0001
0100
0010
1000
,  // measure 7
1100
0000
0101
0000
,  // measure 8
1100
0000
0101
0000
,  // measure 9
1001
0000
1001
0000
,  // measure 10
1000
0010
0100
0001
,  // measure 11
0011
0000
1010
0000
,  // measure 12
0011
0000
1010
0000
,  // measure 13
1001
0000
1001
0000
,  // measure 14
0001
0010
0100
1000
,  // measure 15
1010
0000
0011
0000
,  // measure 16
1010
0000
0011
0000
,  // measure 17
0110
0000
0110
0000
,  // measure 18
1001
0000
1001
0000
,  // measure 19
0011
0000
0110
0000
,  // measure 20
1100
0000
1001
0000
,  // measure 21
1100
0000
1100
0000
,  // measure 22
0100
0010
0001
1000
,  // measure 23
0100
0000
0100
0000
,  // measure 24
0100
1000
0001
0010
,  // measure 25
0100
0000
0110
0000
,  // measure 26
0100
0010
1000
0100
,  // measure 27
0010
0000
0010
0000
,  // measure 28
0010
0001
1000
0010
,  // measure 29
0100
0000
0110
0000
,  // measure 30
0010
0100
0001
0100
,  // measure 31
0010
0000
1010
0000
,  // measure 32
0010
0000
0010
0100
,  // measure 33
0001
0000
1001
0000
,  // measure 34
0001
0100
0010
1000
,  // measure 35
1100
0000
0101
0000
,  // measure 36
1010
0000
0011
0000
,  // measure 37
1000
0001
0011
0000
,  // measure 38
1000
0001
0011
0000
,  // measure 39
1000
0001
0011
0000
,  // measure 40
1000
1000
0100
0010
,  // measure 41
0001
1000
1010
0000
,  // measure 42
0001
1000
1010
0000
,  // measure 43
0001
0001
0010
0100
,  // measure 44
1000
0001
1001
0000
,  // measure 45
0001
1000
1100
0000
,  // measure 46
0001
1000
1100
0000
,  // measure 47
0001
1000
1100
0000
,  // measure 48
0001
0001
0100
0010
,  // measure 49
1000
0001
0011
0000
,  // measure 50
1000
0001
0011
0000
,  // measure 51
1000
1000
0100
0010
,  // measure 52
0001
1000
1001
0000
,  // measure 53
1001
0000
0000
0001
0100
0000
0000
0100
,  // measure 54
1000
0000
0000
1000
0100
0000
0000
0100
,  // measure 55
0001
0000
0000
0001
0100
0000
0000
0100
,  // measure 56
1000
0000
0000
1000
0001
0000
0000
0001
,  // measure 57
0010
0000
0000
0010
1000
0000
0000
1000
,  // measure 58
0010
0000
0000
0010
0001
0000
0000
0001
,  // measure 59
0010
0010
0100
0100
,  // measure 60
1000
0010
0100
0001
,  // measure 61
0100
0000
0000
0100
0001
0000
0000
0001
,  // measure 62
1000
0000
0000
1000
0100
0000
0000
0100
,  // measure 63
0001
0000
0000
0001
1000
0000
0010
0000
,  // measure 64
0100
0000
0010
0000
0010
0000
0000
0010
,  // measure 65
1000
0000
0000
1000
0001
0000
0000
0001
,  // measure 66
0010
0000
0000
0010
1000
0000
0000
1000
,  // measure 67
0001
0000
0000
0001
1000
0000
0010
0000
,  // measure 68
0100
0010
0010
0000
,  // measure 69
2010
0000
0000
0000
,  // measure 70
0100
0100
3100
0000
,  // measure 71
1000
0010
0100
0000
,  // measure 72
0100
0001
0010
0000
,  // measure 73
0102
0000
0000
0000
,  // measure 74
0010
0010
0013
0000
,  // measure 75
0001
0100
0010
0000
,  // measure 76
1000
0010
1000
0010
1000
0001
1000
0001
,  // measure 77
2000
0000
0000
0000
,  // measure 78
0100
0100
3100
0000
,  // measure 79
1000
0010
0100
0000
,  // measure 80
0100
0001
0010
0000
,  // measure 81
0102
0000
0000
0000
,  // measure 82
0010
0010
0013
0000
,  // measure 83
1001
0000
0000
0000
1000
0000
0001
0000
0000
0000
0001
0000
,  // measure 84
1000
0000
0000
0000
1000
0000
0002
0000
0000
0000
0000
0000
,  // measure 85
0000
0000
0003
0000
,  // measure 86
1001
0000
0100
1000
0100
0000
0000
0000
,  // measure 87
1000
0001
0100
1000
,  // measure 88
0100
0000
0001
1000
0001
0000
0000
0000
,  // measure 89
1000
0001
0010
1000
,  // measure 90
0010
0000
0001
1000
0001
0000
0000
0000
,  // measure 91
1001
0000
0000
1000
0001
0000
0000
0001
,  // measure 92
0100
0000
0000
0100
1000
0000
0000
1000
,  // measure 93
0100
0000
0000
0100
0001
0000
0000
0000
,  // measure 94
1001
0000
0010
0001
0010
0000
0000
0000
,  // measure 95
0001
1000
0010
0001
,  // measure 96
0010
0000
1000
0001
1000
0000
0000
0000
,  // measure 97
0001
1000
0100
0001
,  // measure 98
0100
0000
1000
0001
1000
0000
0000
0000
,  // measure 99
1001
0000
0000
0001
1000
0000
0000
1000
,  // measure 100
0100
0000
0000
0100
0001
0000
0000
0001
,  // measure 101
0100
0000
0000
0100
1000
0000
0000
0000
,  // measure 102
1001
0000
0010
1000
,  // measure 103
0010
0000
0000
0000
,  // measure 104
1000
0000
0010
0000
,  // measure 105
0001
0000
0010
0000
,  // measure 106
1000
0000
0001
1000
,  // measure 107
0001
0000
0000
0000
,  // measure 108
1000
0000
0010
0000
,  // measure 109
0001
0000
0010
0000
,  // measure 110
1000
0000
0001
1000
,  // measure 111
0001
0000
0000
0000
,  // measure 112
1001
0000
0000
1000
,  // measure 113
0010
0000
0000
0010
,  // measure 114
0100
0000
0000
0100
,  // measure 115
0001
0000
0000
0001
,  // measure 116
1000
0000
0000
1000
,  // measure 117
0100
0000
0000
0000
,  // measure 118
1001
0000
0100
0001
,  // measure 119
0100
0000
0000
0000
,  // measure 120
0001
0000
1000
0000
,  // measure 121
0010
0000
0001
0000
,  // measure 122
0010
0000
1000
0001
,  // measure 123
1000
0000
0000
0000
,  // measure 124
0001
0000
1000
0000
,  // measure 125
0100
0000
0001
0000
,  // measure 126
0100
0000
1000
0001
,  // measure 127
1000
0000
0000
0000
,  // measure 128
1001
0000
0000
1000
,  // measure 129
0001
0000
0000
0001
,  // measure 130
0100
0000
0000
0100
,  // measure 131
1000
0000
0000
1000
,  // measure 132
0100
0000
0000
0100
,  // measure 133
0001
0000
0000
0000
,  // measure 134
1001
0000
0001
0000
,  // measure 135
1000
0100
0001
0010
,  // measure 136
1000
0000
1100
0000
,  // measure 137
1000
0100
0001
0010
,  // measure 138
1000
0000
1001
0000
,  // measure 139
0001
0100
1000
0010
,  // measure 140
0001
0000
0101
0000
,  // measure 141
1100
0000
0101
0000
,  // measure 142
1001
0000
1001
0000
,  // measure 143
0001
0010
1000
0100
,  // measure 144
0001
0000
1001
0000
,  // measure 145
1000
0100
0001
0010
,  // measure 146
1000
0000
0001
0000
1000
0000
0000
0000
0000
0000
0000
0000
,  // measure 147
0001
0000
1000
0000
0001
0000
0000
0000
0000
0000
0000
0000
,  // measure 148
0010
0000
0001
0000
0010
0000
0001
0000
1000
0000
0001
0000
,  // measure 149
2000
0000
0000
0000
,  // measure 150
0000
0000
0000
0000
,  // measure 151
0000
0000
0000
0000
,  // measure 152
0000
0000
0000
0000
,  // measure 153
0000
0000
0000
0000
,  // measure 154
3000
0000
0000
0000
;

//---------------dance-single - ----------------
#NOTES:
     dance-single:
     :
     Beginner:
     8:
     0.348,0.493,0.367,0.000,0.000: // measure 1
1001
0000
0000
0000
,  // measure 2
0001
0000
0000
0000
,  // measure 3
0001
0000
0000
0000
,  // measure 4
0001
0000
0000
0000
,  // measure 5
1001
0000
0000
0000
,  // measure 6
1000
0000
0000
0000
,  // measure 7
1000
0000
0001
0000
,  // measure 8
1000
0000
0001
0000
,  // measure 9
1000
0000
0000
0000
,  // measure 10
1000
0000
0000
0000
,  // measure 11
1000
0000
0001
0000
,  // measure 12
1000
0000
0001
0000
,  // measure 13
1000
0000
0000
0000
,  // measure 14
0001
0000
0000
0000
,  // measure 15
0001
0000
1000
0000
,  // measure 16
0001
0000
1000
0000
,  // measure 17
0001
0000
0000
0000
,  // measure 18
1000
0000
0000
0000
,  // measure 19
0110
0000
0000
0000
,  // measure 20
0000
0000
0000
0000
,  // measure 21
1001
0000
1000
0000
,  // measure 22
1000
0010
1000
0010
,  // measure 23
1000
0000
0010
0000
,  // measure 24
0100
0000
0001
0000
,  // measure 25
1001
0000
0001
0000
,  // measure 26
0001
0100
0001
0100
,  // measure 27
0001
0000
0100
0000
,  // measure 28
0010
0000
1000
0000
,  // measure 29
1001
0000
1000
0000
,  // measure 30
1000
0100
1000
0100
,  // measure 31
1000
0000
0001
0000
,  // measure 32
0001
0000
0001
0010
,  // measure 33
0001
0000
0100
0000
,  // measure 34
0100
0000
0001
0010
,  // measure 35
0001
0000
1000
0000
,  // measure 36
1001
0000
1001
0000
,  // measure 37
1000
0000
0000
0000
,  // measure 38
0001
0000
0000
0000
,  // measure 39
1000
0000
0000
0000
,  // measure 40
0001
0010
0001
0010
,  // measure 41
0001
0000
0000
0000
,  // measure 42
1000
0000
0000
0000
,  // measure 43
0001
0100
0001
0100
,  // measure 44
0001
0000
0000
0000
,  // measure 45
1000
0000
0000
0000
,  // measure 46
0010
0000
0000
0000
,  // measure 47
0100
0000
0000
0000
,  // measure 48
0001
1000
0001
1000
,  // measure 49
0001
0000
1001
0000
,  // measure 50
1000
0000
1001
0000
,  // measure 51
0001
1000
0001
1000
,  // measure 52
0001
0000
0000
0000
,  // measure 53
1001
0000
0001
0000
,  // measure 54
0010
0000
0100
0000
,  // measure 55
1000
0000
0010
0000
,  // measure 56
1000
0000
0010
0000
,  // measure 57
1000
0000
0100
0000
,  // measure 58
0010
0000
0001
0000
,  // measure 59
0100
0000
0001
0000
,  // measure 60
0100
0010
0100
0000
,  // measure 61
0001
0000
1000
0000
,  // measure 62
0001
0000
1000
0000
,  // measure 63
0010
0000
1000
0000
,  // measure 64
0010
0100
0010
0000
,  // measure 65
1000
0000
0001
0000
,  // measure 66
1000
0000
0001
0000
,  // measure 67
0100
0000
0001
0000
,  // measure 68
0100
0010
0100
0000
,  // measure 69
1001
0000
0000
0000
,  // measure 70
0001
0001
0001
0000
,  // measure 71
0000
0000
0000
0000
,  // measure 72
1000
0000
0000
0000
,  // measure 73
1001
0000
0000
0000
,  // measure 74
1000
1000
1000
0000
,  // measure 75
0000
0000
0000
0000
,  // measure 76
0001
0000
0000
0000
,  // measure 77
1001
0000
0000
0000
,  // measure 78
0001
0001
0001
0000
,  // measure 79
0000
0000
0000
0000
,  // measure 80
1000
0000
0000
0000
,  // measure 81
1001
0000
0000
0000
,  // measure 82
1000
1000
1000
0000
,  // measure 83
0110
0000
0000
0000
,  // measure 84
0000
0000
1001
0000
,  // measure 85
0000
0000
0000
0000
,  // measure 86
1001
0000
0000
0000
,  // measure 87
0100
1000
0100
1000
,  // measure 88
0001
0000
0000
0000
,  // measure 89
0100
0001
0100
0001
,  // measure 90
1000
0000
0000
0000
,  // measure 91
0001
0000
1000
0000
,  // measure 92
1001
0000
1001
0000
,  // measure 93
0110
0000
0110
0000
,  // measure 94
1001
0000
0000
0000
,  // measure 95
0010
0001
0010
0001
,  // measure 96
1000
0000
0000
0000
,  // measure 97
0010
1000
0010
1000
,  // measure 98
0001
0000
0000
0000
,  // measure 99
1000
0000
0001
0000
,  // measure 100
1001
0000
1001
0000
,  // measure 101
0110
0000
0110
0000
,  // measure 102
1001
0000
0000
0000
,  // measure 103
0000
0000
0000
0000
,  // measure 104
0010
0000
1000
0000
,  // measure 105
0010
0000
1000
0000
,  // measure 106
0001
0000
0000
0000
,  // measure 107
0000
0000
0000
0000
,  // measure 108
0010
0000
0001
0000
,  // measure 109
0010
0000
0001
0000
,  // measure 110
1000
0000
0000
0000
,  // measure 111
0000
0000
0000
0000
,  // measure 112
0001
0000
0000
0000
,  // measure 113
1000
0000
0000
0000
,  // measure 114
1001
0000
0000
0000
,  // measure 115
1001
0000
0000
0000
,  // measure 116
0110
0000
0000
0000
,  // measure 117
0110
0000
0000
0000
,  // measure 118
1001
0000
0000
0000
,  // measure 119
0000
0000
0000
0000
,  // measure 120
0100
0000
0001
0000
,  // measure 121
0100
0000
0001
0000
,  // measure 122
1000
0000
0000
0000
,  // measure 123
0000
0000
0000
0000
,  // measure 124
0001
0000
1000
0000
,  // measure 125
0010
0000
1000
0000
,  // measure 126
0010
0000
0000
0000
,  // measure 127
0000
0000
0000
0000
,  // measure 128
1000
0000
0000
0000
,  // measure 129
0001
0000
0000
0000
,  // measure 130
1001
0000
0000
0000
,  // measure 131
1001
0000
0000
0000
,  // measure 132
0110
0000
0000
0000
,  // measure 133
0110
0000
0000
0000
,  // measure 134
1001
0000
0000
0000
,  // measure 135
0001
0000
0100
0000
,  // measure 136
0001
0000
1000
0000
,  // measure 137
0010
0000
1000
0000
,  // measure 138
0001
0000
0000
0000
,  // measure 139
0001
0000
0010
0000
,  // measure 140
0001
0000
1000
0000
,  // measure 141
0100
0000
1000
0000
,  // measure 142
1001
0000
0001
0000
,  // measure 143
0001
0010
0100
0000
,  // measure 144
1001
0000
1000
0000
,  // measure 145
1000
0100
0010
0000
,  // measure 146
1001
0000
0000
0000
,  // measure 147
1001
0000
0000
0000
,  // measure 148
0110
0000
0100
0000
,  // measure 149
1001
0000
0000
0000
;

//---------------dance-single - ----------------
#NOTES:
     dance-single:
     :
     Challenge:
     17:
     0.948,1.000,0.383,0.083,0.058: // measure 1
1001
0000
1000
0000
0010
0100
0000
0010
,  // measure 2
0100
0000
0001
0000
1000
0100
0000
1000
,  // measure 3
0100
0000
0010
0000
0001
0100
0010
0100
,  // measure 4
0001
1000
1001
0000
,  // measure 5
1001
0000
0001
0000
0010
0100
0000
0010
,  // measure 6
0100
0000
1000
0000
0001
0100
0000
0001
,  // measure 7
0100
0000
0010
0000
1000
0100
0010
0000
,  // measure 8
0001
0000
0100
0000
0001
0100
0010
0000
,  // measure 9
1001
0000
1000
0000
0010
0100
0000
0010
,  // measure 10
0100
0000
0001
0000
1000
0100
0000
1000
,  // measure 11
0100
0000
0010
0000
0001
0100
0010
0000
,  // measure 12
0100
0000
0001
0000
1000
0100
0010
0000
,  // measure 13
0001
0100
0001
0000
1000
0001
1000
0000
,  // measure 14
0100
0010
0001
1000
,  // measure 15
0001
0100
0001
0000
1000
0100
0010
0000
,  // measure 16
0001
0000
1000
0000
0100
0010
0001
0000
,  // measure 17
1001
0000
1000
0000
0010
0100
0001
0000
,  // measure 18
1001
0000
1000
0000
0100
0010
0001
0000
,  // measure 19
0100
0010
0100
0000
0001
0100
0001
0000
,  // measure 20
1000
0100
0010
0001
1000
0010
1000
0000
,  // measure 21
0001
0010
0001
0000
1000
0100
1000
0000
,  // measure 22
0001
0010
0001
0010
0100
1000
0100
1000
,  // measure 23
0002
0100
0103
0010
,  // measure 24
1000
0100
0010
0001
0100
0010
0100
0000
,  // measure 25
0001
0100
0001
0000
1000
0010
1000
0000
,  // measure 26
0001
0100
0001
0100
0010
1000
0010
1000
,  // measure 27
0002
0010
0013
0100
,  // measure 28
1000
0010
0100
0001
1000
0100
1000
0000
,  // measure 29
0001
1000
0001
0000
1000
0100
1000
0000
,  // measure 30
0100
0010
0100
0010
0001
0100
0001
0000
,  // measure 31
1000
0100
0001
0100
,  // measure 32
1000
0001
1000
0000
0100
1000
0100
0000
,  // measure 33
1001
0000
1000
0100
0010
0001
1000
0100
,  // measure 34
1000
0000
0001
0010
0100
1000
0001
0010
,  // measure 35
0001
1000
0010
0000
0100
0001
1000
0000
,  // measure 36
0001
0010
0100
1000
0001
0100
0010
1000
,  // measure 37
0001
0000
0100
0000
0001
1000
0000
0100
,  // measure 38
1000
0000
0100
0000
0010
0001
0000
1000
,  // measure 39
0010
0000
1000
0000
0001
0010
0000
0001
,  // measure 40
1000
1100
0010
0011
,  // measure 41
1001
0000
1000
0000
0100
0010
0000
0001
,  // measure 42
0100
0000
0010
0000
1000
0100
0000
0010
,  // measure 43
0100
1100
0010
0110
,  // measure 44
0001
0011
1001
0000
,  // measure 45
0101
0000
0100
0000
0010
1000
0000
0001
,  // measure 46
0010
0000
0100
0000
0010
0001
0000
1000
,  // measure 47
0010
0000
0100
0000
0001
1000
0000
0100
,  // measure 48
1000
0100
0010
0000
0001
0010
0100
0000
,  // measure 49
1001
0000
1000
0000
0010
0100
0000
0001
,  // measure 50
1000
0000
0100
0000
0010
0001
0000
1000
,  // measure 51
0001
0100
0010
0000
0100
0010
1000
0000
,  // measure 52
0100
0010
0001
1000
0010
0100
0001
1000
,  // measure 53
0200
1000
1300
0010
,  // measure 54
0002
0100
0103
0010
,  // measure 55
1000
0001
0010
0100
,  // measure 56
2000
0000
3002
0000
,  // measure 57
0013
0100
1000
0010
,  // measure 58
0001
0010
1000
0100
,  // measure 59
0011
0001
1001
1000
,  // measure 60
1010
0110
1001
0001
,  // measure 61
0101
0100
0110
0010
,  // measure 62
1010
1000
1001
0001
,  // measure 63
0011
0000
0100
1000
0001
1000
0100
0000
,  // measure 64
1100
1001
0101
0001
,  // measure 65
1001
1000
1100
0100
,  // measure 66
0110
0010
0011
0001
,  // measure 67
1001
1000
1010
0010
,  // measure 68
0110
0101
1001
0000
,  // measure 69
0001
0000
0010
0000
0100
1000
0000
0100
,  // measure 70
1000
0000
0100
0000
0010
0001
0000
0010
,  // measure 71
0001
0000
0010
0000
0100
1000
0001
1000
,  // measure 72
0100
1000
0001
0000
1001
0000
0000
0000
,  // measure 73
1000
0000
0010
0000
0100
0001
0000
0100
,  // measure 74
0001
0000
0010
0000
0100
1000
0000
0100
,  // measure 75
1000
0000
0001
0000
0100
0010
0000
0100
,  // measure 76
0010
1000
0100
0010
0001
1000
0100
1000
,  // measure 77
0001
0000
0100
0000
0010
1000
0000
0001
,  // measure 78
0010
0000
0100
0000
0010
0001
0000
1000
,  // measure 79
0001
0000
0010
0000
0100
1000
0001
1000
,  // measure 80
0100
1000
0001
0000
1001
0000
0000
0000
,  // measure 81
0101
0000
0100
0001
1000
0001
0100
0001
,  // measure 82
1000
0000
0100
0010
0100
1000
0100
0010
,  // measure 83
0001
0000
1000
0000
0100
0000
0001
0000
1000
0000
0010
0000
,  // measure 84
0001
0000
1000
0000
0001
0000
2002
0000
0000
0000
0000
0000
,  // measure 85
0000
0000
3003
0000
,  // measure 86
0001
0010
0100
0010
0001
0000
1000
0100
,  // measure 87
0010
0100
1000
0000
0010
0100
0001
0100
,  // measure 88
0010
0000
1000
0010
0100
0010
1000
0000
,  // measure 89
0001
0010
0100
1000
0001
0000
1000
0100
,  // measure 90
0010
0001
1000
0000
0001
1000
0010
1000
,  // measure 91
0001
0000
1000
0100
1000
0010
0100
0000
,  // measure 92
0001
0100
0010
0000
1000
0001
0010
0000
,  // measure 93
0100
1000
0001
0000
0010
0100
1000
0000
,  // measure 94
0001
0100
1000
0100
0001
0000
1000
0100
,  // measure 95
0001
0100
1000
0000
0001
0010
1000
0010
,  // measure 96
0001
0000
1000
0010
0001
0010
1000
0000
,  // measure 97
0100
0010
0001
1000
0100
0010
0001
1000
,  // measure 98
0010
0000
1000
0010
0001
0010
1000
0000
,  // measure 99
0001
0010
1000
0010
0001
0000
1000
0010
,  // measure 100
0100
0001
1000
0000
0100
0010
0001
0000
,  // measure 101
1000
0010
0100
0001
0010
0100
1000
0000
,  // measure 102
0100
1000
0010
0100
,  // measure 103
0001
1000
0001
0100
,  // measure 104
0001
1000
0100
0010
,  // measure 105
0001
1000
0010
0000
,  // measure 106
0100
0001
1000
0100
,  // measure 107
1000
0001
0100
0010
,  // measure 108
1000
0100
0010
0001
,  // measure 109
1000
0010
1000
0000
,  // measure 110
0001
0010
0100
1000
,  // measure 111
0100
0010
0001
1000
,  // measure 112
0001
0010
0100
1000
,  // measure 113
0100
0010
0001
0000
,  // measure 114
1000
0010
0100
0001
,  // measure 115
0100
0010
1000
0001
,  // measure 116
1000
0010
0100
0001
,  // measure 117
0100
0010
1000
0000
,  // measure 118
0010
0100
0001
0010
,  // measure 119
0100
0010
0001
1000
,  // measure 120
0010
0100
0001
0100
,  // measure 121
0010
0100
0001
0000
,  // measure 122
0010
0100
1000
0100
,  // measure 123
0010
0001
1000
0010
,  // measure 124
0100
0010
1000
0001
,  // measure 125
0010
0100
1000
0000
,  // measure 126
0100
0010
0001
0010
,  // measure 127
0100
1000
0010
0100
,  // measure 128
0001
1000
0010
0100
,  // measure 129
0010
1000
0100
0010
,  // measure 130
0001
0010
0100
1000
,  // measure 131
0010
0100
0001
1000
,  // measure 132
0001
0010
0100
1000
,  // measure 133
0001
0010
0100
1000
,  // measure 134
0001
0000
0001
0000
0100
0010
0000
0100
,  // measure 135
0010
0000
0010
0000
1000
0001
0000
1000
,  // measure 136
0001
0000
0001
0000
0010
0100
0000
0010
,  // measure 137
0100
0110
1001
0000
,  // measure 138
1000
0000
1000
0000
0001
0010
0000
0001
,  // measure 139
0010
0000
0010
0000
0001
1000
0000
0001
,  // measure 140
1000
0000
1000
0000
0010
0100
0000
0010
,  // measure 141
0100
1001
0010
0100
,  // measure 142
1000
0001
0010
0000
0001
0010
0100
0000
,  // measure 143
0010
0001
0100
1000
0100
0001
0010
0000
,  // measure 144
0100
0010
0001
0000
0010
0001
1000
0000
,  // measure 145
0010
1000
0100
0001
0100
1000
0010
0100
,  // measure 146
0001
0000
0001
0000
0001
0000
0000
0000
0000
0000
0000
0000
,  // measure 147
1000
0000
1000
0000
1000
0000
0000
0000
0000
0000
0000
0000
,  // measure 148
0100
0000
0100
0000
0010
0000
0001
0000
0001
0000
1000
0000
,  // measure 149
2002
0000
0000
0000
,  // measure 150
0000
0000
0000
0000
,  // measure 151
0000
0000
0000
0000
,  // measure 152
0000
0000
0000
0000
,  // measure 153
0000
0000
0000
0000
,  // measure 154
3003
0000
0000
0000
;
