#TITLE:まぼろしウインク;
#SUBTITLE:;
#ARTIST:A応P;
#TITLETRANSLIT:MABOROSHI WINK;
#SUBTITLETRANSLIT:;
#ARTISTTRANSLIT:AOP;
#CREDIT:DigiMindAxel;
#BANNER:MABOROSHI WINK.png;
#BACKGROUND:MABOROSHI WINK-bg.png;
#LYRICSPATH:MABOROSHI WINK.lrc;
#CDTITLE:DigiMindAxel original simfile.png;
#MUSIC:MABOROSHI WINK.ogg;
#METERTYPE:DDR X;
#OFFSET:-0.732;
#SAMPLESTART:57.933;
#SAMPLELENGTH:12.000;
#SELECTABLE:YES;
#BPMS:0.000=141.000;
#STOPS:;
#BGCHANGES:-2.000=MABOROSHI WINK.avi=1.000=1=1=0,
99999=-nosongbg-=1.000=0=0=0 // don't automatically add -songbackground-
;

//---------------dance-single - ----------------
#NOTES:
     dance-single:
     :
     Easy:
     4:
     0.212,0.283,0.208,0.022,0.000:
0000
0000
0000
0000
,
0000
0000
0000
0000
,
0001
0010
0100
1000
,
1001
0000
1001
0000
,
1001
0000
1001
0000
,
1001
0000
1001
0000
,
0001
1000
0001
1000
,
0100
0000
0000
0000
,
1000
0100
0010
0001
,
1000
0000
0100
0000
,
1000
0000
0001
0000
,
1000
0000
0100
0000
,
1000
0000
0001
0000
,
0100
0000
0010
0000
,
0100
0000
0001
0000
,
1000
0000
0100
0000
,
1000
0000
0001
0000
,
0010
0100
0010
0000
,
0001
0100
0001
0000
,
1000
0000
0100
0000
,
0010
0000
0001
0000
,
1000
0010
1000
0000
,
0010
0100
0010
0000
,
1000
0000
0100
0000
,
0010
0100
0010
0000
,
0001
0000
0100
0000
,
0010
0000
0100
0000
,
0001
0000
1000
0000
,
0100
0000
1000
0000
,
0001
0000
1000
0000
,
0001
0000
0010
0000
,
0010
0000
0010
0000
,
2002
0000
0000
0000
,
3003
0000
0000
0000
,
1001
0000
1001
0000
,
1001
0000
0000
0000
,
0010
0100
0010
0000
,
0100
0010
0100
0000
,
1001
0000
1001
0000
,
1001
0000
0000
0000
,
0100
0010
0100
0000
,
0010
0100
0010
0000
,
1001
0000
1001
0000
,
1001
0000
0000
0000
,
0010
0100
0010
0000
,
0100
0010
0100
0000
,
1001
0000
0010
0000
,
1001
0000
0100
0000
,
1001
0000
0010
0000
,
0001
0010
0100
1000
,
0001
0100
0100
0000
,
0001
1000
0100
0010
;

//---------------dance-single - ----------------
#NOTES:
     dance-single:
     :
     Medium:
     8:
     0.468,0.482,0.557,0.481,0.000:
0000
0000
0000
0000
,
0000
0000
0000
0000
,
1000
0100
0001
0100
,
2002
3003
2002
3003
,
0220
0330
0220
0330
,
2002
3003
2002
3003
,
0001
0010
0100
1000
,
0001
0000
0101
0000
0101
0000
0000
0100
,
0010
0100
0001
1000
0001
0000
1000
0100
,
1000
0000
0002
0000
0023
0000
0031
1000
,
0000
0001
1000
0000
0010
0000
0100
0000
,
0001
0000
2000
0000
3200
0000
1300
0001
,
0000
1000
0100
0000
0010
0000
0001
0000
,
0110
0000
0020
0000
2030
0000
3001
0010
,
0000
0100
0010
0000
0001
0000
0100
0000
,
0010
0000
0200
0000
0302
0000
1003
0100
,
0000
0010
0100
0000
1000
0001
1000
0000
,
1100
0000
0100
0000
0110
0000
0010
0001
,
0100
0100
0110
1001
,
0000
1000
0100
0000
0001
0100
0000
0000
,
0000
1000
0100
0000
0001
0100
1000
0000
,
1001
0001
0011
0100
,
1000
0010
0100
0000
0010
0000
0110
0000
,
0000
0001
0100
0000
1000
0100
0000
0000
,
0000
0001
0100
0000
1000
0100
0001
0000
,
0110
1001
1000
0010
,
0200
0001
0001
0301
,
0110
1001
0001
0010
,
0200
1000
1000
1300
,
0110
0000
1001
0000
0001
1000
0100
0000
,
0020
0001
0001
0031
,
2002
3003
0220
0330
,
1001
0001
1000
0001
,
2000
0000
0000
3100
,
0022
0033
2200
3300
,
1000
0001
0010
0000
1100
0000
0000
0000
,
1000
0001
0100
0000
0001
0100
0001
0000
,
1001
0110
1001
0000
,
2020
3030
0202
0303
,
0010
1000
0001
0000
2002
0000
3003
0000
,
0001
1000
0100
0000
1000
0100
1000
0000
,
1001
0110
1001
0000
,
0022
0033
2200
3300
,
0010
0001
1000
0000
2002
0000
3003
0000
,
1000
0100
0010
0000
0001
0100
0001
0000
,
0100
0010
0100
0010
1000
0000
0001
0000
,
0101
0101
0101
0000
,
1010
1010
1010
0000
,
0110
0110
0110
0000
,
1000
0001
1000
0001
0010
0000
0100
0000
,
1010
0000
0010
0000
0110
0000
0000
0100
,
0010
0100
0001
1000
0001
0000
1000
0001
;

//---------------dance-single - ----------------
#NOTES:
     dance-single:
     :
     Hard:
     11:
     0.591,0.542,0.481,0.590,0.087: // measure 1
0000
0000
0000
0000
,  // measure 2
0000
0000
0000
0000
,  // measure 3
1000
0100
1000
0100
0010
0001
0010
0001
,  // measure 4
0220
0330
0220
0330
,  // measure 5
2002
3003
2002
3003
,  // measure 6
0220
0330
0220
0330
,  // measure 7
1000
0010
1000
0010
0100
0001
0100
0001
,  // measure 8
0010
0000
1100
0000
1100
0000
0000
1000
,  // measure 9
0100
0010
0001
0100
0002
0000
1003
0100
,  // measure 10
1100
0000
2000
0000
3020
0000
1030
0002
,  // measure 11
0000
0013
0100
0010
0100
1000
0001
0000
,  // measure 12
1000
0000
0002
0000
0203
0000
0301
1000
,  // measure 13
0000
0100
0010
0100
0010
0001
0100
0000
,  // measure 14
1001
0000
0002
0000
0203
0000
0301
1000
,  // measure 15
0000
0100
0010
0100
0010
0001
1000
0000
,  // measure 16
0100
0000
2000
0000
3020
0000
1030
0001
,  // measure 17
0000
0010
0100
0010
0100
1000
0010
0000
,  // measure 18
1001
0000
1000
0000
1100
0000
0010
0001
,  // measure 19
0100
0000
0110
0000
0100
0010
1000
0100
,  // measure 20
0000
0000
0010
0001
0010
0001
0000
0000
0010
0001
0010
0001
0000
0000
0000
0000
,  // measure 21
0000
0000
0010
0100
0010
0100
0000
0000
0010
0100
0010
0100
0010
0000
0000
0000
,  // measure 22
1001
0000
0001
0010
0100
1000
0001
0100
,  // measure 23
0001
0000
1001
0000
1000
0000
0010
0100
,  // measure 24
0000
0000
0010
1000
0010
1000
0000
0000
0010
1000
0010
1000
0000
0000
0000
0000
,  // measure 25
0000
0000
0100
0010
0100
0010
0000
0000
0100
0010
0100
0010
0100
0000
0000
0000
,  // measure 26
1001
0000
0011
0000
0100
1000
0100
1000
,  // measure 27
0001
0000
1000
0100
0001
0000
0100
0000
,  // measure 28
1010
0000
1001
0000
0001
0100
0001
0100
,  // measure 29
0010
0000
1000
0100
0001
0000
0100
0000
,  // measure 30
1001
0000
0110
0000
0010
0100
0001
0100
,  // measure 31
0010
0000
1000
0010
0001
0000
0010
0000
,  // measure 32
2002
3003
0220
0330
,  // measure 33
0001
0010
0001
0010
0100
1000
0100
1000
,  // measure 34
0020
0000
0000
0130
,  // measure 35
2002
0000
3003
0000
2002
0000
3003
0001
,  // measure 36
0100
0010
1000
0010
2002
0000
3003
1000
,  // measure 37
0100
0100
0010
0010
0001
1000
0010
0100
,  // measure 38
0101
1001
1010
0000
,  // measure 39
2002
0000
3003
0000
2002
0000
3003
1000
,  // measure 40
0100
0010
0001
0100
2002
0000
3003
0001
,  // measure 41
0010
0010
0100
0100
1000
1000
0010
0100
,  // measure 42
0101
1001
1010
0000
,  // measure 43
2002
0000
3003
0000
2002
0000
3003
1000
,  // measure 44
0001
0010
0100
0010
2002
0000
3003
1000
,  // measure 45
0100
0100
0010
0010
0001
0001
0100
0010
,  // measure 46
0100
0001
1000
0001
0100
0001
1000
0000
,  // measure 47
0001
0010
0100
1000
0202
0000
0303
0010
,  // measure 48
1000
0100
0010
0001
2200
0000
3300
0010
,  // measure 49
0001
0100
0010
1000
0220
0000
0330
0001
,  // measure 50
1000
0010
0100
0010
1000
0001
0010
0100
,  // measure 51
1001
0000
0100
0000
0100
0000
0110
1000
,  // measure 52
0100
0010
0001
0100
0002
0000
1003
2200
,  // measure 53
0000
3300
0000
0000
;

//---------------dance-single - ----------------
#NOTES:
     dance-single:
     :
     Challenge:
     14:
     0.768,0.799,0.328,0.109,0.661:
0000
0000
0000
0000
,
0000
0000
0000
0000
,
0001
1000
0001
1000
0010
1000
0010
1000
0001
0100
0001
0100
0010
1000
0100
1000
,
0100
1001
0110
1001
,
0011
0100
1100
0010
,
0101
0010
1010
0100
,
0001
1000
0001
1000
0001
0010
0001
0010
0100
1000
0100
1000
0010
0100
0010
0100
,
0001
0000
1002
0000
0103
0000
1001
0001
,
1000
0100
0010
0001
1000
0010
0010
0010
,
1001
0000
0000
1000
0001
0000
0000
0001
0010
0000
0000
0010
0100
0000
2000
0000
,
0000
3001
1000
0100
0001
0100
1000
0000
,
0010
0000
0000
0010
0100
0000
0000
0100
0001
0000
0000
0001
1000
0000
0200
0000
,
0000
0000
1300
0100
0010
0001
0010
0001
0100
0010
0100
0010
1000
0001
1000
0001
,
0100
0000
0000
0100
0010
0000
0000
0010
1000
0000
0000
1000
0001
0000
0200
0000
,
0000
0301
1000
0010
0001
0010
1000
0100
,
0010
0000
0000
0010
0100
0000
0000
0100
1000
0000
0000
1000
0010
0000
0200
0000
,
0000
0301
1000
0100
0001
0100
1000
0001
,
0100
0000
0010
0000
0100
0000
0010
0000
1000
0000
0000
1000
0000
0000
1000
0000
,
0001
0000
0010
0000
0010
0000
0000
0000
0100
0010
0100
0000
1000
0000
0010
0000
,
0000
0000
1000
0010
1000
0001
0000
0000
1000
0010
1000
0001
0000
0000
0000
0000
,
0000
0000
0100
0010
0100
0001
0000
0000
0100
0010
0100
0001
0010
0001
0010
0100
,
1000
0000
0001
0000
1000
0000
0001
0000
0100
0000
0000
0100
0000
0000
0100
0000
,
0010
0000
1000
0000
1000
0000
0000
0000
0100
0010
0100
0000
1000
0000
0001
0000
,
0000
0000
1000
0100
1000
0001
0000
0000
1000
0100
1000
0001
0000
0000
0000
0000
,
1000
0000
0001
0010
0001
1000
0000
0000
0001
0010
0001
1000
0100
1000
0100
0010
,
0001
0000
1001
0000
1000
0001
0010
0001
,
1000
0010
0100
0010
1000
0001
0010
0001
,
1000
0010
1001
0000
0001
1000
0010
1000
,
0001
0000
0010
0000
0100
0000
0010
0000
0001
1000
0001
0000
0100
0000
0010
1000
,
0010
0000
1001
0000
1000
0010
0001
0010
,
1000
0000
0100
0000
0010
0000
0100
0000
1000
0001
1000
0000
0001
0000
0100
0001
,
0200
0300
2002
3003
,
1000
0100
0010
0001
1000
0100
0010
0001
,
0100
0010
0100
0010
1000
0100
1000
0100
0010
0001
0010
0001
0100
0010
0100
0010
,
1000
0100
0011
0000
1000
0100
0011
1000
,
0001
0000
0100
0000
1000
0000
0100
0000
0001
0000
1000
0000
1001
0000
0001
0010
,
0100
0000
0010
0001
0010
0000
0100
1000
0100
0000
1000
0100
0010
0000
0001
0000
,
1000
0010
1000
0010
0100
0001
0100
0001
0010
0100
0010
0100
1000
0100
1000
0100
,
0010
0001
1100
0000
0010
0001
1100
0001
,
1000
0000
0010
0000
0001
0000
0010
0000
1000
0000
0001
0000
1001
0000
0010
0100
,
0001
0000
0100
0001
0100
0000
0001
0100
0010
0000
1000
0010
1000
0000
0001
0000
,
0010
0001
0010
0001
0100
0010
0100
0010
1000
0100
1000
0100
0010
0100
0010
0001
,
0100
0010
1010
0000
0100
0010
1010
0100
,
0001
0000
0100
0000
1000
0000
0100
0000
0001
0000
1000
0000
1001
0000
0010
0100
,
1000
0000
0001
0100
0001
0000
1000
0100
0010
0000
0001
0100
0001
0000
1000
0000
,
0100
1000
0100
1000
0010
0100
0010
0100
0001
0010
0001
0010
0100
1000
0100
1000
,
0001
0000
0010
0000
1100
0000
0010
0000
0001
1000
0000
1000
0001
0000
0010
0000
,
1100
0000
0010
0000
1001
0000
0100
0000
0010
0100
0000
0100
1000
0000
0010
0000
,
0101
0000
0010
0000
1100
0000
0010
0000
0001
0010
0000
0010
0100
0000
0010
0000
,
0001
1000
0001
1000
0010
1000
0010
1000
0100
0010
0100
0010
0001
0100
0001
0100
,
0010
0000
0010
0000
0010
0000
1001
0001
,
1000
0100
0010
0001
1000
0010
0010
0220
,
0000
0330
0000
0000
;

//---------------dance-single - ----------------
#NOTES:
     dance-single:
     :
     Beginner:
     2:
     0.111,0.170,0.109,0.000,0.000:
0000
0000
0000
0000
,
0000
0000
0000
0000
,
0000
0000
0000
0000
,
1001
0000
0001
0000
,
0001
0000
0001
0000
,
1001
0000
1000
0000
,
1000
0000
0000
0000
,
0001
0000
0000
0000
,
0010
0000
0000
0000
,
0100
0000
0000
0000
,
1000
0000
0000
0000
,
0100
0000
0000
0000
,
1000
0000
0000
0000
,
0010
0000
0000
0000
,
0100
0000
0000
0000
,
0010
0000
0000
0000
,
0100
0000
0000
0000
,
0001
0000
0000
0000
,
0000
0000
0000
0000
,
0000
1000
0000
0000
,
1000
0000
0000
0000
,
0100
0000
0000
0000
,
0010
0000
0000
0000
,
0000
0001
0000
0000
,
0001
0000
0000
0000
,
0100
0000
0010
0000
,
0100
0000
0000
0000
,
0010
0000
0100
0000
,
0010
0000
0000
0000
,
1000
0000
0001
0000
,
1000
0000
0000
0000
,
0001
0000
1000
0000
,
1001
0000
0000
0000
,
0000
0000
0000
0000
,
1001
0000
0001
0000
,
0001
0000
0000
0000
,
0100
0000
0001
0000
,
1000
0000
0000
0000
,
1001
0000
1000
0000
,
1000
0000
0000
0000
,
0100
0000
1000
0000
,
0010
0000
0000
0000
,
0110
0000
0100
0000
,
0100
0000
0000
0000
,
0010
0000
1000
0000
,
0001
0000
0000
0000
,
0110
0000
0000
0000
,
1001
0000
0000
0000
,
0110
0000
0000
0000
,
1001
0000
0000
0000
,
0000
0000
0000
0000
,
1000
0000
0001
0010
;
