#TITLE:Lo-Fi-M;
#SUBTITLE:;
#ARTIST:yaseta;
#TITLETRANSLIT:;
#SUBTITLETRANSLIT:;
#ARTISTTRANSLIT:;
#CREDIT:DigiMindAxel;
#BANNER:Lo-Fi-M.png;
#BACKGROUND:Lo-Fi-M-bg.png;
#LYRICSPATH:;
#CDTITLE:MUSECA.png;
#MUSIC:Lo-Fi-M.ogg;
#METERTYPE:DDR X;
#OFFSET:-7.121;
#SAMPLESTART:13.929;
#SAMPLELENGTH:12.000;
#SELECTABLE:YES;
#BPMS:0.000=140.000;
#STOPS:;
#BGCHANGES:;

//---------------dance-single - ----------------
#NOTES:
     dance-single:
     :
     Easy:
     4:
     0.206,0.235,0.059,0.093,0.000:
2000
0000
0001
0000
,
0001
0000
3001
0000
,
0200
0000
0010
0000
,
0010
0000
0310
0000
,
1000
0000
0100
0000
,
0010
0000
0001
1000
,
0001
0000
0100
0000
,
0010
0000
1000
0001
,
1000
0000
0100
0000
,
0010
0000
0001
1000
,
0001
0000
0100
0000
,
0010
0000
0100
0000
,
1001
0000
0001
0000
,
1000
0000
1000
0000
,
0001
0000
0001
0000
,
0010
0000
0010
0000
,
0100
0010
0100
0000
,
1000
0100
1000
0000
,
0001
1000
0001
1000
,
0100
0010
0100
0010
,
0002
0000
0000
0000
,
1000
0000
0000
0000
,
2003
0000
0000
0000
,
0001
0000
0000
0000
,
3002
0000
0000
0000
,
1000
0000
0000
0000
,
2003
0000
0000
0000
,
0001
0000
0000
0000
,
3001
0000
0100
0000
,
1001
0000
0000
0000
,
0010
0000
0000
0000
,
1001
0000
0000
0000
,
0010
0000
0000
0000
,
1001
0000
1001
0000
,
0001
0000
1001
0000
,
1000
0100
1000
0001
,
0200
0000
0000
0300
,
0001
1000
0100
0000
,
0010
0001
1000
0000
,
0010
0100
0001
0000
,
0100
0010
1000
0000
,
0001
1000
0100
0010
,
0001
1000
0100
0010
,
0001
0000
0100
0010
,
0100
0000
0001
1000
,
0100
0010
0100
0010
,
0001
0100
0001
0000
,
0010
0100
0010
0100
,
1000
0010
1000
0000
,
0010
0100
0010
0100
,
0001
0010
0001
0000
,
0100
0010
0100
0010
,
2000
0000
0000
0000
,
3001
0100
0010
0100
,
0001
0100
0010
0000
,
1000
0010
0100
0010
,
1000
0010
0100
0000
,
0001
0010
0100
0010
,
0001
0010
0100
0000
,
1000
0100
0010
0001
,
2000
0000
0010
3010
,
2002
0000
0000
0000
,
3003
0000
0000
0000
;

//---------------dance-single - ----------------
#NOTES:
     dance-single:
     :
     Medium:
     10:
     0.418,0.418,0.329,0.160,0.000: // measure 1
1001
0010
0101
0010
,  // measure 2
1100
0000
0010
0000
0001
0001
0001
0000
,  // measure 3
1001
0011
1100
0011
,  // measure 4
1100
0000
0011
0000
0100
1000
0100
0000
,  // measure 5
0010
0100
0010
0000
0010
0100
0010
0000
,  // measure 6
0010
0100
0010
0000
0110
0000
1001
0000
,  // measure 7
1000
0001
1000
0000
1000
0001
1000
0000
,  // measure 8
1000
0001
1000
0000
1001
0000
0011
0000
,  // measure 9
0010
0100
0010
0000
0010
0100
0010
0000
,  // measure 10
0010
0100
0010
0000
0110
0000
1010
0000
,  // measure 11
1000
0010
0100
0000
0010
0100
0001
0000
,  // measure 12
0010
0100
1000
0000
0100
0010
0001
0000
,  // measure 13
1001
1000
1000
1000
,  // measure 14
0001
0000
0001
0000
0001
1000
0001
0000
,  // measure 15
1000
1000
1000
1000
,  // measure 16
0001
0000
0001
0000
0001
1000
0001
0000
,  // measure 17
0100
0001
0100
0000
0010
0100
0010
0000
,  // measure 18
0100
0001
0100
0001
0010
0100
1000
0000
,  // measure 19
1001
1000
1000
1000
,  // measure 20
0001
0001
0001
0001
,  // measure 21
2002
0000
0000
0000
,  // measure 22
0000
0000
0000
0000
,  // measure 23
3003
0000
0000
0000
,  // measure 24
0000
0000
0000
0000
,  // measure 25
0002
0000
2003
0000
,  // measure 26
3200
0000
0320
0000
,  // measure 27
0032
0000
0203
0000
,  // measure 28
0310
0010
0010
0010
,  // measure 29
1001
0110
1001
0000
,  // measure 30
0100
0100
0100
0100
,  // measure 31
0010
0010
0010
0010
,  // measure 32
1001
1000
0001
0001
,  // measure 33
0110
0100
0010
0010
,  // measure 34
1001
1000
1001
0001
,  // measure 35
0101
0100
0110
0010
,  // measure 36
1010
1010
1001
1001
,  // measure 37
0011
0000
0011
0000
0100
1000
0001
0000
,  // measure 38
0100
0001
0100
0001
0100
0001
0000
0000
,  // measure 39
1000
0100
1000
0100
1000
0100
0010
0000
,  // measure 40
0001
0100
0001
0100
0001
0100
0000
0001
,  // measure 41
0001
1000
0001
1000
0100
1000
0100
0000
,  // measure 42
0010
0001
0010
0001
0020
0000
0230
0000
,  // measure 43
2300
0000
3020
0000
0130
0100
0100
0000
,  // measure 44
0001
1000
0001
1000
0001
1000
0010
1000
,  // measure 45
0010
0100
0010
0100
0010
0100
0010
0000
,  // measure 46
0000
1000
0000
0100
0000
0010
0000
0001
,  // measure 47
1000
0010
0100
0000
0010
0100
0010
0000
,  // measure 48
0000
0100
0000
0001
0000
0010
0000
0100
,  // measure 49
1000
0001
0010
0100
1000
0000
0000
0000
,  // measure 50
0010
0100
0010
0100
0002
0000
2003
0000
,  // measure 51
3200
0000
0320
0000
0031
0001
0001
0000
,  // measure 52
0100
0010
0100
0010
1000
0100
1000
0100
,  // measure 53
0020
0000
0000
0030
,  // measure 54
1001
0000
1000
0100
0010
0000
0100
0010
,  // measure 55
0001
0000
1000
0100
0010
0100
1000
0000
,  // measure 56
1001
0000
0001
0010
0100
0000
0010
0100
,  // measure 57
1000
0000
0001
0010
0100
0010
0001
0000
,  // measure 58
0000
1001
0000
1000
0000
1001
0000
0001
,  // measure 59
0000
0110
0000
0000
0100
0010
1000
0000
,  // measure 60
0010
0100
0010
0100
0001
1000
0001
0010
,  // measure 61
0100
1000
0100
1000
0010
0010
0010
0000
,  // measure 62
2002
0000
0000
0000
,  // measure 63
3003
0000
0000
0000
;

//---------------dance-single - ----------------
#NOTES:
     dance-single:
     :
     Hard:
     13:
     0.574,0.549,0.329,0.084,0.198:
0001
0000
0100
0000
0010
0100
0010
0000
0100
0000
0001
0000
1000
0100
1000
0000
,
0001
0000
0010
0000
0100
0010
0100
0010
0100
0000
0100
0000
1001
0000
0000
0000
,
0001
0000
0100
0000
0001
0000
1000
0100
0000
0000
0010
0001
0000
0000
1000
0100
,
0000
0000
0010
0001
0000
0000
1000
0010
0100
0000
0100
0000
1001
0000
0000
0000
,
1000
0000
0001
0000
0010
0001
0010
0000
0001
0000
0100
0000
0010
0100
0010
0000
,
0100
0000
0001
0000
1000
0100
1000
0100
1000
0000
0001
0000
1001
0000
0000
0000
,
0010
0000
0001
0000
1000
0010
1000
0000
0001
0000
0010
0000
0100
0010
0100
0000
,
1000
0000
0010
0000
1000
0001
1000
0001
1000
0000
0010
0000
0101
0000
0000
0000
,
0001
0000
1000
0000
0100
0010
0100
0000
1000
0000
0001
0000
0100
0001
0100
0000
,
0001
0000
1000
0000
0100
1000
0100
1000
0100
0000
0010
0000
1001
0000
0000
0000
,
0100
0100
0001
0001
1000
1000
0100
0100
,
1000
0010
0001
0010
1000
1000
1001
0000
,
0001
1000
0000
0010
0000
0001
0000
0010
,
0000
1000
0000
0100
0010
0001
0100
0000
,
0010
1000
0000
0100
0000
0001
0000
0100
,
0000
1000
0000
0001
0100
0010
1000
0000
,
0000
0101
0000
1001
0000
1100
0000
1001
,
0001
0010
0100
1000
0010
0010
0101
0000
,
1001
0000
1000
0000
1000
0000
0100
1000
0001
0000
0001
0000
0001
0000
0010
0100
,
1000
0000
1000
0000
1000
0000
0010
0100
0001
0000
0001
0000
0001
0000
0000
0000
,
1002
0000
0000
0000
,
2003
0000
0000
0000
0000
0000
0100
3100
,
0010
0001
0010
0001
,
0100
0010
1000
0010
,
0100
1001
0100
1001
,
0010
1001
0010
1001
,
0001
0110
1000
0110
,
0011
0011
1100
1100
,
1000
0001
1000
0001
1000
0001
0200
0000
,
0310
0100
0010
0000
0010
1000
0010
0000
,
0010
0100
0010
0000
0010
0100
0001
0000
,
1000
0100
1000
0000
1000
0001
1000
0000
,
1000
0100
1000
0000
1000
0001
0100
0100
,
0001
1000
0001
0000
0001
0100
0001
0000
,
0001
1000
0001
0000
0001
0100
0020
0000
,
1030
1000
0100
0100
0010
0010
0001
0001
,
1000
0010
0001
0010
1000
0001
1001
0000
,
0001
0100
1000
0100
0001
0010
0100
0000
,
1000
0000
0000
0010
0000
0100
0001
0000
0000
0001
0000
0000
1000
0000
0010
0100
0000
0010
0100
0000
0000
0000
0000
0000
,
0001
0010
1000
0010
0001
0100
0010
0100
,
0001
0000
0000
1000
0000
0100
1000
0000
0000
0001
0000
0000
1000
0000
0100
0010
0000
0100
0010
0000
0000
0000
0000
0000
,
0001
0000
1000
0001
0000
0000
0100
0000
0000
0010
0000
0000
1000
0000
0000
1000
0000
0000
0100
0000
0000
0100
0000
0000
,
0010
0010
0001
0001
0100
0100
1001
0000
,
0001
0010
1000
0010
0001
0100
1000
0100
,
0001
0000
1000
0001
0000
0000
1000
0000
0100
1000
0000
0000
0001
0000
0010
0001
0000
0000
1000
0000
0000
0000
0000
0000
,
0002
0100
0000
0100
0000
0100
0000
0103
,
0010
0000
0000
1000
0000
0001
1000
0000
0000
0100
0000
0000
1000
0000
0000
0010
0000
0000
0101
0000
0000
0000
0000
0000
,
0002
0100
0000
0100
0000
0100
0000
0103
,
0010
0010
1000
1000
0100
0010
1001
0000
,
0001
0100
1000
0100
0001
0001
0010
0010
,
0100
0100
1000
1000
0010
0010
1001
0000
,
1000
0001
0100
1000
0100
0001
1000
0100
,
0022
0000
0000
0033
,
1001
0000
1000
0000
0010
0100
0010
0000
1000
0000
1000
0000
0001
0010
0001
0000
,
1000
0000
1000
0000
0100
0010
0100
0010
0100
0000
1000
0000
0010
0000
0000
0000
,
0101
0000
0001
0000
0010
0100
0010
0000
0001
0000
0001
0000
1000
0010
1000
0000
,
0001
0000
0001
0000
0100
0010
0100
0010
0100
0000
0001
0000
1000
0000
0000
0000
,
0000
1100
0000
1001
0000
0011
0000
1001
,
0000
1010
0000
0101
0001
0010
0100
0000
,
1000
0000
0000
0100
0000
0000
0001
0000
0000
0100
0000
0000
1000
0000
0001
1000
0000
0000
0100
0000
0010
0100
0000
0000
,
1000
0000
0001
1000
0000
0000
0010
0000
0100
0010
0000
0000
1000
0000
0000
0001
0000
0000
0110
0000
0000
0000
0000
0000
,
2002
0000
0000
0000
,
3003
0000
0000
0000
;

//---------------dance-single - ----------------
#NOTES:
     dance-single:
     :
     Challenge:
     15:
     0.791,0.731,0.303,0.135,0.653:
1000
0000
1000
0000
0001
0100
0010
0100
0001
0000
0001
0000
0010
0100
1000
0100
,
0010
0000
0010
0000
0001
1000
0010
1000
0001
0010
0001
0010
0001
0000
0000
0000
,
1100
0000
1000
0000
0010
0000
0100
0001
0010
0000
0100
1000
0010
0000
1000
0100
,
0010
0000
0100
0010
0001
1000
0010
0100
0001
0000
0001
0000
1001
0000
0000
0000
,
0101
0000
0100
0000
0001
0010
0100
0010
0001
0000
0001
0000
0100
0010
1000
0010
,
0100
0000
0000
0000
0000
0000
0100
0000
0000
0000
0000
0000
0001
0000
0000
1000
0000
0000
0100
0000
0000
0010
0000
0000
0100
0000
0000
0000
1000
0000
0010
0000
0000
0000
1000
0000
0010
0000
0000
0000
0000
0000
0100
0000
0000
0000
0000
0000
,
0001
0000
0001
0000
1000
0100
0010
0100
1000
0000
1000
0000
0001
0100
0010
0100
,
0001
0000
0001
0000
0010
0100
1000
0100
0010
0000
0011
0000
1001
0000
0000
0000
,
1000
0000
1000
0000
0100
1000
0010
0100
0001
0000
0001
0000
0010
0001
0100
0010
,
1000
0000
0000
0000
0000
0000
1000
0000
0000
0000
0000
0000
0100
0000
0000
0010
0000
0000
0001
0000
0000
1000
0000
0000
0010
0000
0000
0000
0100
0000
0010
0000
0000
0000
0100
0000
0010
0000
0000
0000
0000
0000
0100
0000
0000
0000
0000
0000
,
0001
0000
0010
0001
0000
0000
0010
0000
0100
0010
0000
0000
0100
0000
1000
0100
0000
1000
0001
0000
1000
0001
0000
0000
,
0100
0000
0010
1000
0000
0000
0100
0000
1000
0010
0000
0000
0100
0000
0000
0101
0000
0000
1001
0000
0000
0000
0000
0000
,
0001
0000
1000
0000
0000
0000
0100
1000
0010
0000
0010
0000
0000
0000
0100
0001
,
0010
0000
0000
0000
0000
0000
0010
0000
0000
0000
0000
0000
0000
0000
0000
0000
0000
0000
0100
0000
0000
1000
0000
0000
0001
0000
0000
0000
0100
0000
0001
0000
0000
0000
0100
0000
0001
0000
0000
0000
0000
0000
1000
0000
0000
0000
0000
0000
,
0100
0000
0010
0000
0000
0000
0001
1000
0010
0000
0010
0000
0000
0000
0100
0001
,
1000
0000
1000
0000
0000
0000
0100
0010
0001
0000
0001
0000
0100
0000
0100
0000
,
0001
0000
1000
0000
0100
0000
1000
0001
0100
0000
0100
0000
0001
0000
0010
0100
,
1000
0000
0000
0000
0000
0000
1000
0000
0000
0000
0000
0000
0001
0000
0000
0000
0000
0000
0100
0000
0000
0010
0000
0000
1000
0000
0000
0000
0001
0000
0010
0000
0000
0000
0001
0000
0010
0000
0000
0000
0000
0000
0000
0000
0000
0000
0000
0000
,
1001
0000
1000
0000
0001
0000
0001
0100
0010
0000
0010
0000
0010
0000
1000
0001
,
0100
0000
0100
0000
0100
0000
0001
1000
0010
0000
0110
0000
1010
0000
0000
0000
,
1001
0000
0100
0000
0010
0001
0010
0001
,
1000
0000
0010
0000
0100
0001
0100
0010
,
1000
0010
0001
0010
,
1000
0100
1000
0100
0010
0001
1000
0000
,
0001
0100
0010
0100
0001
1000
0100
1000
,
0001
0100
0010
0100
0001
0001
1001
0000
,
1000
0100
0010
0100
1000
0001
0100
0001
,
0001
0100
0100
0010
1000
0100
0011
0001
,
1001
1000
0101
1000
0101
1000
2001
0000
,
3001
0010
0001
0000
1000
0000
0100
0000
0001
0000
0100
0000
1000
0000
1000
0000
,
0001
0010
0001
0000
1000
0000
0100
0000
0001
0000
0100
0000
1000
0000
1000
0000
,
0001
0100
0001
0000
1000
0000
0010
0000
0001
0000
0010
0000
1000
0000
1000
0000
,
0001
0100
0001
0000
1000
0000
0010
0000
0001
0000
0010
0000
1000
0001
1000
0001
,
1000
0100
0010
0000
0001
0000
0001
0000
1000
0100
0010
0000
0001
0000
0001
0000
,
1000
0010
0100
0000
0001
0000
0001
0000
1000
0010
0100
0000
0002
0000
0000
0000
,
0013
0100
0010
0100
1000
0100
1000
0100
0010
0100
0010
0001
0100
0001
0100
0010
,
1000
0010
1000
0100
0010
0100
0010
0001
0010
0100
1000
0100
0010
0000
0000
0000
,
0001
0000
1000
0010
0000
1000
0010
0000
0000
1000
0000
0100
0010
0000
0100
0010
0000
0000
0001
0000
0000
0000
0000
0000
,
0010
0000
0000
0001
0000
1000
0010
0000
1000
0010
0000
0000
0100
0000
0001
0010
0000
0001
0010
0000
0000
0100
0000
0000
,
1000
0000
0001
0100
0000
0001
0100
0000
0000
0010
0000
1000
0100
0000
1000
0100
0000
0000
0010
0000
0000
0001
0000
1000
,
0010
0000
0000
1000
0000
0001
0010
0000
0000
0001
0000
0000
1000
0000
0100
0010
0000
0100
0010
0000
0000
0001
0000
0000
,
1000
0000
0010
0100
0000
0001
0010
0000
0001
0010
0000
0000
0200
0000
0000
1000
0000
0000
0320
0000
0000
0001
0000
0000
,
0230
0000
1000
0000
0320
0000
0001
0000
0130
1000
0001
1000
0001
0000
0100
0000
,
0010
0000
1000
0100
0000
1000
0100
0000
0000
0010
0000
0000
0001
0000
1000
0010
0000
1000
0010
0000
0000
0100
0000
0000
,
0001
0000
0010
0001
0000
0000
0010
0000
0100
0010
0000
0000
0100
0000
1000
0100
0000
1000
0001
0000
0000
0000
0000
0000
,
1000
0001
0010
0001
1000
0001
0010
0001
,
1000
0000
0000
0010
0000
0100
0010
0000
0100
0010
0000
0000
1000
0000
0001
0010
0000
0001
0010
0000
0000
0100
0000
0000
,
1000
0010
0100
0010
1000
0010
0100
0010
,
2000
0010
3002
0010
2003
0010
3010
0000
,
1000
0000
0010
0100
0000
0001
0010
0000
0001
0010
0000
0000
0200
0000
0000
1000
0000
0000
0320
0000
0000
0001
0000
0000
,
0230
0000
1000
0000
0320
0000
0001
0000
0130
1000
0001
1000
0001
0000
0010
0000
,
0100
0000
1000
0010
0000
0000
0100
0000
0001
0010
0000
0000
0100
0000
1000
0001
0000
1000
0001
0000
0100
0010
0000
0100
,
0020
0000
0000
0030
,
1001
0000
0011
0000
0100
1000
0001
1000
0100
0000
1100
0000
0010
0001
1000
0001
,
0010
0000
0011
0000
0100
1000
0001
1000
0100
0000
1100
0000
1001
0000
0000
0000
,
1001
0000
0101
0000
0010
1000
0100
1000
0010
0000
1010
0000
0100
0001
0010
0001
,
0100
0000
0101
0000
0001
1000
0100
1000
0001
0000
1001
0000
1100
0000
0000
0000
,
1001
0000
0011
0000
0100
1000
0001
1000
0100
0000
1100
0000
0010
0001
0100
0010
,
1000
0000
0000
0000
0000
0000
1010
0000
0000
0000
0000
0000
0100
0000
0000
0001
0000
0000
0010
0000
0000
0100
0000
0000
1000
0000
0000
0000
0001
0000
0100
0000
0000
0000
0001
0000
1000
0000
0000
0000
0000
0000
0000
0000
0000
0000
0000
0000
,
0100
0000
1000
0010
0000
0000
0100
0000
0001
0010
0000
0000
0100
0000
1000
0100
0000
1000
0100
0000
1000
0001
0000
0100
,
0001
0000
0010
0100
0000
0000
1000
0000
0001
0100
0000
0000
0010
0000
0000
1010
0000
0000
1001
0000
0000
0000
0000
0000
,
0220
0000
0000
0000
,
0330
0000
0000
0000
;

//---------------dance-single - ----------------
#NOTES:
     dance-single:
     :
     Beginner:
     2:
     0.091,0.129,0.051,0.000,0.000:
1000
0000
0000
0000
,
1000
0000
0000
0000
,
0001
0000
0000
0000
,
0001
0000
0000
0000
,
0010
0000
0000
0000
,
0100
0000
0000
0000
,
0010
0000
0000
0000
,
0100
0000
0000
0000
,
1000
0000
0000
0000
,
0010
0000
0000
0000
,
0100
0000
0000
0000
,
0100
0000
0000
0000
,
0001
0000
0000
0000
,
0000
0000
0000
0000
,
1000
0000
0000
0000
,
0000
0000
0000
0000
,
0001
0000
0000
0000
,
0010
0000
0000
0000
,
0100
0000
0000
0000
,
0000
0000
0000
0000
,
1001
0000
0000
0000
,
0000
0000
0000
0000
,
1000
0000
0000
0000
,
0000
0000
0000
0000
,
0001
0000
0000
0000
,
0100
0000
0000
0000
,
0010
0000
0000
0000
,
0100
0000
0000
0000
,
0001
0000
0000
0000
,
1001
0000
0000
0000
,
1000
0000
0000
0000
,
0001
0000
0000
0000
,
0001
0000
0000
0000
,
1000
0000
0100
0000
,
1000
0000
0100
0000
,
0010
0000
0010
0000
,
0010
0000
0000
0000
,
1001
0000
0001
0000
,
0010
0000
0000
0000
,
0001
0000
1000
0000
,
0100
0000
0000
0000
,
0010
0000
0000
0000
,
0000
0000
0001
0000
,
1000
0000
1000
0000
,
0001
0000
0001
0000
,
0010
0000
0000
0000
,
0100
0000
1000
0000
,
0100
0000
0000
0000
,
0010
0000
0100
0000
,
0010
0000
0001
0000
,
0100
0000
0010
0000
,
0100
0000
0000
0000
,
0100
0000
0000
0000
,
1001
0000
0000
0000
,
1000
0000
0000
0000
,
1001
0000
0000
0000
,
0001
0000
0000
0000
,
0010
0000
0100
0000
,
1000
0000
0000
0000
,
0001
0000
0100
0000
,
0001
0000
0000
0000
,
1001
0000
0000
0000
;
