#TITLE:Little Rock Overture;
#SUBTITLE:;
#ARTIST:惑星計画;
#TITLETRANSLIT:;
#SUBTITLETRANSLIT:;
#ARTISTTRANSLIT:WAKUSEI KEIKAKU;
#CREDIT:DigiMindAxel;
#BANNER:Little Rock Overture.png;
#BACKGROUND:Little Rock Overture-bg.png;
#LYRICSPATH:Little Rock Overture.lrc;
#CDTITLE:pop'n music.png;
#MUSIC:Little Rock Overture.ogg;
#METERTYPE:DDR X;
#OFFSET:-3.833;
#SAMPLESTART:69.058;
#SAMPLELENGTH:12.000;
#SELECTABLE:YES;
#BPMS:0.000=175.000;
#STOPS:;
#BGCHANGES:;

//---------------dance-single - ----------------
#NOTES:
     dance-single:
     :
     Easy:
     5:
     0.246,0.342,0.208,0.136,0.000:
0000
1001
1000
0001
,
1000
0000
0001
0010
,
0001
0000
0000
0000
,
0100
0010
0100
0000
,
0001
1000
0001
1000
,
0100
1000
0100
0000
,
2000
0000
0000
0000
,
0000
0000
0000
0000
,
3002
0000
0000
0000
,
0000
0000
0003
0000
,
1000
0000
0100
0000
,
0010
0000
0001
0000
,
1000
0001
1000
0001
,
1000
0100
1000
0000
,
1001
0000
0000
0000
,
1001
0000
0000
0000
,
0110
0000
0000
0000
,
1001
0000
0000
0000
,
0001
0000
0100
0000
,
0010
0000
1000
0000
,
0001
1000
0001
1000
,
0001
0010
0001
0000
,
1001
0000
1000
0000
,
0100
0000
0010
0000
,
0001
0000
0100
0000
,
0010
0100
0010
0000
,
1000
0000
0001
0000
,
0010
0000
0001
1000
,
0001
0000
0100
0000
,
0010
0100
0010
0000
,
2000
0000
3001
0000
,
2000
0000
3100
0000
,
2000
0000
3001
0000
,
1000
0100
1000
0000
,
0020
0000
0130
0000
,
0020
0000
1030
0000
,
0020
0000
0130
0000
,
0010
0100
0010
0000
,
1001
0000
1001
0000
,
0110
0000
0110
0000
,
1001
0000
1001
0000
,
1000
0001
1000
0000
,
1001
0000
1001
0000
,
0110
0000
0110
0000
,
2002
0000
0000
0000
,
0000
0000
0000
0000
,
3003
0000
0000
0000
,
1000
0001
0010
0000
,
1001
0000
0000
1001
,
0000
0000
1001
0000
,
0001
0100
0001
0000
,
1000
0000
0100
0000
,
0010
0100
0010
0000
,
0001
1000
0001
0000
,
0010
0000
0100
0000
,
0010
0001
0010
0000
,
1001
0000
0000
1001
,
0000
0000
1001
0000
,
1000
0010
1000
0000
,
0010
0000
0100
0000
,
0001
1000
0001
0000
,
1000
0100
1000
0000
,
0002
0000
1000
0000
,
1000
0000
0000
0000
,
2003
0000
0000
0000
,
3200
0000
0000
0000
,
0300
0000
0000
0000
,
0000
0000
0000
0000
,
0000
0000
0000
0000
,
0000
0000
0000
0000
,
2000
0000
0000
0000
,
3020
0000
0000
0000
,
0230
0000
0000
0000
,
0320
0000
0000
0000
,
1030
0000
0001
0000
,
1000
0100
1000
0000
,
0001
0000
1000
0000
,
0001
0010
0001
0000
,
0100
0010
0100
0000
,
0010
0100
0010
0000
,
1000
0001
1000
0001
,
1000
0100
1000
0000
,
1001
0000
0001
0000
,
0010
0100
1000
0000
,
1001
0000
0000
0000
,
0000
0010
0110
0000
;

//---------------dance-single - ----------------
#NOTES:
     dance-single:
     :
     Medium:
     10:
     0.441,0.615,0.408,0.080,0.000: // measure 1
0000
0000
1001
0000
1000
0010
1000
0002
,  // measure 2
0000
0000
0000
0023
0000
0000
0000
0030
,  // measure 3
1001
0000
0000
1100
0000
0000
0000
0011
,  // measure 4
0000
0100
0000
1010
0000
0010
0010
0000
,  // measure 5
1000
0100
0010
0000
0100
0010
0001
0000
,  // measure 6
1000
0001
1000
0001
0200
0000
0000
0000
,  // measure 7
0301
0000
0010
0000
,  // measure 8
0100
0000
0100
0000
,  // measure 9
0010
0000
0001
0000
,  // measure 10
1000
0000
1000
0001
,  // measure 11
1001
0010
0100
1000
,  // measure 12
1001
0010
0100
1000
,  // measure 13
1100
1100
0011
0011
,  // measure 14
1001
1001
0110
0000
,  // measure 15
0010
0010
0010
0000
0000
0000
0000
1001
,  // measure 16
0000
1000
1000
1000
,  // measure 17
0100
1000
0100
0000
0010
0000
0001
0000
,  // measure 18
1000
0001
1000
0000
0001
0000
0000
0000
,  // measure 19
0100
0010
0100
0000
0001
0000
0010
0000
,  // measure 20
0100
1000
0100
0000
0010
0000
0001
0000
,  // measure 21
0100
0010
1000
0000
0010
0100
0001
0000
,  // measure 22
1000
0100
0010
0000
,  // measure 23
1001
0000
1001
0000
1000
0100
1000
0100
,  // measure 24
0000
0010
0100
1000
,  // measure 25
0001
0100
0001
0100
0010
0000
1000
0100
,  // measure 26
0000
1000
0100
0000
0010
0100
0000
1001
,  // measure 27
0000
0000
0001
0000
0100
0000
0010
0100
,  // measure 28
0010
0000
0100
0000
0001
1000
0001
1000
,  // measure 29
0000
0000
0100
0000
0010
0000
0001
0100
,  // measure 30
0000
0001
1000
0100
1000
0100
0000
0000
,  // measure 31
1001
0100
0010
0001
,  // measure 32
1001
0100
0010
0001
,  // measure 33
1001
0100
0010
0001
,  // measure 34
1000
1000
0010
0010
,  // measure 35
1001
0010
0100
1000
,  // measure 36
0001
0001
0100
0100
,  // measure 37
0010
0100
0010
0000
1000
0001
1000
0100
,  // measure 38
0000
1000
0001
0000
0010
0000
0100
0000
,  // measure 39
1010
1010
1010
1010
,  // measure 40
0101
0101
0101
0101
,  // measure 41
1001
1001
1001
1001
,  // measure 42
0110
0010
0110
0010
,  // measure 43
1001
1001
1001
1001
,  // measure 44
0110
0100
0110
0100
,  // measure 45
1002
0000
0000
0000
,  // measure 46
0000
0000
0000
2003
,  // measure 47
0000
0000
0000
0000
,  // measure 48
3002
0000
0000
0000
0000
0000
0000
0003
,  // measure 49
1000
0000
0100
1000
0000
0010
0100
0010
,  // measure 50
0000
1000
0100
0000
0010
0000
0001
0000
,  // measure 51
1001
0000
1000
0000
0100
1000
0000
0020
,  // measure 52
0000
0000
0000
0130
0000
0000
0000
0000
,  // measure 53
0001
0000
1000
0100
0000
1000
0100
0000
,  // measure 54
0010
0000
0001
0100
0000
0000
0000
0000
,  // measure 55
0001
0010
0100
1000
,  // measure 56
0010
0100
0010
0100
0000
0000
0000
0000
,  // measure 57
0001
0000
1000
0001
0000
1000
0100
1000
,  // measure 58
0000
0001
1000
0000
0100
0000
0010
0000
,  // measure 59
1001
0000
1000
0000
0010
0000
1000
0002
,  // measure 60
0000
0000
0000
0003
0000
0010
0001
0010
,  // measure 61
0000
0001
1000
0001
0000
0010
0000
0100
,  // measure 62
0000
1000
0001
1000
0000
0010
0000
2002
,  // measure 63
0000
0000
0000
0000
,  // measure 64
3003
1000
0100
0010
,  // measure 65
1001
0000
0000
1000
0010
0000
0000
0010
,  // measure 66
0100
0000
0000
0100
0001
0000
0000
0000
,  // measure 67
0000
0000
0000
0000
,  // measure 68
0000
0000
0000
0000
,  // measure 69
0000
0000
0000
0000
,  // measure 70
0000
0000
0000
0000
,  // measure 71
1000
0000
0000
0100
1000
0000
0000
0100
,  // measure 72
1000
0000
0000
0100
1000
0000
0000
0010
,  // measure 73
0100
0000
0000
0010
0100
0000
0000
0010
,  // measure 74
0100
0000
0000
0010
0100
0000
0000
0000
,  // measure 75
1001
0010
0100
1000
,  // measure 76
0010
0100
0010
0000
1000
0010
1000
0000
,  // measure 77
0001
0010
0100
0010
,  // measure 78
0001
1000
0001
0000
0100
0001
0100
0000
,  // measure 79
0001
0000
1000
0100
1000
0000
0001
1000
,  // measure 80
0001
0000
1000
0100
1000
0000
0001
1000
,  // measure 81
0001
0000
0100
0001
0100
0000
0001
1000
,  // measure 82
0001
0000
0100
0001
0100
0000
0000
0000
,  // measure 83
1001
0010
0100
1000
,  // measure 84
1010
0000
0010
0000
0100
0000
0001
1000
,  // measure 85
0100
0000
0000
0000
,  // measure 86
0000
0000
1000
1000
1001
0000
0000
0000
;

//---------------dance-single - ----------------
#NOTES:
     dance-single:
     :
     Hard:
     13:
     0.644,0.683,0.488,0.216,0.056: // measure 1
0000
0000
0000
0000
1001
0000
0000
0000
0001
0000
0100
0000
0010
0100
0020
0000
,  // measure 2
0000
0000
0000
0000
1030
0000
0100
1000
0100
0000
0010
0000
0001
0000
1000
0000
,  // measure 3
0010
0010
0100
0001
0000
0001
0000
0101
,  // measure 4
0000
0101
0000
1100
0000
1000
1100
0000
,  // measure 5
0010
0001
1000
0001
0010
1000
0010
0001
,  // measure 6
0100
0010
0100
0001
2000
0000
0000
0000
,  // measure 7
3200
0000
0000
1000
2300
0000
0000
0001
,  // measure 8
3002
0000
0000
0010
0013
0000
0000
0100
,  // measure 9
2000
0000
0000
0010
3010
0000
0000
0100
,  // measure 10
0002
0000
0000
1000
1003
0000
1001
0000
,  // measure 11
0001
0100
0001
0100
0010
1000
0010
1000
,  // measure 12
0100
0010
0100
0010
0001
1000
0001
1000
,  // measure 13
0100
1000
0100
1000
0010
0100
0010
0100
,  // measure 14
0001
0000
0010
0000
0001
0000
0010
0000
0100
0000
1000
0010
1000
0000
0001
0100
,  // measure 15
0001
1000
1001
0000
0100
0010
0001
0101
,  // measure 16
0000
0000
0100
0010
0100
0000
0100
0000
,  // measure 17
0001
1000
0100
1000
0001
0100
1000
0100
,  // measure 18
0001
1000
0001
1000
0010
0100
0010
0100
,  // measure 19
0001
1000
0001
1000
0100
0010
0100
0010
,  // measure 20
0001
0100
1000
0100
0001
0010
0001
0010
,  // measure 21
0100
1000
0100
1000
0010
0100
0010
0100
,  // measure 22
0001
0010
1000
0010
0001
0000
0000
0000
,  // measure 23
1001
0000
1100
0000
0010
0001
1000
0020
,  // measure 24
0000
1030
0100
1000
0000
0010
0100
0001
,  // measure 25
0010
0100
1000
0002
0000
0103
0010
0200
,  // measure 26
0000
0301
1000
0000
0100
1000
0000
1002
,  // measure 27
0000
0000
0013
0001
0010
0001
1000
0020
,  // measure 28
0000
0130
0001
0100
0001
0010
0100
1000
,  // measure 29
0010
0100
0010
0000
0010
1000
0010
0100
,  // measure 30
0000
0001
0010
0100
1000
0001
0000
0000
,  // measure 31
0101
0000
0100
0001
1000
0000
0100
0000
,  // measure 32
0011
0000
0010
0001
1000
0000
0010
0000
,  // measure 33
0101
0000
0100
0001
1000
0000
0100
0000
,  // measure 34
0011
0011
1100
1100
,  // measure 35
1001
0000
0001
0010
0100
0000
1000
0010
,  // measure 36
0001
0000
0010
0000
1000
0100
0010
0000
,  // measure 37
0001
1000
0010
1000
0001
0010
0100
2000
,  // measure 38
0000
0010
3010
0000
0100
0001
1000
0000
,  // measure 39
1100
1001
1100
1001
,  // measure 40
0011
1001
0011
1001
,  // measure 41
1010
0110
1010
0110
,  // measure 42
0101
0110
0101
0110
,  // measure 43
1001
0110
1001
0110
,  // measure 44
1001
0000
0000
0000
0001
1000
0001
1000
0001
0000
0000
0000
1000
0010
1000
0010
,  // measure 45
1000
0100
1000
0010
,  // measure 46
0001
0000
0010
0000
1000
0001
0100
0001
,  // measure 47
0000
1000
0001
0000
0010
0000
0100
1000
,  // measure 48
0010
0100
0010
1000
0001
0010
0100
1000
,  // measure 49
0001
0001
1000
0100
0000
0010
0010
0100
,  // measure 50
0000
1000
1000
0010
0100
0001
1000
0000
,  // measure 51
1001
0000
1100
0000
0010
0001
1000
0020
,  // measure 52
0000
0000
0000
1030
0001
0010
0001
0000
,  // measure 53
0010
0100
1000
0010
0000
0010
1000
0100
,  // measure 54
0010
0001
1000
0020
0000
0000
0130
0000
,  // measure 55
1001
0000
1000
0100
0010
0001
0100
0000
,  // measure 56
0001
0001
1000
0010
0000
1000
0001
0010
,  // measure 57
0100
0100
0010
0001
0000
0100
0100
0010
,  // measure 58
0000
1000
1000
0100
0010
0001
1000
0000
,  // measure 59
1100
0000
1001
0000
0001
0100
0010
2000
,  // measure 60
0000
0000
0000
3001
1000
0010
0100
0001
,  // measure 61
0000
0001
0100
0010
0000
1010
0000
1001
,  // measure 62
0000
1000
0100
0010
0000
0011
0000
0220
,  // measure 63
0000
0000
0000
0000
,  // measure 64
0330
1000
0100
0010
,  // measure 65
0201
0000
0000
0010
0320
0000
0000
1000
,  // measure 66
2030
0000
0000
0000
0000
0000
0001
0000
3001
0000
1000
0001
1000
0000
0000
0000
,  // measure 67
0000
0000
0000
0000
,  // measure 68
0000
0000
0000
0000
,  // measure 69
0000
0000
0000
0000
,  // measure 70
0000
0000
0000
0000
,  // measure 71
0200
0000
0000
0010
0320
0000
0000
0001
,  // measure 72
0032
0000
0000
1000
2003
0000
0000
0010
,  // measure 73
3020
0000
0000
0100
0230
0000
0000
0001
,  // measure 74
0301
0000
1000
0000
0100
0000
0010
0000
0001
1000
0001
1000
0001
0000
0000
0000
,  // measure 75
0101
0110
1010
1001
,  // measure 76
1000
0010
0001
0010
1000
0100
0010
0000
,  // measure 77
1001
1100
0011
0110
,  // measure 78
0100
1000
0010
0001
0010
1000
0100
0000
,  // measure 79
0010
0001
0010
0001
0100
1000
0100
1000
,  // measure 80
0100
0001
0100
0001
0010
0100
0010
0100
,  // measure 81
1000
0010
1000
0010
0001
0010
0001
0010
,  // measure 82
1000
0000
0100
0000
0010
0000
0001
0000
1000
0010
1000
0000
0000
0000
0000
0000
,  // measure 83
1100
0000
1001
0000
0001
0010
0001
1000
,  // measure 84
0010
0000
1000
0000
0001
0000
0010
0000
0100
0000
1000
0010
1000
0000
0010
0000
,  // measure 85
0100
0000
0000
0000
,  // measure 86
0000
0000
0000
0000
1001
0000
0001
1000
0001
0000
0000
0000
0000
0000
0000
0000
;

//---------------dance-single - ----------------
#NOTES:
     dance-single:
     :
     Beginner:
     2:
     0.088,0.170,0.048,0.000,0.000:
0000
0000
0000
0000
,
0000
0000
0000
0000
,
1000
0000
0000
0000
,
0000
0000
0000
0000
,
0010
0000
0000
0000
,
0010
0000
0000
0000
,
0100
0000
0000
0000
,
0000
0000
0000
0000
,
0000
0000
0000
0000
,
0000
0000
0000
0000
,
0001
0000
0000
0000
,
1000
0000
0000
0000
,
0001
0000
0000
0000
,
1000
0000
0000
0000
,
1001
0000
0000
0000
,
0001
0000
0000
0000
,
0100
0000
0000
0000
,
0001
0000
0000
0000
,
0100
0000
0000
0000
,
0010
0000
0000
0000
,
0010
0000
0000
0000
,
0010
0000
0000
0000
,
1000
0000
0000
0000
,
0100
0000
0000
0000
,
0010
0000
0000
0000
,
0001
0000
0000
0000
,
1000
0000
0000
0000
,
0010
0000
0000
0000
,
0100
0000
0000
0000
,
0010
0000
0000
0000
,
1000
0000
0000
0000
,
0000
0000
0000
0000
,
0001
0000
0000
0000
,
0000
0000
0000
0000
,
1000
0000
0000
0000
,
0000
0000
0000
0000
,
0001
0000
0000
0000
,
0000
0000
0000
0000
,
1001
0000
0000
0000
,
1000
0000
0000
0000
,
1001
0000
0000
0000
,
0001
0000
0000
0000
,
1001
0000
0000
0000
,
1000
0000
0000
0000
,
1001
0000
0000
0000
,
0000
0000
0000
0000
,
0000
0000
0000
0000
,
0000
0000
0000
0000
,
0001
0000
0000
0000
,
0000
0000
0000
0000
,
0100
0000
0000
0000
,
0010
0000
0000
0000
,
0100
0000
0000
0000
,
0100
0000
0000
0000
,
0010
0000
0000
0000
,
0010
0000
0000
0000
,
1000
0000
0000
0000
,
0000
0000
0000
0000
,
0100
0000
0000
0000
,
0100
0000
0000
0000
,
1000
0000
0000
0000
,
1000
0000
0000
0000
,
0010
0000
0000
0000
,
0100
0000
0000
0000
,
0010
0000
0000
0000
,
0010
0000
0000
0000
,
0000
0000
0000
0000
,
0000
0000
0000
0000
,
0000
0000
0000
0000
,
0000
0000
0000
0000
,
1000
0000
0000
0000
,
0100
0000
0000
0000
,
0010
0000
0000
0000
,
0001
0000
0000
0000
,
1000
0000
1000
0000
,
1000
0000
0000
0000
,
0001
0000
0001
0000
,
0001
0000
0000
0000
,
1000
0000
1000
0000
,
1000
0000
0000
0000
,
0001
0000
0001
0000
,
0001
0000
0000
0000
,
0010
0000
0000
0000
,
0100
0000
0000
0000
,
0010
0000
0000
0000
,
0000
1001
0000
0000
;
