#TITLE:LOTUS;
#SUBTITLE:;
#ARTIST:dj TAKA feat. Nana Takahashi;
#TITLETRANSLIT:;
#SUBTITLETRANSLIT:;
#ARTISTTRANSLIT:;
#CREDIT:DigiMindAxel;
#BANNER:LOTUS.png;
#BACKGROUND:LOTUS-bg.png;
#LYRICSPATH:LOTUS.lrc;
#CDTITLE:REFLEC BEAT.png;
#MUSIC:LOTUS.ogg;
#METERTYPE:DDR X;
#OFFSET:-6.536;
#SAMPLESTART:61.992;
#SAMPLELENGTH:12.000;
#SELECTABLE:YES;
#BPMS:0.000=160.000;
#STOPS:;
#BGCHANGES:;

//---------------dance-single - ----------------
#NOTES:
     dance-single:
     :
     Easy:
     5:
     0.257,0.295,0.068,0.205,0.000: // measure 1
2000
0000
0000
0000
,  // measure 2
3200
0000
0000
0000
,  // measure 3
2300
0000
0000
0000
,  // measure 4
0000
0000
3000
0000
,  // measure 5
0002
0000
0203
0000
,  // measure 6
0302
0000
2003
0000
,  // measure 7
3002
0000
0023
0000
,  // measure 8
0230
0000
0320
0000
,  // measure 9
0031
1000
0001
0000
,  // measure 10
0010
0001
0100
0000
,  // measure 11
0010
1000
0100
0000
,  // measure 12
2002
0000
0000
3003
,  // measure 13
0001
1000
0100
0010
,  // measure 14
0000
0000
0001
1000
,  // measure 15
0100
1000
0001
0100
,  // measure 16
0001
0010
0100
0000
,  // measure 17
1000
0100
1000
0010
,  // measure 18
0100
0100
0001
0001
,  // measure 19
0010
0100
1000
0000
,  // measure 20
2002
0000
0000
3003
,  // measure 21
1001
0000
0001
0000
,  // measure 22
0010
0000
0010
0000
,  // measure 23
0100
0000
0100
0000
,  // measure 24
0010
0000
0010
0000
,  // measure 25
0100
0000
0100
0000
,  // measure 26
1000
0000
1000
0000
,  // measure 27
0001
0000
0001
0000
,  // measure 28
0100
0000
0000
0000
,  // measure 29
0010
0100
0010
0000
,  // measure 30
1000
0001
0010
0000
,  // measure 31
0100
1000
0100
0000
,  // measure 32
0010
0001
1000
0000
,  // measure 33
0010
0100
0010
0000
,  // measure 34
0100
0001
0100
0000
,  // measure 35
0001
1000
0100
0010
,  // measure 36
0002
0000
2000
0000
,  // measure 37
3003
0000
0000
0000
,  // measure 38
0001
0100
0010
0000
,  // measure 39
0100
0010
1000
0000
,  // measure 40
0001
0010
0100
1000
,  // measure 41
0100
0010
0001
0000
,  // measure 42
1000
0100
0010
0000
,  // measure 43
0001
0010
0100
0000
,  // measure 44
1000
0010
0100
0001
,  // measure 45
0200
0000
0000
0300
,  // measure 46
1001
0000
1000
0000
,  // measure 47
0001
0010
0100
0000
,  // measure 48
0010
0001
0100
0000
,  // measure 49
0010
0100
0010
0000
,  // measure 50
1000
0100
0010
0000
,  // measure 51
0001
1000
0010
0000
,  // measure 52
0100
0001
0100
0001
,  // measure 53
0220
0000
0000
0330
,  // measure 54
1001
0000
1000
0000
,  // measure 55
0001
0000
0010
0000
,  // measure 56
0100
0000
1000
0000
,  // measure 57
0010
0100
0010
0000
,  // measure 58
0100
0001
0100
0001
,  // measure 59
1000
0100
1000
0100
,  // measure 60
0020
0000
0000
0000
0000
0000
0000
0030
,  // measure 61
0000
0000
0000
0000
,  // measure 62
0001
0100
0010
0000
,  // measure 63
0100
0010
0100
0010
,  // measure 64
1000
0100
0010
0000
,  // measure 65
0001
1000
0001
0010
,  // measure 66
0100
1000
0010
0000
,  // measure 67
0100
0001
0100
0000
,  // measure 68
0001
0010
0100
1000
,  // measure 69
0002
0000
0000
0003
,  // measure 70
0100
0010
1000
0200
,  // measure 71
0000
0000
0310
0001
,  // measure 72
0100
0010
0100
0001
,  // measure 73
0010
0100
1000
0000
,  // measure 74
1001
0001
1000
0001
,  // measure 75
0010
0001
0010
0100
,  // measure 76
1000
0010
0100
0010
,  // measure 77
0220
0000
0330
2002
,  // measure 78
0000
0000
0000
3003
;

//---------------dance-single - ----------------
#NOTES:
     dance-single:
     :
     Medium:
     10:
     0.441,0.443,0.236,0.236,0.038: // measure 1
1100
0010
0001
0010
,  // measure 2
1001
0100
0010
0100
,  // measure 3
2020
0000
0000
3000
,  // measure 4
0200
0000
0330
0000
,  // measure 5
0001
0010
0001
0200
0000
0000
0310
0000
,  // measure 6
1000
0100
1000
0020
0000
0000
0130
0000
,  // measure 7
0001
0100
0001
2000
0000
0000
3001
0000
,  // measure 8
0100
0001
0100
0020
0000
0000
1030
0000
,  // measure 9
0001
0010
0001
0200
0000
0000
0310
0000
,  // measure 10
1000
0100
1000
0020
0000
0000
0130
0000
,  // measure 11
0001
1000
0001
0020
0000
0000
0130
0000
,  // measure 12
2002
0000
0000
3003
,  // measure 13
1000
0010
1000
0010
0100
0001
0010
0000
,  // measure 14
0100
1000
1100
1001
,  // measure 15
0001
0100
0010
0000
0100
0010
1000
0000
,  // measure 16
0001
0010
0001
0010
0100
0000
1000
0000
,  // measure 17
0110
0000
0110
0000
1000
0001
1000
0000
,  // measure 18
0110
0000
0110
0000
0001
1000
0001
0000
,  // measure 19
0010
0100
1000
0000
0100
0010
0001
0000
,  // measure 20
1001
0000
0000
1001
0000
0000
1001
0000
,  // measure 21
2000
0000
0010
0000
3010
0000
0100
0001
,  // measure 22
0020
0100
0130
1000
,  // measure 23
0200
0000
1000
0000
1300
0000
0010
0100
,  // measure 24
0002
0000
0010
0000
0013
0100
0010
0000
,  // measure 25
1002
0000
1000
0000
1003
0001
0010
0000
,  // measure 26
0200
0000
0010
0000
0310
0000
0001
1000
,  // measure 27
0020
0000
1000
0000
1030
0000
0001
0010
,  // measure 28
0100
0000
1000
0010
0000
0100
0000
0000
,  // measure 29
0001
1000
0001
1000
0000
0010
0100
0000
,  // measure 30
0001
0000
0010
0000
0100
0000
1000
0010
,  // measure 31
0200
0000
0001
0000
0301
0000
1000
0100
,  // measure 32
1000
0001
0101
0000
,  // measure 33
0110
0000
0100
0010
0100
0000
0001
0010
,  // measure 34
0100
0000
1000
0000
0010
0000
0100
0001
,  // measure 35
0010
0000
0000
0011
0000
0000
0100
1000
,  // measure 36
0010
0000
0000
2020
0000
0000
0000
0000
,  // measure 37
3030
0000
0000
0000
,  // measure 38
1000
0000
0000
0001
0000
0000
1000
0000
0000
0000
0010
0000
0100
0000
0000
0000
,  // measure 39
0001
0010
0001
0000
0100
0010
0000
0100
,  // measure 40
0001
0000
0010
0100
0010
0000
0001
0000
,  // measure 41
0200
0010
0310
0000
,  // measure 42
1000
0000
0000
0100
0000
0000
1000
0000
0000
0000
0001
0000
0100
0000
0000
0000
,  // measure 43
0010
0100
0010
0000
1000
0000
0100
1000
,  // measure 44
0000
0010
0100
0000
0001
1000
0001
1000
,  // measure 45
0200
0000
0000
0300
,  // measure 46
1001
0000
1000
0010
0100
0000
0001
1000
,  // measure 47
0000
0001
1000
0000
0100
0000
0010
0001
,  // measure 48
0200
0000
0010
0000
0310
1000
0010
1000
,  // measure 49
0002
0010
0013
0000
,  // measure 50
0100
0000
0000
0010
0000
0000
0100
0000
0000
0000
1000
0000
0010
0000
0000
0000
,  // measure 51
0100
0000
0000
0001
0000
0000
0100
0000
0000
0000
0000
0000
0000
0000
0000
0000
,  // measure 52
1001
0000
0001
0010
0100
1000
0010
0000
,  // measure 53
0110
0000
0000
0010
0100
0000
0000
0000
,  // measure 54
1001
1000
0001
0001
,  // measure 55
0010
0010
0100
0100
,  // measure 56
1000
0100
0001
0100
,  // measure 57
1000
0100
0010
0000
,  // measure 58
0011
0001
1000
1000
,  // measure 59
0010
0001
0010
1000
,  // measure 60
0002
0000
0000
0000
0000
0000
0000
0003
,  // measure 61
0000
0000
0000
0000
,  // measure 62
0100
0000
0000
0010
0000
0000
0100
0000
0000
0000
0001
0000
1000
0000
0000
0000
,  // measure 63
0100
1000
0100
0000
1000
0001
0000
0100
,  // measure 64
0001
0000
0010
0100
0010
0100
0010
0000
,  // measure 65
0002
0000
1000
0000
1003
0001
0010
0000
,  // measure 66
0100
0000
0000
0010
0000
0000
0100
0000
0000
0000
1000
0000
0010
0000
0000
0000
,  // measure 67
0100
0000
0000
0010
0000
0000
0100
0000
0000
0000
0000
0000
0000
0000
0001
0000
,  // measure 68
0000
1000
0100
1000
0001
0000
0010
0000
,  // measure 69
0100
0000
0000
0100
0000
0000
0100
0000
0000
0000
0100
0000
1000
0000
0100
0000
,  // measure 70
1000
0000
1001
0000
0011
0000
0100
2000
,  // measure 71
0000
0000
0000
3001
0100
0010
0100
0000
,  // measure 72
0001
0010
0100
0000
0010
0100
1000
0000
,  // measure 73
0001
0100
0010
0100
0001
0100
0000
0000
,  // measure 74
1001
0000
1000
0100
0010
0000
0100
0010
,  // measure 75
0001
0000
0100
0010
1000
0100
0010
0000
,  // measure 76
0101
1001
1100
1001
,  // measure 77
0001
0000
0000
1000
0000
0000
0010
0000
0000
0100
0000
0000
0202
0000
0000
0000
,  // measure 78
0000
0000
0000
0303
;

//---------------dance-single - ----------------
#NOTES:
     dance-single:
     :
     Hard:
     13:
     0.607,0.709,0.327,0.220,0.190: // measure 1
0101
0100
0001
1000
,  // measure 2
0100
0000
1000
0002
0000
0000
0000
1003
,  // measure 3
0001
0000
1000
0000
0100
0000
0010
0000
0001
0000
1000
0001
1000
0000
0010
0000
,  // measure 4
1000
0000
0001
0010
0002
0000
0000
0000
2000
0000
0000
0000
3003
0000
0000
0000
,  // measure 5
1000
0000
0100
1000
0100
0000
0020
0000
0000
0000
0031
0000
1000
0000
0100
0000
,  // measure 6
0010
0000
0001
0100
0001
0000
2000
0000
0000
0000
3001
0000
0100
0000
0010
0000
,  // measure 7
0100
0000
0001
0010
0001
0000
2000
0000
0000
0000
3010
0000
0100
0000
0001
0000
,  // measure 8
1000
0000
0100
1000
0100
0000
0010
0000
0000
0001
0000
0000
1000
0000
0000
0000
,  // measure 9
0001
0000
0100
0010
0100
0000
0002
0000
0000
0000
1000
0000
1003
0000
0001
0000
,  // measure 10
0010
0000
0100
0010
0100
0000
2000
0000
0000
0000
0001
0000
3001
0000
1000
0000
,  // measure 11
0010
0000
0100
0010
0100
0000
0002
0000
0000
0000
0010
0000
0013
0000
0100
0000
,  // measure 12
2000
0000
0000
0002
0000
0000
3003
0000
,  // measure 13
0001
0000
1000
0100
1000
0000
0001
1000
0001
0000
0010
0000
0100
0000
2000
0000
,  // measure 14
0000
0000
0000
3010
0100
0100
0001
0001
,  // measure 15
1000
0000
0100
0000
0001
0000
0100
0000
1000
0001
1000
0000
0001
0100
0001
0000
,  // measure 16
1000
0001
1000
0001
1000
0000
0000
0010
0000
0000
0100
0000
0002
0000
0000
0000
,  // measure 17
1003
0000
0100
1000
0100
0000
0010
0100
0010
0000
0001
0000
0001
0000
0100
0000
,  // measure 18
0100
0001
0100
1000
0100
0001
0010
0100
,  // measure 19
1000
0001
0010
1000
0010
0001
0010
0100
,  // measure 20
1100
0000
0000
1100
0000
0000
0011
0000
0000
0011
0000
0000
1001
0000
1000
0000
,  // measure 21
0001
0000
0100
0000
1000
0100
0001
0010
,  // measure 22
0100
0000
1000
0010
0100
0010
1000
0000
,  // measure 23
0001
0000
1000
0000
0010
0000
0001
0010
,  // measure 24
1000
0000
0100
1000
0001
0010
0100
0000
,  // measure 25
1001
0000
0100
0000
0001
0100
1000
0001
,  // measure 26
0100
0000
0010
1000
0100
0010
0001
0000
,  // measure 27
1000
0000
0001
0000
0010
0000
1000
0010
,  // measure 28
0001
0000
0010
0100
0000
0100
0000
0000
,  // measure 29
1000
0010
0100
0001
1000
0100
0010
0100
,  // measure 30
1000
0000
0000
0001
0000
0000
1000
0000
0000
0000
0100
0000
0010
0000
0001
0000
,  // measure 31
0200
0000
0010
0000
0310
1000
0100
0010
,  // measure 32
0001
0000
0000
0100
0000
0000
0001
0000
0000
0000
0100
0000
0010
0000
1000
0000
,  // measure 33
1001
0000
0001
1000
0100
0001
0100
1000
,  // measure 34
0001
0010
0200
0000
1000
0000
1300
0001
,  // measure 35
0100
0000
0000
0100
0000
0000
0110
0000
0000
0000
0010
0000
1000
0000
0100
0000
,  // measure 36
0010
0001
1000
2020
0000
0000
0000
0000
,  // measure 37
3030
0000
0000
0000
,  // measure 38
1100
0000
0000
0010
0000
0000
1001
0000
0000
0000
1000
0000
0001
0000
0010
0000
,  // measure 39
1000
0010
0001
1000
0100
1000
0000
0001
,  // measure 40
0010
1000
0010
0001
1000
0100
0010
0001
,  // measure 41
0200
0000
0001
0000
0301
1000
0100
0010
,  // measure 42
0101
0000
0000
0010
0000
0000
1001
0000
0000
0000
1000
0000
0001
0000
0100
0000
,  // measure 43
1000
0100
0001
0010
0100
0000
1000
0020
,  // measure 44
0000
1030
0001
0100
1000
0100
0010
1000
,  // measure 45
0001
0000
0000
0001
0000
0000
1001
0000
0000
0000
1000
0000
0010
0000
0100
0000
,  // measure 46
1001
0001
0100
0100
0010
1000
0100
0010
,  // measure 47
0000
0001
0200
0000
0010
0000
0310
1000
,  // measure 48
0200
0000
1300
0001
0100
1000
0100
0001
,  // measure 49
0020
0000
0100
0000
0130
1000
0100
0010
,  // measure 50
0101
0000
0000
0100
0000
0000
1001
0000
0000
0000
1000
0000
0010
0000
0100
0000
,  // measure 51
0101
0000
0000
0010
0000
0000
1001
0000
0000
0000
0000
0000
0000
0000
0000
0000
,  // measure 52
1100
0010
0001
1000
1001
0010
0100
1000
,  // measure 53
1001
0000
0000
1001
0000
0000
1001
0000
0200
0000
0000
0000
0000
0000
0300
0000
,  // measure 54
1001
0010
0100
1000
,  // measure 55
0001
0100
1000
0100
,  // measure 56
0001
0010
0100
1000
,  // measure 57
0010
0001
0010
1000
,  // measure 58
0110
0000
0010
0100
0010
0000
0100
0001
,  // measure 59
1000
0100
0010
0000
0100
0010
0001
1000
,  // measure 60
0020
0000
0000
1000
0000
0000
0000
1030
,  // measure 61
0000
0000
0000
0000
,  // measure 62
0011
0000
0000
0100
0000
0000
1001
0000
0000
0000
1000
0000
0100
0000
1000
0000
,  // measure 63
0001
0010
1000
0010
0001
0010
0100
0010
,  // measure 64
0002
0000
1003
0100
0001
0100
1000
0001
,  // measure 65
0200
0000
0001
0000
0301
1000
0100
0010
,  // measure 66
0011
0000
0000
0100
0000
0000
1001
0000
0000
0000
1000
0000
0100
0000
0010
0000
,  // measure 67
0011
0000
0000
0100
0000
0000
1001
0000
0000
0000
0000
0000
0000
0000
1000
0000
,  // measure 68
0100
1000
0001
0100
1000
0100
0010
1000
,  // measure 69
1001
0000
0000
1001
0000
0000
1001
0000
0000
0000
0001
0000
0100
0000
0001
0000
,  // measure 70
1000
0000
0100
1000
0100
0000
0010
0100
0010
0000
0001
0000
1000
0000
0020
0000
,  // measure 71
0000
0000
0000
0130
0100
0001
0001
0010
,  // measure 72
0100
0000
1000
0000
0001
0100
0001
0000
1000
0000
0010
0000
0001
0000
0010
0000
,  // measure 73
1000
0001
1000
0001
1000
0000
0000
0100
0000
0000
0010
0000
0100
0000
0000
0000
,  // measure 74
1001
0000
0001
0000
0100
0000
0001
1000
0000
0001
1000
0000
0010
0000
0100
0000
,  // measure 75
0001
0000
1000
0100
1000
0100
1000
0000
0001
1000
0001
1000
0001
0000
0000
0000
,  // measure 76
1001
0000
1000
0000
0010
0100
0010
0000
1000
0000
0001
0000
0010
0100
0010
0000
,  // measure 77
1100
0000
0000
1100
0000
0000
0011
0000
0000
0011
0000
0000
2002
0000
0000
0000
,  // measure 78
0000
0000
0000
3003
;

//---------------dance-single - ----------------
#NOTES:
     dance-single:
     :
     Challenge:
     16:
     0.826,0.857,0.266,0.114,0.692: // measure 1
0001
0100
0000
0010
0000
0100
0000
0010
,  // measure 2
0000
1000
0100
0010
0000
0001
0100
0001
,  // measure 3
1000
0000
0100
0000
0001
0000
0100
0000
1000
0000
0010
0100
0001
0000
0001
0000
,  // measure 4
0010
0100
1000
0010
0200
0000
0000
0000
0001
0000
0000
0000
0301
0000
0000
0000
,  // measure 5
1000
0100
1000
0100
0010
0000
0001
0000
0100
0000
0001
0000
1000
0100
1000
0000
,  // measure 6
0001
0100
0001
0100
0010
0000
1000
0000
0100
0000
1000
0000
0001
1000
0001
0000
,  // measure 7
0100
0010
0100
0010
1000
0000
0001
0000
1000
0000
0100
0000
1000
0001
1000
0000
,  // measure 8
0100
0010
0100
0010
0001
0000
0010
0000
0100
0010
0000
0001
0100
0010
0100
0000
,  // measure 9
0001
1000
0001
1000
0100
0000
0010
0000
0001
0100
0001
0000
1000
0000
0100
0000
,  // measure 10
0010
0100
0010
0100
1000
0000
0001
0000
0100
0010
0100
0000
0010
0000
1000
0000
,  // measure 11
0100
0010
0100
0010
0001
0000
1000
0000
0010
1000
0010
0000
0100
0000
0001
0000
,  // measure 12
1001
0000
0000
0220
0000
0000
0330
0000
,  // measure 13
1000
0000
1000
0100
0010
0000
0010
0001
0100
0010
1000
0000
0200
0000
2300
0000
,  // measure 14
0000
0000
0001
0000
0000
0000
3001
0010
0100
0000
0010
0100
1000
0100
0010
0000
,  // measure 15
0001
1000
0001
1000
0010
0100
0001
0100
0001
1000
0100
0010
0001
1000
0100
0000
,  // measure 16
0010
0001
0010
0001
0100
0010
0000
0010
1000
0000
1000
0001
0010
0001
1000
0000
,  // measure 17
0100
0010
0100
0010
0001
0100
0010
1000
0100
0010
0001
0000
0010
0001
1000
0010
,  // measure 18
1000
0000
0100
0010
0001
0010
0100
0000
0010
0100
1000
0100
0010
0000
0001
0000
,  // measure 19
0200
0000
0010
0000
0310
1000
0100
0000
0020
0000
0001
0000
0031
1000
0010
0000
,  // measure 20
0101
0000
0000
0101
0000
0000
1010
0000
0000
1010
0000
0000
1001
0000
0001
0000
,  // measure 21
1001
0000
1000
0010
0100
0001
0010
1000
,  // measure 22
0010
0000
0001
0100
0010
1000
0100
0001
,  // measure 23
0100
0000
1000
0100
1000
0001
0010
1000
,  // measure 24
0010
0000
0000
0000
0001
0000
0100
0000
0010
0100
0010
0000
0100
0000
0000
0000
,  // measure 25
1001
1000
0001
1000
0100
0010
0100
1000
,  // measure 26
0001
0000
0100
0010
1000
0001
0010
0100
,  // measure 27
1000
0000
0100
1000
0001
0100
1000
0100
,  // measure 28
0001
1000
0001
1000
0001
0000
0000
0000
0100
0010
0100
0010
0100
0000
0010
0000
,  // measure 29
1001
1000
0001
0010
0100
0001
0100
1000
,  // measure 30
0001
0000
0010
0001
0010
0000
0100
0010
0100
0000
1000
0000
0010
0000
0100
0000
,  // measure 31
0001
0000
1001
0000
1000
0100
0001
0100
,  // measure 32
1000
0000
0010
0100
0010
0000
1000
0000
0100
1000
0100
1000
0100
0000
0000
0000
,  // measure 33
1001
0000
0001
0100
1000
0100
0010
1000
,  // measure 34
0001
0010
0100
0000
1000
0000
0100
0010
,  // measure 35
0011
0000
0000
0110
0000
0000
1100
0000
0000
0000
0010
0000
0001
0000
1000
0000
,  // measure 36
0010
1000
0010
1000
0010
0000
1000
0000
0001
0000
0010
0000
0100
0010
0100
0000
,  // measure 37
0000
0000
0000
0000
,  // measure 38
1000
0010
1000
0010
0100
0000
0001
0000
1000
0000
0100
0000
0001
0000
0100
0000
,  // measure 39
1000
0000
0010
1000
0100
0000
0010
0001
0100
0010
0100
0000
0001
0000
1000
0100
,  // measure 40
1000
0000
0001
0000
0100
0000
0010
1000
0100
0000
0010
0001
0100
0010
0100
0000
,  // measure 41
0001
0000
1000
0000
0100
0000
1000
0000
0001
0010
0100
0000
1000
0000
0010
0000
,  // measure 42
0100
0001
0100
0001
1000
0000
0100
0000
1000
0000
0010
0000
0001
0000
0010
0000
,  // measure 43
1000
0001
1000
0001
0010
0000
0100
0000
1000
0000
0100
0000
0010
0000
0002
0000
,  // measure 44
0000
0000
1003
0000
0010
0000
0100
0001
0010
0000
0100
1000
0010
0100
0010
0000
,  // measure 45
1001
0000
0000
0110
0000
0000
1001
0000
0000
0000
0001
0000
1000
0100
1000
0000
,  // measure 46
1001
0000
0001
0100
0001
0000
1000
0010
1000
0000
0100
0000
0010
0000
0002
0000
,  // measure 47
0000
0000
1003
0000
0001
0000
0100
0000
1000
0000
0100
0000
0001
1000
0001
1000
,  // measure 48
0100
0000
0010
0000
0001
0000
1000
0100
0010
0000
0100
0010
0001
0100
0010
0000
,  // measure 49
1000
0000
0100
0000
1000
0000
0001
0000
0100
0010
1000
0000
0010
0000
0100
0000
,  // measure 50
0001
1000
0001
1000
0100
0000
0010
0000
0001
0000
0100
0000
1000
0000
0100
0000
,  // measure 51
0001
0010
0001
0010
0100
0000
1000
0000
0001
0000
0100
0000
0001
0000
1000
0000
,  // measure 52
0010
0100
0001
0100
0010
0000
0100
0000
0010
1000
0100
1000
0010
0100
0001
0000
,  // measure 53
1001
0000
0000
1100
0000
0000
0011
0000
2002
0000
0000
0000
0000
0000
3003
0000
,  // measure 54
1100
0010
1001
1100
,  // measure 55
0011
0000
0001
0000
0100
0000
0010
0000
1000
0000
0010
0100
0001
0000
0001
0000
,  // measure 56
0010
0000
0100
0000
1000
0100
0010
0001
,  // measure 57
1000
0000
0000
0000
0010
0000
0000
0000
0100
0001
0010
0000
0100
0000
0000
0000
,  // measure 58
1001
0000
0001
0100
0001
1000
0010
0001
,  // measure 59
0010
0000
1000
0000
0100
0000
0010
0000
0100
0000
1000
0001
0100
0000
0100
0000
,  // measure 60
0010
0000
1000
0100
0000
1000
0100
0010
,  // measure 61
0000
0000
0000
0000
,  // measure 62
0001
0100
0001
0100
0001
1000
0100
1000
0001
0000
0100
0000
0010
0000
1000
0001
,  // measure 63
1000
0000
0100
1000
0100
0000
0010
0100
0010
0000
0001
0010
0001
0000
1000
0000
,  // measure 64
0100
1000
0100
1000
0001
0000
0010
0000
0100
0010
0100
0010
0001
0000
0100
0000
,  // measure 65
0010
1000
0010
1000
0001
0000
0010
0000
0100
0000
0100
0000
0010
0000
0001
0000
,  // measure 66
1000
0100
1000
0100
1000
0001
0100
0001
1000
0000
0100
0000
0010
0000
0001
0000
,  // measure 67
0100
0010
0100
0010
1000
0100
0010
0100
1000
0000
0001
0000
1000
0000
0100
0000
,  // measure 68
0010
0000
0001
0100
0001
0000
0100
0010
0100
0000
0010
1000
0010
1000
0100
0000
,  // measure 69
0011
0000
0000
1100
0000
0000
1001
0000
0000
0000
0011
0000
0100
0000
1000
0000
,  // measure 70
0001
0000
0001
0100
0010
0000
0010
1000
0100
0010
0001
1000
0020
0000
2030
0000
,  // measure 71
0000
0000
0000
0000
3001
0000
1000
0010
0100
0000
0100
0001
0010
0100
1000
0000
,  // measure 72
0001
1000
0001
1000
0100
0010
0100
1000
0010
0100
0010
0100
0001
1000
0100
1000
,  // measure 73
0001
0010
1000
0010
0001
0000
1000
0010
0000
0100
0001
0000
1000
0100
0010
0000
,  // measure 74
1001
0000
0001
0100
0001
1000
0010
0100
0000
0010
0100
0000
0001
0100
0010
1000
,  // measure 75
0100
0000
1000
0100
0001
0100
1000
0000
0001
0100
1000
0100
0001
0010
0100
0000
,  // measure 76
1010
0000
0010
1000
0100
0010
0001
1000
0010
0000
0100
0001
1000
0100
0010
0001
,  // measure 77
0100
0010
0000
0010
1000
0000
1000
0100
0000
0100
0010
0000
0202
0000
0000
0000
,  // measure 78
0000
0000
0000
0303
;

//---------------dance-single - ----------------
#NOTES:
     dance-single:
     :
     Beginner:
     2:
     0.097,0.117,0.053,0.000,0.000:
0001
0000
0000
0000
,
0000
0000
0000
0000
,
1000
0000
0000
0000
,
0000
0000
0000
0000
,
1001
0000
0000
0000
,
0001
0000
0000
0000
,
0010
0000
0000
0000
,
0100
0000
0000
0000
,
1000
0000
0000
0000
,
0010
0000
0000
0000
,
0100
0000
0000
0000
,
0010
0000
0000
0000
,
1000
0000
1000
0000
,
0000
0000
0000
0000
,
0001
0000
0001
0000
,
0000
0000
0000
0000
,
0010
0000
0010
0000
,
0000
0000
0000
0000
,
0100
0000
0100
0000
,
1000
0000
0000
0000
,
0001
0000
0000
0000
,
0010
0000
0000
0000
,
0100
0000
0000
0000
,
1000
0000
0000
0000
,
0001
0000
0000
0000
,
0100
0000
0000
0000
,
0010
0000
0000
0000
,
1000
0000
0000
0000
,
1001
0000
0000
0000
,
0001
0000
0000
0000
,
0010
0000
0000
0000
,
0001
0000
0000
0000
,
1000
0000
0000
0000
,
0100
0000
0000
0000
,
1000
0000
0000
0000
,
0010
0000
0000
0000
,
0000
0000
0000
0000
,
1001
0000
0000
0000
,
1000
0000
0000
0000
,
0001
0000
0000
0000
,
1000
0000
0000
0000
,
0010
0000
0000
0000
,
0100
0000
0000
0000
,
0010
0000
0000
0000
,
0100
0000
0000
0000
,
0001
0000
0000
0000
,
0010
0000
0000
0000
,
0100
0000
0000
0000
,
1000
0000
0000
0000
,
1001
0000
0000
0000
,
0001
0000
0000
0000
,
1000
0000
0100
0000
,
1000
0000
0000
0000
,
1001
0000
0000
0000
,
0000
0000
0000
0000
,
0001
0000
0000
0000
,
0000
0000
0000
0000
,
1000
0000
0000
0000
,
0010
0000
0000
0000
,
0100
0000
0000
0000
,
0000
0000
0000
0000
,
1001
0000
0001
0000
,
0001
0000
0000
0000
,
1000
0000
1000
0000
,
1000
0000
0000
0000
,
0010
0000
0010
0000
,
0010
0000
0000
0000
,
0100
0000
0100
0000
,
0100
0000
0000
0000
,
0001
0000
1000
0000
,
0100
0000
0000
0000
,
0010
0000
0001
0000
,
1000
0000
0000
0000
,
0010
0000
0100
0000
,
0001
0000
0000
0000
,
0100
0000
0010
0000
,
1000
0000
0000
1001
;
