#VERSION:0.83;
#TITLE:LOSER;
#SUBTITLE:;
#ARTIST:米津玄師;
#TITLETRANSLIT:;
#SUBTITLETRANSLIT:;
#ARTISTTRANSLIT:KENSHI YONEZU;
#GENRE:;
#ORIGIN:;
#CREDIT:DigiMindAxel;
#BANNER:LOSER.png;
#BACKGROUND:LOSER-bg.png;
#PREVIEWVID:;
#JACKET:LOSER-jacket.png;
#CDIMAGE:;
#DISCIMAGE:;
#LYRICSPATH:LOSER.lrc;
#CDTITLE:DigiMindAxel original simfile.png;
#MUSIC:LOSER.ogg;
#OFFSET:-0.581000;
#SAMPLESTART:52.118999;
#SAMPLELENGTH:12.000000;
#SELECTABLE:YES;
#BPMS:0.000=121.000;
#STOPS:;
#DELAYS:;
#WARPS:;
#TIMESIGNATURES:0.000=4=4;
#TICKCOUNTS:0.000=4;
#COMBOS:0.000=1;
#SPEEDS:0.000=1.000=0.000=0;
#SCROLLS:0.000=1.000;
#FAKES:;
#LABELS:0.000=Song Start;
#BGCHANGES:0.000=LOSER.avi=1.000=1=0=0=StretchNoLoop==CrossFade==,
99999=-nosongbg-=1.000=0=0=0 // don't automatically add -songbackground-
;
#KEYSOUNDS:;
#ATTACKS:
;

//---------------dance-single - ----------------
#NOTEDATA:;
#CHARTNAME:;
#STEPSTYPE:dance-single;
#DESCRIPTION:;
#CHARTSTYLE:;
#DIFFICULTY:Easy;
#METER:4;
#RADARVALUES:0.193706,0.297364,0.111565,0.034328,0.000000,158.000000,145.000000,13.000000,4.000000,0.000000,0.000000,0.000000,0.000000,0.000000,0.193706,0.297364,0.111565,0.034328,0.000000,158.000000,145.000000,13.000000,4.000000,0.000000,0.000000,0.000000,0.000000,0.000000;
#CREDIT:;
#NOTES:
0000
0000
0000
0000
,
0000
0000
0000
0000
,
0000
0000
0000
0000
,
0000
0000
0000
0000
,
1000
0100
0010
0000
,
0100
0010
0001
0000
,
1000
0100
0010
0000
,
0100
0010
0001
1000
,
0002
0000
0000
0000
,
2003
0000
0000
3000
,
1001
0000
0000
0000
,
0001
1000
0000
1000
,
0000
0100
0000
0100
,
0000
0010
0000
0010
,
0001
1000
0001
0000
,
0010
0001
0010
0000
,
0100
0010
0100
0000
,
1000
0100
1000
0000
,
1001
0001
0001
0000
,
1000
1000
1000
0000
,
0010
0010
0010
0000
,
0100
0100
0100
0000
,
0001
0001
0001
0000
,
1000
1000
1000
0000
,
0010
0010
0010
0100
,
0110
0110
0110
0000
,
1001
0001
1000
0100
,
0010
0001
1000
0000
,
0001
0001
0100
0100
,
0020
0000
0130
0000
,
1001
0001
0010
0100
,
1000
0010
0100
0000
,
0002
0000
1000
0000
,
1003
0100
1000
0000
,
1001
0000
0000
0000
,
0000
0000
0000
0000
,
0001
0000
0000
0000
,
0000
0000
0000
0000
,
1000
0000
0000
0000
,
0000
0000
0000
0000
,
0001
0000
0000
0000
,
0000
0000
0000
0000
,
1001
1000
1000
0000
,
0001
0010
0100
1000
,
0001
0001
0001
0000
,
1000
0100
0010
0001
,
1000
1000
1000
0000
,
0010
0100
0001
0100
,
0010
0010
0010
0000
,
1001
1001
1001
0000
,
1000
0100
0010
0001
,
0100
0100
0001
0000
,
1000
1000
0100
0100
,
0010
0001
0100
0000
,
0001
0010
0100
1000
,
0001
0001
0100
0010
,
0100
0000
0001
1000
,
0100
0010
0001
1001
;

//---------------dance-single - ----------------
#NOTEDATA:;
#CHARTNAME:;
#STEPSTYPE:dance-single;
#DESCRIPTION:;
#CHARTSTYLE:;
#DIFFICULTY:Medium;
#METER:9;
#RADARVALUES:0.403350,0.446045,0.334695,0.017164,0.000000,329.000000,290.000000,39.000000,2.000000,0.000000,0.000000,0.000000,0.000000,0.000000,0.403350,0.446045,0.334695,0.017164,0.000000,329.000000,290.000000,39.000000,2.000000,0.000000,0.000000,0.000000,0.000000,0.000000;
#CREDIT:;
#NOTES:
// measure 0
0000
0000
0000
0000
,  // measure 1
0000
0000
0000
0000
,  // measure 2
0000
0000
0000
0000
,  // measure 3
0000
0000
0000
0000
,  // measure 4
1000
0010
0100
0010
1000
0010
0100
0000
,  // measure 5
0001
1000
0100
1000
0001
1000
0100
0000
,  // measure 6
0010
0100
1000
0100
0010
0100
1000
0000
,  // measure 7
0010
0100
0001
0100
0010
0100
0001
0000
,  // measure 8
0010
0100
1000
1000
,  // measure 9
0001
0100
0010
0010
,  // measure 10
2002
0000
0000
3003
,  // measure 11
1000
0000
1100
0000
0000
0010
0110
0000
,  // measure 12
0100
0000
0101
0000
0000
0001
1001
0000
,  // measure 13
1000
0000
1100
0000
0000
0100
0110
0000
,  // measure 14
0010
0001
0001
0000
0100
0010
0010
0000
,  // measure 15
1000
0100
0100
0000
1000
0001
0001
0000
,  // measure 16
1000
0010
0100
0000
0001
1000
0100
0000
,  // measure 17
0010
0001
1000
0000
0100
0010
0001
0000
,  // measure 18
0100
0001
0010
0001
0100
0001
0010
0000
,  // measure 19
0100
1000
0001
1000
0100
1000
0001
0000
,  // measure 20
0010
0100
1000
0100
0010
0100
1000
0000
,  // measure 21
0010
0100
0001
0100
0010
0100
0001
0000
,  // measure 22
1000
0001
0010
0001
1000
0001
0010
0000
,  // measure 23
0100
0010
0001
0010
0100
0010
0001
0000
,  // measure 24
0100
0010
1000
0010
0100
0010
1000
0000
,  // measure 25
1001
0000
1001
0000
1001
0001
0000
0000
,  // measure 26
1100
1000
0010
0010
0100
0001
0010
0100
,  // measure 27
1000
1000
0010
0010
0100
0001
0010
0100
,  // measure 28
1000
0001
0010
0100
0010
0001
1000
0000
,  // measure 29
1010
0010
1001
0000
,  // measure 30
0011
0001
0100
0100
0010
1000
0100
0010
,  // measure 31
0001
1000
0010
0100
0010
0000
1000
0001
,  // measure 32
1000
0000
0010
0000
0100
0001
1000
0000
,  // measure 33
0100
0010
0100
0010
0001
0100
0010
0000
,  // measure 34
1001
1000
0010
0100
,  // measure 35
0001
0000
0000
0000
,  // measure 36
1000
0010
0100
0001
,  // measure 37
0010
0000
0000
0000
,  // measure 38
0001
0010
0100
1000
,  // measure 39
0010
0000
0000
0000
,  // measure 40
1000
0100
0010
0001
,  // measure 41
0100
0000
0000
0000
,  // measure 42
1001
1001
1001
1001
,  // measure 43
0001
0010
0100
1000
0001
0000
0100
0000
,  // measure 44
0110
0110
0110
0110
,  // measure 45
0100
0001
0100
0010
1000
0000
0100
0000
,  // measure 46
1001
1001
1001
1001
,  // measure 47
0001
0010
0100
0010
0001
0000
0100
0000
,  // measure 48
0110
0110
0110
0110
,  // measure 49
1001
0000
1001
0000
1001
0001
0000
0000
,  // measure 50
0101
0100
0001
0001
1000
0100
0010
0001
,  // measure 51
0100
0100
0001
0001
1000
0100
0010
0001
,  // measure 52
1000
0010
0100
0010
1000
0010
0100
0000
,  // measure 53
1001
0010
0100
1100
,  // measure 54
0101
0001
0100
0100
0001
0010
0100
1000
,  // measure 55
0001
0100
0010
0100
0001
0000
1000
0001
,  // measure 56
1000
0000
0010
0000
0100
0001
0010
0000
,  // measure 57
0001
0010
0100
1000
0010
0000
0110
0000
;

//---------------dance-single - ----------------
#NOTEDATA:;
#CHARTNAME:;
#STEPSTYPE:dance-single;
#DESCRIPTION:;
#CHARTSTYLE:;
#DIFFICULTY:Hard;
#METER:12;
#RADARVALUES:0.533305,0.520386,0.343277,0.000000,0.300367,435.000000,395.000000,40.000000,0.000000,0.000000,0.000000,0.000000,0.000000,0.000000,0.533305,0.520386,0.343277,0.000000,0.300367,435.000000,395.000000,40.000000,0.000000,0.000000,0.000000,0.000000,0.000000,0.000000;
#CREDIT:;
#NOTES:
// measure 0
0000
0000
0000
0000
,  // measure 1
0000
0000
0000
0000
,  // measure 2
0000
0000
0000
0000
,  // measure 3
0000
0000
0000
0000
,  // measure 4
1000
0000
0000
1000
0000
0000
0010
0000
0000
0010
0000
0000
1000
0000
0100
0010
0000
0000
0001
0000
0000
0100
0000
0000
,  // measure 5
0010
0000
0000
0010
0000
0000
1000
0000
0000
1000
0000
0000
0001
0000
0010
0100
0000
0000
1000
0000
0000
0001
0000
0000
,  // measure 6
0100
0000
0000
0100
0000
0000
0001
0000
0000
0001
0000
0000
1000
0000
0010
0100
0000
0000
0001
0000
0000
1000
0000
0000
,  // measure 7
0100
0100
1000
1000
0010
0010
0100
0100
,  // measure 8
0001
0000
0000
1000
0000
0000
0000
0000
0000
1000
0000
0000
0100
0000
0010
0001
0000
0000
1000
0000
0000
0010
0000
0000
,  // measure 9
1000
0000
0000
0001
0000
0000
0000
0000
0000
0001
0000
0000
0010
0000
0100
1000
0000
0000
0010
0000
0000
0100
0000
0000
,  // measure 10
0110
0000
0000
0000
0000
0000
0000
0000
0000
0000
0000
0000
0000
0000
0000
0100
0000
0000
0000
0000
0100
0000
0000
0000
,  // measure 11
1001
0000
0000
0000
0000
0000
0011
0000
0000
0000
0000
0000
0000
0000
0000
1000
0000
0000
0010
0000
0100
0000
0000
0000
,  // measure 12
1001
0000
0000
0000
0000
0000
1100
0000
0000
0000
0000
0000
0000
0000
0000
0001
0000
0000
0100
0000
0010
0000
0000
0000
,  // measure 13
1001
0000
0000
0000
0000
0000
0101
0000
0000
0000
0000
0000
0000
0000
0000
0010
0000
0000
1000
0000
0100
0000
0000
0000
,  // measure 14
1000
0000
0001
1000
0000
0000
0001
0000
0000
1000
0000
0100
0000
0000
1000
0100
0000
0000
0010
0000
0000
0000
0000
0001
,  // measure 15
1000
0000
0001
1000
0000
0000
0010
0000
0000
0100
0000
0001
0000
0000
0100
0001
0000
0000
1000
0000
0000
0000
0000
0100
,  // measure 16
0010
0000
0100
0010
0000
0000
0001
0000
0000
0010
0000
0100
0000
0000
0010
0100
0000
0000
1000
0000
0000
0000
0000
0001
,  // measure 17
0100
0000
0001
0100
0000
0000
0010
0000
0000
1000
0000
0001
0000
0000
1000
0001
0000
0000
0010
0000
0000
0000
0000
0000
,  // measure 18
1001
0000
0000
0000
0000
0000
0001
0000
0000
0100
0000
0010
0000
0000
0010
0100
0000
0000
0001
0000
0000
1000
0000
0100
,  // measure 19
1000
0000
0000
0000
0000
0000
0001
0000
0000
0100
0000
0010
0000
0000
0010
0100
0000
0000
0001
0000
0000
1000
0000
0100
,  // measure 20
1000
0000
0000
0000
0000
0000
0001
0000
0000
0010
0000
0100
0000
0000
0100
0010
0000
0000
0001
0000
0000
0100
0000
0010
,  // measure 21
0100
0000
0000
0000
0000
0000
0001
0000
0000
0010
0000
0100
0000
0000
0100
0010
0000
0000
0001
0000
0000
0100
0000
0010
,  // measure 22
0100
0000
0000
0000
0000
0000
0010
0000
0000
1000
0000
0001
0000
0000
0001
1000
0000
0000
0100
0000
0000
0010
0000
0100
,  // measure 23
0010
0000
0000
0001
0000
0000
0100
0000
0000
0010
0000
0100
0000
0000
0100
0010
0000
0000
0100
0000
0000
0001
0000
1000
,  // measure 24
0001
0000
0000
0010
0000
0000
0100
0000
0000
1000
0000
0001
0000
0000
0001
1000
0000
0000
0010
0000
0000
0000
0000
0000
,  // measure 25
1001
0000
1001
0000
1001
0011
0000
0000
,  // measure 26
1001
0000
0000
0001
0000
0000
0100
0000
0000
0100
0000
0000
0010
0000
0000
1000
0000
0100
0000
0000
0010
0000
0000
0001
,  // measure 27
0100
0000
0000
0100
0000
0000
0001
0000
0000
0001
0000
0000
1000
0000
0000
0010
0000
0100
0000
0000
0001
1000
0000
0000
,  // measure 28
0001
0100
1000
0001
0010
1000
0001
0100
,  // measure 29
0110
0000
1000
0100
0010
0001
0101
0000
,  // measure 30
1001
0000
0000
1000
0000
0000
0001
0000
0000
0001
0000
0000
1000
0000
0000
0010
0000
0100
0000
0000
0001
0000
0000
1000
,  // measure 31
0100
0010
0001
1000
1010
0000
0100
0010
,  // measure 32
1001
0000
0000
0000
0000
0000
1000
0000
0000
0100
0000
0000
0001
0000
0000
0100
0000
1000
0000
0000
0000
0100
0000
0000
,  // measure 33
0010
0001
1000
0010
1000
0001
0011
0000
,  // measure 34
1001
0000
0000
0000
0000
0000
1000
0000
0000
0000
0000
1000
0001
0000
0000
0010
0000
0000
0100
0000
0000
1000
0000
0000
,  // measure 35
0010
0010
0010
0010
,  // measure 36
1000
0000
0000
0000
0000
0000
1000
0000
0000
0000
0000
1000
0001
0000
0000
0100
0000
0000
0010
0000
0000
1000
0000
0000
,  // measure 37
0100
0100
0100
0100
,  // measure 38
0010
0000
0000
0000
0000
0000
0010
0000
0000
0000
0000
0010
0001
0000
0000
1000
0000
0000
0100
0000
0000
0010
0000
0000
,  // measure 39
0001
0001
0001
0001
,  // measure 40
0100
0000
0000
0000
0000
0000
0100
0000
0000
0000
0000
0100
0001
0000
0000
1000
0000
0000
0010
0000
0000
0100
0000
0000
,  // measure 41
0001
0001
0001
0001
,  // measure 42
1100
0000
0000
0000
0000
0000
1100
0000
0000
0000
0000
1000
0001
0000
0000
0010
0000
0000
0100
0000
0000
1000
0000
0000
,  // measure 43
0001
0100
1000
0100
0010
1000
0001
0000
,  // measure 44
0101
0000
0000
0000
0000
0000
0101
0000
0000
0000
0000
0001
1000
0000
0000
0010
0000
0000
0100
0000
0000
0001
0000
0000
,  // measure 45
1000
0010
0001
0010
0100
0001
1000
0000
,  // measure 46
1010
0000
0000
0000
0000
0000
1010
0000
0000
0000
0000
0010
0100
0000
0000
0001
0000
0000
0010
0000
0000
0100
0000
0000
,  // measure 47
1000
0100
0001
1000
0010
0001
1000
0000
,  // measure 48
0011
0000
0000
0000
0000
0000
0011
0000
0000
0000
0000
0010
0100
0000
0000
1000
0000
0000
0010
0000
0000
0100
0000
0000
,  // measure 49
1001
0000
1001
0000
1001
0011
0000
0000
,  // measure 50
1001
0000
0000
0001
0000
0000
0100
0000
0000
0100
0000
0000
0010
0000
0000
1000
0000
0100
0000
0000
0010
0000
0000
0001
,  // measure 51
0100
0000
0000
0100
0000
0000
0010
0000
0000
0010
0000
0000
0100
0000
0000
0001
0000
1000
0000
0000
0100
1000
0000
0000
,  // measure 52
0001
0100
1000
0001
0010
1000
0001
0100
,  // measure 53
0101
0000
0010
0100
1001
0000
1100
0000
,  // measure 54
1001
0000
0000
0001
0000
0000
0010
0000
0000
0010
0000
0000
0100
0000
0000
1000
0000
0010
0000
0000
0100
0000
0000
0001
,  // measure 55
1000
0100
0001
0100
1100
0000
0010
0100
,  // measure 56
1001
0000
0000
0000
0000
0000
0001
0000
0000
0100
0000
0000
1000
0000
0000
0100
0000
0001
0000
0000
0000
0010
0000
0000
,  // measure 57
0100
0010
0001
1000
0010
1000
1001
0000
;

//---------------dance-single - ----------------
#NOTEDATA:;
#CHARTNAME:;
#STEPSTYPE:dance-single;
#DESCRIPTION:;
#CHARTSTYLE:;
#DIFFICULTY:Beginner;
#METER:1;
#RADARVALUES:0.064977,0.099121,0.034328,0.000000,0.000000,53.000000,49.000000,4.000000,0.000000,0.000000,0.000000,0.000000,0.000000,0.000000,0.064977,0.099121,0.034328,0.000000,0.000000,53.000000,49.000000,4.000000,0.000000,0.000000,0.000000,0.000000,0.000000,0.000000;
#CREDIT:;
#NOTES:
0000
0000
0000
0000
,
0000
0000
0000
0000
,
0000
0000
0000
0000
,
0000
0000
0000
0000
,
1001
0000
0000
0000
,
0001
0000
0000
0000
,
0100
0000
0000
0000
,
0010
0000
0000
0000
,
1000
0000
0000
0000
,
1000
0000
0000
0000
,
1001
0000
0000
0000
,
0001
0000
0000
0000
,
0100
0000
0000
0000
,
0001
0000
0000
0000
,
1000
0000
0000
0000
,
0100
0000
0000
0000
,
0010
0000
0000
0000
,
0001
0000
0000
0000
,
1000
0000
0000
0000
,
0100
0000
0000
0000
,
1000
0000
0000
0000
,
0010
0000
0000
0000
,
0100
0000
0000
0000
,
0010
0000
0000
0000
,
1000
0000
0000
0000
,
1001
0000
0000
0000
,
0001
0000
0000
0000
,
0010
0000
0000
0000
,
0001
0000
0000
0000
,
0100
0000
0000
0000
,
0010
0000
0000
0000
,
0010
0000
0000
0000
,
1000
0000
0000
0000
,
0100
0000
0000
0000
,
0010
0000
0000
0000
,
0000
0000
0000
0000
,
0010
0000
0000
0000
,
0000
0000
0000
0000
,
0010
0000
0000
0000
,
0000
0000
0000
0000
,
0010
0000
0000
0000
,
0000
0000
0000
0000
,
0010
0000
0000
0000
,
0000
0000
0000
0000
,
0010
0000
0000
0000
,
0000
0000
0000
0000
,
0010
0000
0000
0000
,
0000
0000
0000
0000
,
0010
0000
0000
0000
,
1001
0000
0000
0000
,
0001
0000
0000
0000
,
0010
0000
0000
0000
,
0100
0000
0100
0000
,
0100
0000
0000
0000
,
0010
0000
0000
0000
,
0001
0000
0000
0000
,
0100
0000
0000
0000
,
0010
0000
0000
1000
;
