#TITLE:LIFE SCROLLING;
#SUBTITLE:;
#ARTIST:HIROSHI WATANABE;
#TITLETRANSLIT:;
#SUBTITLETRANSLIT:;
#ARTISTTRANSLIT:;
#CREDIT:DigiMindAxel;
#BANNER:LIFE SCROLLING.png;
#BACKGROUND:LIFE SCROLLING-bg.png;
#LYRICSPATH:;
#CDTITLE:beatmania IIDX.png;
#MUSIC:LIFE SCROLLING.ogg;
#METERTYPE:DDR X;
#OFFSET:-7.550;
#SAMPLESTART:43.348;
#SAMPLELENGTH:12.000;
#SELECTABLE:YES;
#BPMS:0.000=134.000;
#STOPS:;
#BGCHANGES:;

//---------------dance-single - ----------------
#NOTES:
     dance-single:
     :
     Easy:
     3:
     0.175,0.201,0.008,0.173,0.000:
0002
0000
0000
0003
,
0020
0000
0000
0030
,
0200
0000
0000
0300
,
2000
0000
0000
3000
,
0002
0000
0000
0003
,
0200
0000
0000
0300
,
0020
0000
0000
0030
,
2000
0000
0000
3000
,
0002
0100
0000
0003
,
0200
0010
0000
0300
,
0002
1000
0000
0003
,
2000
0100
0000
3000
,
0001
1000
0001
0000
,
1000
0100
1000
0000
,
0001
0010
0001
0000
,
1000
0001
1000
0001
,
0100
0010
0100
0000
,
0010
1000
0010
0000
,
0100
0010
0100
0000
,
0001
1000
0001
1000
,
0002
0000
0013
0000
,
0200
0000
1300
0000
,
0020
0000
0130
0000
,
0001
1000
0001
1000
,
0200
0000
1300
0000
,
0020
0000
0130
0000
,
0002
0000
0013
0000
,
0100
0010
0100
0010
,
0100
0000
0000
0000
,
0100
0000
0000
0000
,
0100
0000
0000
0000
,
0100
0000
0000
0000
,
1001
0000
0000
0000
,
0001
0000
0000
0000
,
1000
0000
0001
0000
,
1000
0000
0000
0000
,
0100
0000
1000
0000
,
0100
0000
1000
0000
,
0010
0000
0100
0000
,
0010
0000
0100
0000
,
0001
0000
0010
0000
,
0001
0000
0010
0000
,
0100
0000
1000
0000
,
0100
1000
0100
1000
,
0010
0000
0100
0000
,
0010
0000
0100
0000
,
0001
0000
1000
0000
,
0001
1000
0001
1000
,
0001
0000
0010
0000
,
0001
0000
0010
0000
,
0100
0000
0010
0000
,
0100
0010
0100
0010
,
0100
0000
1000
0000
,
0100
0000
1000
0000
,
0001
0000
1000
0000
,
0001
1000
0001
1000
,
0001
0000
0100
0000
,
0001
0000
0100
0000
,
0010
0000
0100
0000
,
0010
0100
0010
0100
,
0020
0000
0000
0030
,
0200
0000
0000
0300
,
0002
0000
0000
0003
,
2000
0000
0000
3000
;

//---------------dance-single - ----------------
#NOTES:
     dance-single:
     :
     Medium:
     9:
     0.355,0.376,0.047,0.031,0.220:
1001
0000
0000
1000
0000
0000
0100
0000
,
0010
0000
0000
0010
0000
0000
0001
0000
,
0100
0000
0000
0100
0000
0000
0010
0000
,
1000
0000
0000
1000
0000
0000
0010
0000
,
0100
0000
0000
0100
0000
0000
0001
0000
0000
0001
0000
0000
0010
0000
0000
0000
,
0001
0000
0000
0001
0000
0000
0010
0000
0000
0000
0000
0000
0000
0000
0000
0000
,
0001
0000
0000
0001
0000
0000
0010
0000
0000
0010
0000
0000
0100
0000
0000
0000
,
1000
0000
0000
1000
0000
0000
0100
0000
0000
0000
0000
0000
0000
0000
0000
0000
,
1000
0000
0000
1000
0000
0000
0010
0000
0000
0010
0000
0000
0100
0000
0000
0000
,
0010
0000
0000
0010
0000
0000
1000
0000
0000
0000
0000
0000
0000
0000
0000
0000
,
0100
0000
0000
0100
0000
0000
0010
0000
0000
0010
0000
0000
0001
0000
0000
0000
,
0100
0000
0000
0100
0000
0000
0010
0000
0000
0000
0000
0000
0000
0000
0000
0000
,
1000
0100
1000
0000
0100
1000
0001
0000
,
0010
0001
0010
0000
0001
0010
0100
0000
,
0010
0001
0010
0000
0001
0010
0100
0000
,
1000
0010
0100
0001
0010
0001
0010
0001
,
1000
0100
1000
0000
0100
1000
0010
0000
,
0100
0010
0100
0000
0010
0100
0001
0000
,
0010
0001
0010
0000
0001
0010
0100
0000
,
1000
0100
0010
0001
0100
0001
0100
0001
,
1000
0000
0000
1000
0000
0000
0100
0000
0000
0100
0000
0000
0010
0000
0000
0000
,
0001
0000
0000
0001
0000
0000
0100
0000
0000
0000
0000
0000
0000
0000
0000
0000
,
0010
0000
0000
0010
0000
0000
0100
0000
0000
0100
0000
0000
0001
0000
0000
0000
,
1000
0100
0010
0001
0100
0010
0100
0000
,
0010
0000
0000
0010
0000
0000
1000
0000
0000
1000
0000
0000
0100
0000
0000
0000
,
0010
0000
0000
0010
0000
0000
0001
0000
0000
0000
0000
0000
0000
0000
0000
0000
,
0100
0000
0000
0100
0000
0000
0010
0000
0000
0010
0000
0000
1000
0000
0000
0000
,
0001
0010
0100
1000
0010
0100
0010
0000
,
2000
0000
0000
0000
,
3200
0000
0000
0000
,
0320
0000
0000
0000
,
0032
0000
0000
0000
,
1003
1000
0000
0000
0000
0000
0000
0000
,
0010
0010
0000
0000
0000
0000
0000
0000
,
1001
0000
0110
0000
,
1001
0000
0001
0000
1000
0001
1000
0100
,
1000
0000
0000
1000
0000
0000
1000
0000
0001
0000
0010
0000
0001
0000
0000
0000
,
0010
0000
0000
0010
0000
0000
0010
0000
0100
0000
1000
0000
0100
0000
0000
0000
,
1000
0000
0000
1000
0000
0000
1000
0000
0010
0000
0100
0000
0010
0000
0000
0000
,
0100
0001
0100
0001
1000
0100
0010
0001
,
1000
0000
0000
1000
0000
0000
1000
0000
0010
0000
0100
0000
0010
0000
0000
0000
,
0100
0000
0000
0100
0000
0000
0100
0000
0001
0000
0010
0000
0001
0000
0000
0000
,
0010
0000
0000
0010
0000
0000
0010
0000
0100
0000
1000
0000
0100
0000
0000
0000
,
0010
0001
0100
0010
1000
0001
1000
0001
,
0010
0000
0000
0010
0000
0000
0100
0000
0000
1000
0000
0000
0010
0000
0000
0000
,
0100
0000
0000
0100
0000
0000
0001
0000
0000
0000
0000
0000
0000
0000
0000
0000
,
0010
0000
0000
0010
0000
0000
0100
0000
0000
1000
0000
0000
0100
0000
0000
0000
,
0010
0001
0010
0100
1000
0001
0100
0001
,
1000
0000
0000
1000
0000
0000
0100
0000
0000
0010
0000
0000
0001
0000
0000
0000
,
0100
0000
0000
0100
0000
0000
0010
0000
0000
0000
0000
0000
0000
0000
0000
0000
,
0100
0000
0000
0100
0000
0000
0001
0000
0000
0010
0000
0000
0100
0000
0000
0000
,
0010
0001
0100
0010
1000
0100
1000
0100
,
0010
0000
0000
0010
0000
0000
0001
0000
0000
1000
0000
0000
0010
0000
0000
0000
,
0100
0000
0000
0100
0000
0000
0001
0000
0000
0000
0000
0000
0000
0000
0000
0000
,
0010
0000
0000
0010
0000
0000
0100
0000
0000
1000
0000
0000
0001
0000
0000
0000
,
0010
0100
1000
0001
1000
0010
1000
0000
,
1001
0000
0000
0001
0000
0000
0100
0000
0000
0010
0000
0000
1000
0000
0000
0000
,
0100
0000
0000
0100
0000
0000
0010
0000
0000
0000
0000
0000
0000
0000
0000
0000
,
0100
0000
0000
0100
0000
0000
1000
0000
0000
0010
0000
0000
0100
0000
0000
0000
,
0001
0100
0001
1000
0100
0010
0100
0000
,
1010
0000
0000
0010
0000
0000
0010
0000
0000
0010
0000
0000
0010
0000
0000
0000
,
0100
0000
0000
0100
0000
0000
0100
0000
0000
0100
0000
0000
0100
0000
0000
0000
,
0001
0000
0000
0001
0000
0000
0001
0000
0000
0001
0000
0000
0001
0000
0000
0000
,
0010
0000
0000
0010
0000
0000
0010
0000
0000
0010
0000
0000
0010
0000
0000
0000
;

//---------------dance-single - ----------------
#NOTES:
     dance-single:
     :
     Hard:
     13:
     0.573,0.553,0.236,0.386,0.677: // measure 1
0110
0000
0000
0100
0000
0000
0100
0000
0000
0100
0000
0000
0100
0000
0000
0000
,  // measure 2
0010
0000
0000
0010
0000
0000
0010
0000
0000
0010
0000
0000
0010
0000
0000
0000
,  // measure 3
1000
0000
0000
1000
0000
0000
1000
0000
0000
1000
0000
0000
1000
0000
0000
0000
,  // measure 4
0001
0000
0000
0001
0000
0000
0001
0000
0000
0001
0000
0000
0001
0000
0000
0000
,  // measure 5
0020
0000
0000
0001
0000
0000
0032
0000
0000
1000
0000
0000
1003
0000
0000
0000
,  // measure 6
0020
0000
0000
1000
0000
0000
2000
0000
0000
0000
0000
0000
3030
0000
0000
0000
,  // measure 7
0200
0000
0000
0010
0000
0000
0320
0000
0000
1000
0000
0000
1030
0000
0000
0000
,  // measure 8
0002
0000
0000
0010
0000
0000
0020
0000
0000
0000
0000
0000
0033
0000
0000
0000
,  // measure 9
0200
0000
0000
1000
0000
0000
0320
0000
0000
0001
0000
0000
0130
0000
0000
0000
,  // measure 10
2000
0000
0000
0100
0000
0000
0002
0000
0000
0000
0000
0000
3003
0000
0000
0000
,  // measure 11
0002
0000
0000
0100
0000
0000
2003
0000
0000
0100
0000
0000
3001
0000
0000
0000
,  // measure 12
0200
0000
0000
0010
0000
0000
0020
0000
0000
0000
0000
0000
0330
0000
0000
0000
,  // measure 13
1000
0000
0000
0010
1000
0000
0001
0000
0010
0001
0000
0010
0001
0000
0000
0000
,  // measure 14
0010
0000
0000
0100
1000
0000
0001
0000
0100
0001
0000
0100
0001
0000
0000
0000
,  // measure 15
0010
0000
0000
0100
0010
0000
0001
0000
1000
0100
0000
1000
0100
0000
0000
0000
,  // measure 16
1000
0000
0100
0000
0001
0000
0100
0000
1000
0000
0000
0010
0100
0000
0001
0000
,  // measure 17
0010
0000
0000
0100
0010
0000
0001
0000
1000
0010
0000
1000
0010
0000
0000
0000
,  // measure 18
0100
0000
0000
0001
0010
0000
0001
0000
0100
0010
0000
0100
0010
0000
0000
0000
,  // measure 19
1000
0000
0000
0001
0010
0000
0001
0000
1000
0010
0000
1000
0010
0000
0000
0000
,  // measure 20
1000
0100
0001
0100
1000
0010
0100
0000
,  // measure 21
0020
0000
0000
1000
0000
0000
1030
0000
0000
0001
0010
0000
0002
0000
0000
0000
,  // measure 22
0203
0000
0000
0010
0000
0000
0310
0000
0000
1000
0100
0000
1000
0000
0000
0000
,  // measure 23
0200
0000
0000
0010
0000
0000
0310
0000
0000
0001
0100
0000
0002
0000
0000
0000
,  // measure 24
0103
0000
0001
0000
0010
0000
1000
0000
0010
0000
0000
0001
1000
0000
0100
0000
,  // measure 25
0011
0000
0000
0011
0000
0000
0011
0000
0000
0100
0000
0000
1000
0000
0000
0000
,  // measure 26
1010
0000
0000
1010
0000
0000
1010
0000
0000
0100
0000
0000
0001
0000
0000
0000
,  // measure 27
0110
0000
0000
0110
0000
0000
0110
0000
0000
1000
0000
0000
0100
0000
0000
0000
,  // measure 28
0010
0000
0000
0001
0100
0000
0010
0000
0100
0000
0000
0001
1000
0000
0000
0000
,  // measure 29
0100
1000
0000
0100
1000
0000
0100
1000
0000
0100
1000
0100
1000
0000
0000
0000
,  // measure 30
0010
0100
0000
0010
0100
0000
0010
0100
0000
0010
0100
0010
0100
0000
0000
0000
,  // measure 31
0001
0010
0000
0001
0010
0000
0001
0010
0000
0001
0010
0001
0010
0000
0000
0000
,  // measure 32
0100
0010
0000
0100
0010
0000
0100
0010
0000
0100
0010
0100
0010
0000
0000
0000
,  // measure 33
1001
1001
0000
0000
0000
0000
0000
0000
,  // measure 34
0001
1000
0000
0000
0000
0000
0000
0000
,  // measure 35
1100
0000
0110
0000
,  // measure 36
0011
0000
0000
0000
0011
0000
0000
0000
0011
0000
0100
0000
1000
0001
1000
0001
,  // measure 37
1000
0010
0000
1000
0010
0000
0100
0001
0000
0100
0001
0100
0001
0000
0000
0000
,  // measure 38
0010
0100
0000
0010
0100
0000
1000
0010
0000
1000
0010
1000
0010
0000
0000
0000
,  // measure 39
1000
0001
0000
1000
0001
0000
0010
0100
0000
0010
0100
0010
0100
0000
0000
0000
,  // measure 40
0010
0001
0000
0100
0010
0000
1000
0100
0000
1000
0001
1000
0001
0000
0000
0000
,  // measure 41
0010
0001
0000
1000
0001
0000
0010
0001
0000
1000
0001
0010
0001
0000
0000
0000
,  // measure 42
0010
0100
0000
1000
0001
0000
0010
0100
0000
1000
0010
0100
0010
0000
0000
0000
,  // measure 43
0100
0001
0000
1000
0001
0000
0100
0001
0000
1000
0001
0100
0001
0000
0000
0000
,  // measure 44
1000
0100
0000
0010
0100
0000
0010
0001
0000
1000
0010
0100
0010
0000
0000
0000
,  // measure 45
1001
0000
0000
0001
0010
0000
0001
0000
1000
0010
0000
0100
0001
0000
0000
0000
,  // measure 46
1000
0000
0000
1000
0100
0000
1000
0000
0001
0100
0000
0010
1000
0000
0000
0000
,  // measure 47
0100
0000
0000
0100
0010
0000
0001
0000
1000
0010
0000
0100
0001
0000
0000
0000
,  // measure 48
0010
0100
0000
0100
1000
0000
1000
0001
0000
0001
0010
0100
0010
0000
0000
0000
,  // measure 49
1001
0000
0000
0001
0100
0000
0001
0000
1000
0100
0000
0010
0001
0000
0000
0000
,  // measure 50
1000
0000
0000
1000
0010
0000
1000
0000
0001
0010
0000
0100
1000
0000
0000
0000
,  // measure 51
0010
0000
0000
0010
0100
0000
0010
0000
1000
0100
0000
0010
0001
0000
0000
0000
,  // measure 52
1000
0001
0000
0001
0010
0000
0010
0100
0000
0100
1000
0001
1000
0000
0000
0000
,  // measure 53
1002
0000
0000
1000
0000
0000
0100
0000
0000
0100
0000
0000
0013
0000
0000
0000
,  // measure 54
1100
0000
0000
1001
0000
0000
0022
0000
0000
0000
0000
0000
0033
0000
0000
0000
,  // measure 55
2001
0000
0000
0001
0000
0000
0100
0000
0000
0100
0000
0000
3010
0000
0000
0000
,  // measure 56
0100
0001
0000
0001
1000
0000
1000
0100
0000
0100
0010
0001
0010
0000
0000
0000
,  // measure 57
1002
0000
0000
1000
0000
0000
0010
0000
0000
0010
0000
0000
0103
0000
0000
0000
,  // measure 58
1010
0000
0000
1001
0000
0000
0202
0000
0000
0000
0000
0000
0303
0000
0000
0000
,  // measure 59
2001
0000
0000
0001
0000
0000
0010
0000
0000
0010
0000
0000
3100
0000
0000
0000
,  // measure 60
0010
0001
0000
0001
1000
0000
1000
0010
0000
0010
0100
0001
0100
0000
0000
0000
,  // measure 61
1002
0000
0000
0023
0000
0000
0230
0000
0000
0320
0000
0000
0032
0000
0000
0003
,  // measure 62
2000
0000
0000
3020
0000
0000
0230
0000
0000
0320
0000
0000
2030
0000
0000
3000
,  // measure 63
0002
0000
0000
0203
0000
0000
2300
0000
0000
3200
0000
0000
0302
0000
0000
0003
,  // measure 64
2000
0000
0000
3020
0000
0000
0032
0000
0000
0023
0000
0000
2030
0000
0000
3000
;

//---------------dance-single - ----------------
#NOTES:
     dance-single:
     :
     Beginner:
     1:
     0.071,0.118,0.039,0.000,0.000:
0001
0000
0000
0000
,
0010
0000
0000
0000
,
0100
0000
0000
0000
,
1000
0000
0000
0000
,
0001
0000
0000
0000
,
0010
0000
0000
0000
,
0100
0000
0000
0000
,
1000
0000
0000
0000
,
0001
0000
0000
0000
,
0100
0000
0000
0000
,
0010
0000
0000
0000
,
1000
0000
0000
0000
,
0001
0000
0000
0000
,
0001
0000
0000
0000
,
1000
0000
0000
0000
,
1000
0000
0000
0000
,
0100
0000
0000
0000
,
0100
0000
0000
0000
,
0010
0000
0000
0000
,
0010
0000
0000
0000
,
0001
0000
0000
0000
,
0100
0000
0000
0000
,
0010
0000
0000
0000
,
0100
0000
0000
0000
,
0001
0000
0000
0000
,
1000
0000
0000
0000
,
0100
0000
0000
0000
,
0010
0000
0000
0000
,
0100
0000
0000
0000
,
0000
0000
0000
0000
,
0000
0000
0000
0000
,
0000
0000
0000
0000
,
1001
0000
0000
0000
,
0000
0000
0000
0000
,
1001
0000
1000
0000
,
1000
0000
0000
0000
,
0001
0000
0000
0000
,
0010
0000
0000
0000
,
0100
0000
0000
0000
,
0010
0000
0000
0000
,
0001
0000
0000
0000
,
0100
0000
0000
0000
,
0010
0000
0000
0000
,
0100
0000
0000
0000
,
0001
0000
0000
0000
,
1000
0000
0000
0000
,
0100
0000
0000
0000
,
0010
0000
0000
0000
,
0100
0000
0000
0000
,
1000
0000
0000
0000
,
0001
0000
0000
0000
,
0100
0000
0000
0000
,
0110
0000
0000
0000
,
0100
0000
0000
0000
,
0010
0000
0000
0000
,
0010
0000
0000
0000
,
1001
0000
0000
0000
,
1000
0000
0000
0000
,
0001
0000
0000
0000
,
0001
0000
0000
0000
,
0110
0000
0000
0000
;
