#TITLE:L.F.O;
#SUBTITLE:;
#ARTIST:aran;
#TITLETRANSLIT:;
#SUBTITLETRANSLIT:;
#ARTISTTRANSLIT:;
#CREDIT:DigiMindAxel;
#BANNER:L.F.O.png;
#BACKGROUND:L.F.O-bg.png;
#LYRICSPATH:;
#CDTITLE:beatmania IIDX.png;
#MUSIC:L.F.O.ogg;
#METERTYPE:DDR X;
#OFFSET:-0.510;
#SAMPLESTART:76.146;
#SAMPLELENGTH:12.000;
#SELECTABLE:YES;
#BPMS:0.000=180.000;
#STOPS:;
#BGCHANGES:-4.000=L.F.O.avi=1.000=1=1=0,
99999=-nosongbg-=1.000=0=0=0 // don't automatically add -songbackground-
;

//---------------dance-single - ----------------
#NOTES:
     dance-single:
     :
     Easy:
     5:
     0.267,0.319,0.039,0.156,0.000: // measure 1
0000
0000
0000
0000
,  // measure 2
0000
0000
0000
0000
,  // measure 3
0000
0000
0000
0000
,  // measure 4
0000
0000
0000
0000
,  // measure 5
0000
0000
0000
0000
,  // measure 6
0000
0000
0000
0000
,  // measure 7
0000
0000
0000
0000
,  // measure 8
0000
0000
0000
0000
,  // measure 9
0000
0000
0000
0000
,  // measure 10
0002
0000
1000
0000
,  // measure 11
1000
0000
1000
0000
,  // measure 12
2003
0000
0100
0000
,  // measure 13
0100
0000
0100
0000
,  // measure 14
3020
0000
0100
0000
,  // measure 15
0100
0000
0100
0000
,  // measure 16
0230
0000
0001
0000
,  // measure 17
0301
0000
0000
0000
,  // measure 18
0100
0010
0100
0010
,  // measure 19
1000
0100
1000
0100
,  // measure 20
1000
0001
1000
0001
,  // measure 21
0100
0010
0100
0010
,  // measure 22
1000
0100
0010
0001
,  // measure 23
1000
0001
1000
0001
,  // measure 24
1000
0010
0100
0001
,  // measure 25
0100
0010
0010
0010
,  // measure 26
1000
0100
0010
0100
,  // measure 27
1000
0100
0010
0100
,  // measure 28
1000
0001
0100
0001
,  // measure 29
1000
0001
0100
0001
,  // measure 30
1000
0010
0100
0001
,  // measure 31
1000
0010
0100
0001
,  // measure 32
1000
0100
0010
0001
,  // measure 33
2000
0000
0000
3000
,  // measure 34
2002
0000
0000
3000
,  // measure 35
0020
0000
0000
0030
,  // measure 36
2000
0000
0000
3000
,  // measure 37
0020
0000
0000
0033
,  // measure 38
2002
0000
0000
0003
,  // measure 39
0200
0000
0000
0300
,  // measure 40
0002
0000
0000
0203
,  // measure 41
0000
0000
0000
3300
,  // measure 42
1001
0000
0000
0000
,  // measure 43
0000
0000
0000
0000
,  // measure 44
0001
0000
0000
0000
,  // measure 45
0000
0000
0000
0000
,  // measure 46
0100
0000
0000
0000
,  // measure 47
0010
0000
0000
0000
,  // measure 48
1000
0000
0000
0000
,  // measure 49
0010
0000
0100
0000
,  // measure 50
0010
0000
0010
0000
,  // measure 51
1000
0000
1000
0000
,  // measure 52
0001
0000
0001
0000
,  // measure 53
0010
0000
0010
0000
,  // measure 54
0001
1000
0001
1000
,  // measure 55
0100
0010
0001
1000
,  // measure 56
0010
0100
0001
1000
,  // measure 57
0100
0000
0000
0000
,  // measure 58
1000
1000
1000
1000
,  // measure 59
0100
0010
0001
0100
,  // measure 60
0010
0010
0100
0100
,  // measure 61
0001
0001
1000
1000
,  // measure 62
0100
0010
0100
0010
,  // measure 63
0001
0100
0010
1000
,  // measure 64
0100
0100
1000
1000
,  // measure 65
0001
0001
0100
0100
,  // measure 66
0010
0100
0010
0100
,  // measure 67
0001
0001
0001
0001
,  // measure 68
0010
0100
1000
0010
,  // measure 69
0100
0001
1000
0100
,  // measure 70
0010
0001
0010
0001
,  // measure 71
0100
0100
0100
0100
,  // measure 72
0010
1000
0100
0010
,  // measure 73
0001
0000
0000
0000
,  // measure 74
1001
0000
0000
0000
,  // measure 75
0000
0100
0100
0100
,  // measure 76
0000
0000
0000
0000
,  // measure 77
0000
0010
0010
0010
,  // measure 78
1000
0001
1000
0001
,  // measure 79
0100
0010
0100
0010
,  // measure 80
1000
0100
0010
0001
,  // measure 81
1000
0000
0000
0000
,  // measure 82
0200
0000
1000
0000
,  // measure 83
1300
0010
0100
0001
,  // measure 84
0020
0000
0001
0000
,  // measure 85
0031
1000
0100
0010
,  // measure 86
0002
0000
0100
0000
,  // measure 87
0100
0000
0100
0000
,  // measure 88
0103
0010
1000
0100
,  // measure 89
0010
0000
0000
0000
,  // measure 90
2002
0000
0000
0000
,  // measure 91
0000
0000
0000
0000
,  // measure 92
3003
0000
0000
0000
;

//---------------dance-single - ----------------
#NOTES:
     dance-single:
     :
     Medium:
     11:
     0.456,0.568,0.226,0.101,0.000:
0000
0000
0000
0000
,
0000
0000
0000
0000
,
0000
0000
0000
0000
,
0000
0000
0000
0000
,
0000
0000
0000
0000
,
0000
0000
0000
0000
,
0000
0000
0000
0000
,
0000
0000
0000
0000
,
0000
0000
0000
0000
,
1000
0100
0001
0100
,
1000
0100
0010
0100
,
1000
0010
0001
0010
,
1000
0100
0010
0001
,
1000
0010
0001
0010
,
1000
0100
0010
0001
,
1000
0100
0001
0100
,
2000
0000
3000
0000
,
0001
1000
0100
0000
1000
0100
1000
0000
,
0100
0010
0001
0000
0100
0010
0100
0000
,
0010
1000
0100
0000
1000
0100
1000
0000
,
0100
0010
0001
0000
0010
0001
0010
0000
,
0100
1000
0010
0000
1000
0010
1000
0000
,
0010
0100
0001
0000
1000
0100
1000
0000
,
0001
0010
0100
0000
1000
0100
1000
0000
,
0002
1000
1000
1003
,
0001
0100
0001
0100
0001
0100
0010
0000
,
0100
0010
0100
0010
0100
0010
1000
0000
,
0001
1000
0001
1000
0001
0100
0010
0000
,
1000
0001
1000
0001
1000
0100
0010
0000
,
0100
1000
0100
1000
0100
1000
0010
0000
,
0100
0001
0100
0001
0100
0001
1000
0000
,
0100
1000
0100
1000
0010
0100
0010
0100
,
0002
0000
0000
0003
,
1001
0100
0010
0001
,
1000
0000
0001
0100
,
0001
0010
0100
1000
,
0010
0000
0100
0010
,
0100
0001
0010
0100
,
1000
0000
0100
1000
,
0010
0100
0001
0010
,
0002
0000
0000
0003
,
1001
0000
1000
0000
,
1000
0100
0010
0001
,
0010
0000
0010
0000
,
0010
0001
0100
0010
,
1000
0000
1000
0000
,
1000
0100
0010
0100
,
1000
0000
1000
0000
,
1000
0001
1000
0100
,
0020
0001
0001
0031
,
0200
0010
0010
0310
,
2000
0100
0100
3100
,
0020
0001
0001
0031
,
1000
0100
0010
0000
0100
1000
0100
0000
,
0010
0001
0010
0000
0001
0010
0100
0000
,
1000
0001
0100
0000
0010
1000
0001
0000
,
2002
0000
0000
3003
,
0110
0110
0110
0110
,
1001
0000
1000
0100
0010
0001
0100
0000
,
1010
0000
0010
0100
0010
0000
0100
0001
,
0100
0001
1000
0100
0010
0000
0001
0000
,
0110
0110
0110
0110
,
1001
0000
1000
0010
0100
0001
0010
0000
,
0110
0000
0100
1000
0100
0000
0010
0001
,
0010
0001
0100
0000
0100
0000
0100
0000
,
0000
1001
1001
1001
,
0110
0000
0010
0100
0001
0010
0100
0000
,
1100
0000
0010
0001
0010
0000
0100
0010
,
0100
1000
0010
0100
0010
0000
1000
0000
,
1001
1001
1001
1001
,
0110
0000
0010
1000
0100
0010
0001
0000
,
0011
0000
0100
1000
0100
0010
0001
0100
,
0010
0100
0100
0100
,
0110
0000
0000
0000
,
0000
0001
0001
0001
,
0000
0000
0000
0000
,
0000
1000
1000
1000
,
0011
0000
0100
0000
1000
0000
0010
0100
,
0001
0100
0100
0100
,
0010
0000
1000
0000
0100
0010
0001
0010
,
0200
0010
0010
0310
,
0001
1000
0100
0000
0010
0100
0010
0000
,
0001
1000
0100
1000
0001
0000
0100
0000
,
0010
1000
0100
0000
0010
0001
0010
0000
,
0100
1000
0001
1000
0100
0000
0010
0000
,
0001
0100
0001
0100
,
0001
0100
0001
0100
,
0010
1000
0100
0010
0001
1000
0100
0010
,
0001
0100
1000
0100
,
2002
0000
0000
0000
,
0000
0000
0000
0000
,
3003
0000
0000
0000
;

//---------------dance-single - ----------------
#NOTES:
     dance-single:
     :
     Hard:
     13:
     0.602,0.639,0.156,0.452,0.078:
0000
0000
0000
0000
,
0000
0000
0000
0000
,
0000
0000
0000
0000
,
0000
0000
0000
0000
,
0000
0000
0000
0000
,
0000
0000
0000
0000
,
0000
0000
0000
0000
,
0000
0000
0000
0000
,
0000
0000
0000
0000
,
2000
0000
0001
0000
0010
0000
3001
1000
,
0100
0000
0000
0010
0001
1000
0010
0100
,
0002
1000
0100
1000
,
0100
0000
1000
0000
0100
0000
1003
0001
,
0200
0000
0001
0000
0010
0000
0301
1000
,
0100
0000
0000
0010
0001
1000
0010
0100
,
0020
1000
0100
1000
,
0130
0001
0001
1001
,
0001
0000
0100
0000
0001
0000
1000
0000
0000
0100
1000
0000
0000
0010
0100
0000
,
0001
0000
1000
0000
0010
0000
0100
0000
0000
0010
1000
0000
0000
0001
0010
0000
,
0100
0000
0010
0000
0001
0000
1000
0000
0000
0010
1000
0000
0000
0010
0100
0000
,
0001
0000
1000
0000
0000
0100
1000
0000
0000
0010
0100
0000
0001
0000
1000
0000
,
0100
0000
0010
0000
0001
0000
1000
0000
0000
0010
1000
0000
0000
0001
0010
0000
,
0100
0000
0010
0000
0001
0000
1000
0000
0000
0010
0100
0000
0000
0001
0100
0000
,
0010
0000
1000
0000
0100
0000
0010
0000
0000
0001
1000
0000
0000
0010
1000
0000
,
0001
0010
0010
0011
,
0100
1000
0001
0001
0100
0001
1000
1000
,
0100
1000
0001
0001
0100
0001
1000
1000
,
0100
0010
0100
0100
0010
0001
0100
0100
,
0010
1000
0200
0000
0320
0000
0032
0000
,
1003
0100
0020
0000
0031
0010
0200
0000
,
1300
0010
0200
0000
0301
0100
0020
0000
,
1030
0100
0001
0100
1000
0010
0001
0010
,
2000
0000
0000
3000
,
1002
2003
3002
2003
,
3200
0320
0230
0320
,
0032
0203
0302
0203
,
0320
2030
3020
2030
,
3002
0023
2030
3020
,
0032
0203
2300
3200
,
0302
0023
0230
2300
,
3020
0000
0000
0030
,
1002
1000
1000
0000
,
0103
0100
0200
0000
0010
0000
0310
0000
,
2000
0100
0100
3100
,
0010
0010
0020
0000
0001
0000
0031
0000
,
0200
0010
0010
0310
,
1000
1000
2000
0000
0100
0000
3100
0000
,
0020
0001
0001
0031
,
0200
0320
0230
0310
,
1000
0100
0010
0000
0010
0001
0100
0000
,
0010
1000
0100
0000
0100
0010
0001
0000
,
0010
0001
0100
0000
0100
0010
1000
0000
,
0001
0010
0100
0000
0100
1000
0010
0000
,
0100
0001
1000
0100
0001
0100
1000
0001
,
0010
0100
1000
0001
0010
1000
0010
0001
,
1000
0010
0100
0001
0100
1000
0100
0001
,
0220
0000
0000
0330
,
0001
1000
0100
1000
0001
1000
0100
1000
,
0010
0000
0010
0100
0001
0010
0100
1000
,
1001
0000
0100
1000
1001
0000
0100
1000
,
0001
0010
1000
0010
0001
0100
0010
0010
,
1000
0001
0010
0001
1000
0001
0010
0001
,
0100
0000
0100
0010
1000
0100
0010
0001
,
1001
0000
0010
0001
1001
0000
0010
0001
,
1000
0010
0001
0010
1000
0100
0010
0000
,
0000
0001
0100
0010
0100
0001
0100
0010
,
1000
0000
1000
0010
0100
0001
0010
0100
,
1100
0000
0010
0100
1100
0000
0010
0100
,
1000
0010
0001
0010
1000
0100
0010
0010
,
0001
1000
0010
1000
0001
1000
0010
1000
,
0100
0000
0100
1000
0001
0010
1000
0010
,
0001
0000
0001
0000
1000
0000
0000
0100
0010
0000
0001
0000
0100
0000
0000
0000
,
1010
0010
0010
0110
,
1001
0000
0000
0000
,
0000
0010
0010
0011
,
0000
0000
0000
0000
,
0000
0100
0100
1100
,
1000
0000
0001
0000
0010
0000
0000
0000
0100
0000
0000
1000
0001
0000
0010
0000
,
0100
0000
1000
0000
0010
0000
0000
0000
0100
0000
0000
0001
0010
0000
0100
0000
,
1000
0010
0100
0010
1000
0100
0001
0100
,
1000
0100
0100
1100
,
0010
0000
0000
0001
1000
0000
0010
0000
1000
0000
0001
0000
1000
0000
0010
0000
,
0100
0001
0010
0010
0100
0100
1000
1000
,
0001
0100
0001
1000
0100
1000
0001
0100
,
0001
0100
0010
0010
1000
1000
0100
0100
,
0011
0000
0000
0000
0001
0000
0000
0000
0010
0000
0000
0100
0000
0000
1000
0000
,
1010
0000
0000
0000
0010
0000
0000
0100
0001
0000
0010
0000
0100
0000
1000
0000
,
0001
0100
0001
1000
0010
0001
0010
1000
,
0200
0320
0032
0103
,
0220
0000
0000
0000
,
0000
0000
0000
0000
,
0330
0000
0000
0000
;

//---------------dance-single - ----------------
#NOTES:
     dance-single:
     :
     Challenge:
     16:
     0.820,1.000,0.179,0.328,0.546:
0000
0000
0000
0000
,
0000
0000
0000
0000
,
0000
0000
0000
0000
,
0000
0000
0000
0000
,
0000
0000
0000
0000
,
0000
0000
0000
0000
,
0000
0000
0000
0000
,
0000
0000
0000
0000
,
0000
0000
0000
0000
,
0001
1000
0100
1000
0000
1000
0010
0100
,
0000
0100
0001
0010
0000
0010
0001
0010
,
0100
1000
0010
0100
0000
0100
0001
0100
,
0000
0100
0001
0010
0000
0010
0100
0010
,
0001
1000
0100
0010
0000
0010
0001
0010
,
0000
0010
0100
1000
0001
0100
1000
0100
,
0001
1000
0001
0000
1000
0100
1000
0000
0001
0010
0001
0000
1000
0001
1000
0001
,
1000
1100
0110
0011
,
0001
0000
1000
0000
0010
0000
1000
0000
0001
0010
0100
0000
1000
0100
0010
0000
,
0100
0000
1000
0000
0010
0000
0100
0000
0010
1000
0100
0000
0010
0001
0100
0000
,
0010
0000
1000
0000
0100
0000
0010
0000
0100
1000
0010
0000
0100
0001
0010
0000
,
0100
0000
1000
0000
0001
0010
0100
0000
0010
0100
1000
0000
0010
0000
0010
0000
,
1001
0000
1000
0000
0010
0000
0100
0000
0001
1000
0100
0000
0010
0001
1000
0000
,
0100
0000
0010
0000
0100
0000
1000
0000
0010
1000
0001
0000
0010
0001
1000
0000
,
0100
0000
0010
0000
0100
0000
1000
0000
0010
0100
0001
0000
0100
0010
1000
0000
,
0010
0101
0110
1010
,
1000
0000
0100
0000
0010
0100
0010
0000
0001
0000
0010
0000
0100
0010
0100
0000
,
1000
0000
0010
0000
0100
0010
0100
0000
0001
0000
0100
0000
0010
0100
0010
0000
,
1000
0000
0100
0000
0010
0100
0010
0000
0001
0000
0010
0000
0100
0010
0100
0000
,
1000
0000
0010
0000
0100
0001
1000
0000
0100
0010
0100
0000
0010
0001
1000
0000
,
0200
0010
0310
0001
0200
0010
0310
1000
,
0200
1000
1300
0010
0002
0100
0103
0010
,
1000
0001
1000
0000
0001
0010
0001
0000
1000
0100
1000
0100
0010
0001
0010
0001
,
2000
0000
0000
0010
0000
0010
3010
0000
,
0100
0001
0010
0100
0000
0010
0100
1000
,
0000
0001
0010
0100
0000
0010
0100
1000
,
0001
1000
0010
0100
0000
0010
0100
0001
,
0000
1000
0010
0100
0000
0010
0100
0001
,
1000
0100
0010
0001
0000
1000
0010
0100
,
0000
0001
0100
0010
0000
1000
0100
0010
,
0001
1000
0010
0100
0000
0010
0100
0001
,
2000
0000
0000
0000
0001
0000
0000
0001
0000
0000
0001
0000
0000
0000
3001
0000
,
0200
0000
0000
0000
0320
0000
0000
0000
0230
0000
0000
0302
0000
0000
1003
0000
,
0001
0000
0010
0000
0100
0000
0000
0000
0020
0000
0000
0032
0000
0000
1003
0000
,
0020
0000
0000
0000
0230
0000
0000
0000
0320
0000
0000
2030
0000
0000
3001
0000
,
0010
0000
0100
0000
0010
0000
0001
0000
0100
0000
0010
0100
0000
0010
0100
0000
,
0002
0000
0000
0000
0023
0000
0000
0000
2030
0000
0000
3020
0000
0000
0031
0000
,
1000
0000
0100
0000
0010
0000
0000
0000
0200
0000
0000
2300
0000
0000
3001
0000
,
2000
0000
0000
0000
3200
0000
0000
0000
0302
0000
0000
0203
0000
0000
1300
0000
,
0001
0000
0100
0000
0010
0000
0000
0000
1000
0000
0010
0100
0010
0100
0001
1000
,
0100
0000
0010
0100
0010
0000
0000
0000
0001
0000
1000
0000
0100
0000
0010
0000
,
0001
0000
1000
0010
1000
0000
0000
0000
0001
0000
0010
0000
0100
0000
0010
0001
,
0020
0000
0000
0031
0000
0000
0100
0010
0200
0000
0000
0310
0000
0000
1000
0100
,
2000
0000
0000
3100
0000
0000
0010
0100
0020
0000
0000
0130
0000
0000
0001
1000
,
0001
0000
1000
0010
1000
0000
0001
0100
0001
0000
1000
0001
1000
0000
0100
1000
,
0100
0000
0010
0001
0010
0000
0100
0010
0100
0000
1000
0010
1000
0000
0001
0100
,
0001
1000
0001
1000
0100
0010
0001
0100
0001
0100
0010
1000
0100
0010
0001
1000
,
0002
0000
0000
0003
,
1000
0001
1000
0000
0100
1000
0100
0000
1000
0001
1000
0000
0100
1000
0100
0000
,
0010
0000
0001
0000
1000
0000
0010
0000
0100
0000
0010
0000
1000
0100
0010
0000
,
0002
0000
0000
0000
1003
0100
0010
0000
0002
0000
0000
0000
1003
0100
1000
0000
,
0001
0010
0001
0000
0100
0000
0010
0000
1000
0000
0010
0000
0100
0000
0100
0000
,
0001
1000
0001
0000
0010
0001
0010
0000
0001
1000
0001
0000
0010
0001
0010
0000
,
0100
0000
1000
0000
0001
0000
0100
0000
0010
0000
0100
0000
0001
0010
0100
0000
,
2000
0000
0000
0000
3001
0010
0100
0000
2000
0000
0000
0000
3001
0100
0001
0000
,
1000
0010
1000
0000
1001
0000
0000
0000
0011
0000
0000
0000
1100
0000
0000
0000
,
0020
0000
0031
0000
0100
0010
0100
0000
0001
0100
0001
0000
0100
0010
0100
0000
,
0001
0000
1000
0000
0100
0000
0010
0000
0100
0000
1000
0000
0001
0100
0010
0000
,
2000
0000
0000
0000
3001
0100
0010
0000
2000
0000
0000
0000
3001
0010
0001
0000
,
1000
0100
1000
0000
0100
0000
0010
0000
0001
0000
0100
0000
0010
0000
0010
0000
,
1000
0001
1000
0000
0001
0010
0001
0000
1000
0001
1000
0000
0001
0010
0001
0000
,
1000
0000
0010
0000
0100
0000
0001
0000
0010
0100
1000
0000
0100
1000
0001
0000
,
0200
0000
0010
0000
0310
0000
0000
1000
0010
0000
0100
0000
0001
1000
0001
1000
,
0001
0011
0110
1100
,
1000
0001
0000
0010
0000
0100
0000
1000
,
0001
1001
1010
0101
,
0001
1000
0000
0100
0000
0010
0000
0001
,
1000
1100
0110
0011
,
0100
0000
1000
0000
0001
0000
1000
0000
0100
0000
0000
0010
0100
0000
1000
0000
,
0001
0000
0100
0000
0010
0000
0100
0000
0001
0000
0000
1000
0001
0000
0010
0000
,
0100
1000
0100
0000
1000
0001
1000
0000
0001
0100
0001
0100
0010
1000
0100
0010
,
0001
0101
1001
1010
,
1000
0001
1000
0010
0100
0000
0001
0000
0010
0000
0100
0000
0010
0001
0100
0000
,
0010
0000
1000
0000
0001
0010
0001
0000
0010
0100
0010
0000
0100
1000
0100
0000
,
0020
0000
0100
0000
0130
0000
0001
0010
0100
0000
0010
0000
0001
0000
1000
0010
,
0100
0000
0001
0000
0100
0001
0100
0000
0010
0100
0010
0000
1000
0010
1000
0000
,
0001
0010
0001
0010
0001
0000
1000
0000
0100
1000
0100
1000
0100
0000
0010
0000
,
0001
1000
0001
1000
0001
0000
0100
0000
0010
1000
0010
1000
0010
0000
0100
0000
,
0001
0100
0001
0100
0010
1000
0100
0010
0001
1000
0100
1000
0010
0100
0001
1000
,
0100
1000
0010
0100
0000
0100
0001
0010
,
2002
0000
0000
0000
,
0000
0000
0000
0000
,
3003
0000
0000
0000
;

//---------------dance-single - ----------------
#NOTES:
     dance-single:
     :
     Beginner:
     2:
     0.107,0.174,0.055,0.000,0.000:
0000
0000
0000
0000
,
0000
0000
0000
0000
,
0000
0000
0000
0000
,
0000
0000
0000
0000
,
0000
0000
0000
0000
,
1000
0000
0000
0000
,
1000
0000
0000
0000
,
1000
0000
1000
0000
,
1000
0000
0000
0000
,
0001
0000
0000
0000
,
0010
0000
0000
0000
,
0100
0000
0000
0000
,
1000
0000
0000
0000
,
0001
0000
0100
0000
,
0010
0000
0100
0000
,
0010
0000
0100
0000
,
0000
0000
0000
0000
,
0001
0000
0000
0000
,
1000
0000
0000
0000
,
0100
0000
0000
0000
,
0010
0000
0000
0000
,
0001
0000
0000
0000
,
0100
0000
0000
0000
,
0010
0000
0000
0000
,
0100
0000
0000
0000
,
0001
0000
1000
0000
,
0001
0000
0000
0000
,
1000
0000
0001
0000
,
1000
0000
0000
0000
,
0100
0000
1000
0000
,
0100
0000
0010
0000
,
0001
0000
0000
0000
,
1000
0000
0000
0000
,
1001
0000
0000
0000
,
0000
0000
0000
0000
,
0000
0000
0000
0000
,
0000
0000
0000
0000
,
0001
0000
0000
0000
,
0000
0000
0000
0000
,
0000
0000
0000
0000
,
0000
0000
0000
0000
,
1001
0000
0000
0000
,
0000
0000
0000
0000
,
0000
0000
0000
0000
,
0000
0000
0000
0000
,
0010
0000
0000
0000
,
0000
0000
0000
0000
,
0000
0000
0000
0000
,
0000
0000
0000
0000
,
0110
0000
0000
0000
,
0100
0000
0000
0000
,
0010
0000
0000
0000
,
0100
0000
0000
0000
,
0010
0000
0010
0000
,
0010
0000
0010
0000
,
0010
0000
0000
0000
,
1001
0000
0000
0000
,
1000
0000
0000
0000
,
0001
0000
0000
0000
,
1000
0000
0000
0000
,
0100
0000
0000
0000
,
0010
0000
0000
0000
,
0001
0000
0000
0000
,
0010
0000
0010
0000
,
0010
0000
0000
0000
,
0001
0000
0000
0000
,
1000
0000
0000
0000
,
0100
0000
0100
0000
,
0100
0000
0000
0000
,
0010
0000
0000
0000
,
0001
0000
0000
0000
,
1000
0000
1000
0000
,
0001
0000
0000
0000
,
1001
0000
0000
0000
,
0000
0000
0000
0000
,
1000
0000
0000
0000
,
0000
0000
0000
0000
,
1000
0000
0000
0000
,
0010
0000
0000
0000
,
0100
0000
0100
0000
,
0100
0000
0000
0000
,
0000
0001
0000
1000
,
0000
0001
0000
0010
,
0000
0001
0000
0010
,
0000
0100
0000
1000
,
0001
0000
0000
0000
,
1001
0000
0000
0000
,
0010
0000
0010
0000
,
0010
0000
0000
0000
,
0110
0000
0000
0000
;
