#TITLE:言ノ葉カルマ;
#SUBTITLE:;
#ARTIST:そらる・ろん×れるりり;
#TITLETRANSLIT:KOTONOHA KARMA;
#SUBTITLETRANSLIT:;
#ARTISTTRANSLIT:SORARU&LONxRERULILI;
#GENRE:;
#CREDIT:DigiMindAxel;
#BANNER:KOTONOHA KARMA.png;
#BACKGROUND:KOTONOHA KARMA-bg.png;
#LYRICSPATH:KOTONOHA KARMA.lrc;
#CDTITLE:maimai.png;
#MUSIC:KOTONOHA KARMA.ogg;
#OFFSET:-0.086000;
#SAMPLESTART:63.832001;
#SAMPLELENGTH:12.000000;
#SELECTABLE:YES;
#BPMS:0.000000=150.000000
;
#STOPS:
;
#BGCHANGES:-4.000=KOTONOHA KARMA.avi=1.000=1=0=0=StretchNoLoop==CrossFade==,
99999=-nosongbg-=1.000=0=0=0 // don't automatically add -songbackground-
;
#KEYSOUNDS:;
#ATTACKS:;

//---------------dance-single - ----------------
#NOTES:
     dance-single:
     :
     Easy:
     5:
     0.221101,0.305584,0.309541,0.112560,0.000000,220.000000,176.000000,44.000000,16.000000,0.000000,0.000000,0.221101,0.305584,0.309541,0.112560,0.000000,220.000000,176.000000,44.000000,16.000000,0.000000,0.000000:
0000
0000
0000
0000
,
0000
0000
0000
0000
,
0000
0000
0000
0000
,
0000
0000
0000
0000
,
1001
1000
1000
0001
,
0001
0000
0000
0000
,
1000
1000
0001
0001
,
0010
0100
1000
0000
,
0001
0001
1000
1000
,
0100
0010
0001
0000
,
1000
1000
0001
0001
,
0100
0010
1000
0000
,
1001
0000
0001
0000
,
1001
0000
0000
0000
,
1001
0000
1000
0000
,
1001
0000
0000
0000
,
0001
0100
0001
0000
,
1001
0000
0000
0000
,
1000
0010
1000
0000
,
1001
0000
0000
0000
,
0001
0001
1000
0100
,
0010
0000
0000
0000
,
0001
0001
1000
0010
,
0100
0000
0000
0000
,
0002
0000
0000
0000
,
0103
0000
0000
0000
,
0020
0000
0000
0000
,
0130
0010
1000
0100
,
0020
0000
0000
0000
,
0031
0000
0000
0000
,
0200
0000
0000
0000
,
0310
1000
0100
0010
,
0001
0000
1001
0000
,
1000
0001
1000
0000
,
0001
0000
1001
0000
,
1000
0001
1000
0000
,
0001
0000
1001
0000
,
1000
0001
1000
0000
,
0001
0000
1001
0000
,
1000
0001
1000
0000
,
0100
0000
0110
0000
,
1001
0000
0001
1000
,
0100
0000
0110
0000
,
1001
0000
0000
0000
,
0010
0000
0110
0000
,
1001
0000
0001
1000
,
0010
0000
0110
0000
,
1001
0000
0000
0000
,
0200
0000
0000
0300
,
0110
0000
0000
0000
,
2000
0000
0000
0000
,
3002
0000
0000
0000
,
0023
0000
0000
0000
,
0230
0000
0000
0000
,
2300
0000
0000
0000
,
3002
0000
0000
0000
,
0203
0000
0000
0000
,
0302
0000
0000
0000
,
1003
0000
0100
0010
,
0001
0000
1000
0010
,
0100
0000
0010
0100
,
0001
0000
0010
0100
,
1000
0000
0001
0010
,
0100
0000
0010
0100
,
1000
0000
0001
1000
,
0200
0000
0000
0000
,
2300
0000
0000
0000
,
3000
0000
0000
0000
,
1001
0000
0110
0000
,
1001
0000
0001
0010
,
1001
0000
0110
0000
,
1001
0000
0000
0000
,
1001
0000
0110
0000
,
1001
0000
1000
0100
,
1001
0000
0110
0000
,
1001
0000
0000
0000
,
1001
0000
0110
0000
,
1001
0000
1000
0010
,
1001
0000
0110
0000
,
1001
0000
0001
0100
,
1001
0000
0110
0000
,
1001
0000
1000
0100
,
1001
0000
0110
0000
,
1001
0000
0100
0001
,
0200
0000
0000
0000
,
0310
0000
0000
0000
,
1000
0000
0100
0000
0010
0000
0001
1000
;

//---------------dance-single - ----------------
#NOTES:
     dance-single:
     :
     Medium:
     10:
     0.423106,0.519866,0.253261,0.084420,0.010553,421.000000,385.000000,36.000000,12.000000,0.000000,0.000000,0.423106,0.519866,0.253261,0.084420,0.010553,421.000000,385.000000,36.000000,12.000000,0.000000,0.000000:
0000
0000
0000
0000
,
0000
0000
0000
0000
,
0000
0000
0000
0000
,
0000
0000
0000
0000
,
1001
0000
1000
0000
0001
0100
0001
0000
,
1000
0100
0010
0001
1000
0000
0000
0000
,
0100
0010
0100
0000
0100
1000
0100
0000
,
1000
0100
0010
0001
1000
0000
0000
0000
,
0010
0100
0010
0000
0010
1000
0010
0000
,
1000
0010
0100
0001
0010
0000
0000
0000
,
0100
0010
0100
0000
0100
1000
0100
0000
,
1000
0010
0100
0001
1000
0000
0000
0000
,
0001
0001
0100
0100
,
0110
0000
0000
0000
,
0010
0010
1000
1000
,
0100
0010
0001
0000
0010
0100
1000
0000
,
0010
0010
0100
0100
,
1001
0000
0000
0000
,
0001
0001
0010
0010
,
0001
0100
0010
0000
0100
0010
1000
0000
,
0100
1000
0100
0000
0100
0010
0100
0000
,
1000
0010
0100
0001
0010
0000
0000
0000
,
0100
0010
0100
0000
0100
1000
0100
0000
,
0010
0001
0100
0010
1000
0000
0000
0000
,
0001
0001
1000
1000
,
1100
0000
0000
0000
,
0010
0010
0001
0001
,
1000
0010
0100
0000
0010
0100
0001
0000
,
0010
0010
0100
0100
,
1100
0000
0000
0000
,
0010
0010
0001
0001
,
1000
0010
0100
0000
0010
0100
0001
0000
,
1100
0000
0010
0000
0110
0000
0100
0001
,
0100
0001
0100
0001
1000
0000
0000
0000
,
1001
0000
0001
0000
0101
0000
0100
0010
,
0100
0010
0100
0010
1000
0000
0000
0000
,
1100
0000
0100
0000
0110
0000
0010
0001
,
0010
0001
0010
0001
0100
0000
0000
0000
,
1010
0000
0010
0000
0110
0000
0100
0001
,
0100
0001
0100
0001
1000
0000
0000
0000
,
1100
0011
1100
0011
,
0110
0000
1001
0000
1000
0100
0010
0001
,
1000
1010
0010
0110
,
0100
0001
0010
0100
0000
0000
0000
0000
,
1010
0101
1010
0101
,
0110
0000
1001
0000
0001
0010
0100
1000
,
0001
0101
1010
1001
,
1000
0010
0100
0001
0010
0000
0100
1000
,
0020
0000
0000
0030
,
1001
0000
0000
1001
0000
0000
0000
0000
0000
0000
0000
0000
0000
0000
0000
0000
,
0002
0100
0000
0103
,
0020
1000
0000
1030
,
0002
0010
0000
0013
,
0200
1000
0000
1300
,
0020
0100
0000
0130
,
0002
0010
0000
0013
,
0200
0010
0000
0310
,
0002
1000
0000
1003
,
0001
0100
0001
0000
0100
0010
0100
0010
,
1000
0000
0100
0000
0010
0100
0010
0000
,
0001
0100
0001
0000
0100
0010
1000
0000
,
0010
0100
0010
0100
0001
0000
0010
0000
,
0100
0010
0100
0000
1000
0100
0010
0000
,
0001
0100
0001
0100
0010
0100
0010
0000
,
0100
0010
0100
0010
1000
0001
1000
0001
,
1000
1001
0001
1001
,
0220
0000
0000
0000
,
0330
0000
0000
0000
,
1000
0001
1000
0000
1000
0100
1000
0000
,
1000
0001
1000
0000
0001
0100
0010
0100
,
0001
0000
0010
0000
0100
1000
0100
0000
,
1000
0100
0010
0001
1000
0000
0000
0000
,
0010
0100
0010
0000
0010
1000
0010
0000
,
0010
0100
0010
0000
1000
0100
0010
0001
,
0100
0000
0001
1000
0001
0000
0010
0000
,
0100
0010
0001
1000
0010
0000
0000
0000
,
0100
0001
0100
0000
0100
0010
0100
0000
,
0100
0001
0100
0000
0001
0010
0100
1000
,
0010
0000
0100
0000
0001
1000
0001
0000
,
0010
0100
1000
0100
0010
0000
0001
0000
,
1000
0100
1000
0000
1000
0001
1000
0000
,
1000
0100
1000
0000
0001
0100
0010
1000
,
0100
0000
0010
0000
0001
0100
0010
0000
,
0100
0010
1000
0100
0010
0000
0001
1000
,
0002
0000
0000
0000
,
1003
0000
0000
1001
0000
0000
0000
0000
0000
0000
0000
0000
0000
0000
0000
0000
,
0001
0000
0000
0000
0010
0000
0000
0000
0100
0000
0000
0000
1000
0000
0001
0100
;

//---------------dance-single - ----------------
#NOTES:
     dance-single:
     :
     Hard:
     13:
     0.624107,0.703348,0.035175,0.189946,0.478381,621.000000,616.000000,5.000000,27.000000,0.000000,0.000000,0.624107,0.703348,0.035175,0.189946,0.478381,621.000000,616.000000,5.000000,27.000000,0.000000,0.000000:
0000
0000
0000
0000
,
0000
0000
0000
0000
,
0000
0000
0000
0000
,
0000
0000
0000
0000
,
1000
0000
0100
0000
1000
0001
0000
0100
0000
0000
0001
0000
0100
0000
0010
0000
,
1000
0000
0100
0000
1000
0001
0000
0200
0000
0000
0000
0000
0000
0000
0300
0000
,
0001
0000
1000
0000
0001
0010
0000
0100
0000
0000
1000
0000
0010
0000
0100
0000
,
0001
0000
1000
0000
0001
0010
0000
0200
0000
0000
0000
0000
0310
0000
0000
0000
,
0001
0000
0010
0000
0001
1000
0000
0010
0000
0000
0100
0000
0001
0000
0010
0000
,
0100
0000
0010
0000
0100
1000
0000
0020
0000
0000
0000
0000
0000
0000
0030
0000
,
0100
0000
0010
0000
0100
0001
0000
1000
0000
0000
0100
0000
1000
0000
0001
0000
,
0010
0000
0100
0000
0010
0001
0000
0020
0000
0000
0000
0000
0000
0000
0030
0000
,
0100
0000
0010
0000
0100
1000
0000
0001
0000
0000
0010
0000
0100
0000
1000
0000
,
1001
0000
0000
2002
0000
0000
0000
0000
0000
0000
0000
0000
3003
0000
0000
0000
,
0001
0000
0010
0000
0001
0100
0000
0010
0000
0000
0100
0000
0010
0000
1000
0000
,
0100
1000
0100
0000
0010
0100
0000
0010
0100
0000
1000
0000
0010
0000
0000
0000
,
1000
0000
0001
0000
1000
0100
0000
0010
0000
0000
0001
0000
0100
0000
0001
0000
,
1001
0000
0000
2002
0000
0000
0000
0000
0000
0000
0000
0000
3003
0000
0000
0000
,
1000
0000
0100
0000
1000
0001
0000
0100
0000
0000
0010
0000
1000
0000
0100
0000
,
0010
0100
0010
0000
0001
0100
0000
0001
0100
0000
0001
0000
1000
0000
0000
0000
,
0100
0000
1000
0000
0100
0010
0000
0001
0000
0000
1000
0000
0010
0000
0100
0000
,
0001
0000
0010
0000
0001
0100
0000
0020
0000
0000
0000
0000
0000
0000
0030
0000
,
1000
0000
0100
0000
0010
0001
0000
1000
0000
0000
0010
0000
1000
0000
0001
0000
,
0010
0000
0100
0000
1000
0010
0000
0220
0000
0000
0000
0000
0000
0330
0000
0000
,
0010
1000
0001
1000
0010
1000
0001
0010
,
0100
0010
0100
0020
0000
0000
0000
0001
0000
0001
0000
0000
0031
0000
0000
0000
,
0010
0001
1000
0001
0010
0001
1000
0100
,
0010
0100
0010
0000
0001
0100
0000
0001
0100
0000
0001
0000
1000
0000
0000
0000
,
0100
1000
0001
1000
0100
1000
0001
1000
,
0100
0010
0100
0020
0000
0000
0000
0001
0000
0001
0000
0000
0031
0000
0000
0000
,
0100
0010
0100
0001
0100
0010
0100
0001
,
1000
0100
1000
0000
0010
0100
0000
0010
0100
0000
0001
0000
1000
0000
0100
0000
,
0001
0000
1000
0010
0001
0000
1000
0100
,
0001
0000
1000
0000
0010
0000
0001
0000
1000
0000
0001
0020
0000
0000
0031
0000
,
1000
0000
0001
1000
0010
0000
1000
0100
,
0001
0000
1000
0000
0010
0000
0001
0000
1000
0000
0010
0200
0000
0000
0310
0000
,
1000
0000
0100
0010
0001
0000
1000
0100
,
0001
0000
1000
0000
0010
0000
0001
0000
1000
0000
0001
0020
0000
0000
0130
0000
,
1000
0000
0010
0100
0001
0000
1000
0100
,
0001
0100
1000
0001
1000
0000
0000
0001
,
0100
0000
0001
1000
0000
0000
0001
0000
0100
0000
0001
1000
0000
0000
0001
0000
,
0100
0000
0001
1000
0000
0000
0001
0000
0100
0000
1000
0000
0100
0000
0001
0000
,
0010
0000
0001
1000
0000
0000
0001
0000
0010
0000
0001
1000
0000
0000
0001
0000
,
0010
1000
0010
0001
0000
0100
0010
0100
,
0001
0000
0010
0001
0000
0000
0100
0000
0001
0000
0010
0001
0000
0000
0100
0000
,
0001
0000
0010
0001
0000
0000
1000
0000
0010
0000
0001
0000
0010
0000
1000
0000
,
0100
0000
0010
0100
0000
0000
1000
0000
0100
0000
0010
0100
0000
0000
1000
0000
,
0100
0001
0100
1000
0001
0010
0100
1000
,
0002
0100
0100
0103
,
0010
1000
0001
0010
0000
0000
0000
0000
0000
0000
0000
0000
0000
0000
0000
0000
,
0100
0000
0000
0100
0000
0000
0100
0000
1000
0000
0100
0000
0010
0000
0001
0000
,
0100
0000
0000
0100
0000
0000
0100
0000
0010
0000
1000
0000
0100
0010
0100
0010
,
0200
0000
0000
1000
0000
0000
1300
0000
0001
0000
0010
0000
0100
0000
1000
0010
,
1000
0000
0001
0010
0001
0000
0010
0000
0100
0000
1000
0000
0001
0000
0100
0000
,
0002
0000
0000
1000
0000
0000
1003
0000
0001
0000
0010
0000
0100
0000
1000
0000
,
0002
0000
0000
0010
0000
0000
0013
0000
0001
0000
0100
0000
0010
0000
0100
0001
,
2000
0000
0000
0010
0000
0000
3010
0000
1000
0000
0100
0000
0010
0100
0010
0100
,
0020
0000
0000
0001
0000
0000
0031
0000
1000
0000
0010
0000
0100
0000
0000
0000
,
0001
0000
0100
0001
0000
1000
0100
0000
1000
0001
1000
0000
0001
0010
0001
0000
,
0100
0010
0000
0000
1000
0001
0000
0100
0001
0000
1000
0100
0000
0000
1000
0001
,
1000
0001
1000
0000
0100
0000
0001
0000
0100
0000
1000
0000
0010
0000
0000
0000
,
0100
0001
0100
0000
0001
1000
0001
0000
0010
0000
0100
0000
2000
0000
0000
0000
,
3010
0000
1000
0000
0001
0010
0001
0010
0000
0100
1000
0000
0001
0000
0100
0000
,
0001
1000
0001
0000
1000
0100
1000
0000
0001
0000
0100
0000
0010
0000
0010
0000
,
1000
0001
1000
0000
0001
0100
0000
0010
0000
0000
1000
0000
0010
0000
0100
0000
,
0010
1000
0000
0010
1000
0000
0001
0010
0001
0000
0010
0000
0100
0000
1000
0000
,
0002
0000
0200
0000
,
0003
0000
0000
0000
0000
0000
0300
0001
,
1000
0000
0100
1000
0000
0000
0001
0000
1000
0000
0100
1000
0000
0000
0001
0000
,
1000
0000
0100
1000
0000
0000
0001
0000
1000
0000
0100
0000
0001
0000
0100
0000
,
1000
0000
0001
0100
0000
0000
0001
0000
1000
0000
0001
0100
0000
0000
0001
0000
,
1000
0000
0100
0000
0001
0000
0100
0000
1000
0001
1000
0000
0001
0010
0001
0000
,
1000
0000
0010
1000
0000
0000
0001
0000
1000
0000
0010
1000
0000
0000
0001
0000
,
1000
0000
0010
1000
0000
0000
0100
0000
0001
0000
0100
0000
1000
0001
1000
0000
,
0100
0000
0010
0001
0000
0000
1000
0000
0100
0000
0010
0001
0000
0000
1000
0000
,
0100
0001
0100
1000
0002
0000
0000
1003
,
0001
0000
0100
0010
0000
0000
1000
0000
0001
0000
0100
0010
0000
0000
1000
0000
,
0001
0000
0100
0010
0000
0000
1000
0000
0100
0000
0001
0000
0100
0000
1000
0000
,
0001
0000
0010
0100
0000
0000
1000
0000
0001
0000
0010
0100
0000
0000
1000
0000
,
0010
0000
0001
0000
0010
0000
1000
0000
0001
0010
0001
0000
1000
0001
1000
0000
,
0010
0000
0100
0010
0000
0000
1000
0000
0010
0000
0100
0010
0000
0000
1000
0000
,
0010
0000
0100
0010
0000
0000
1000
0000
0100
0000
0001
0000
0100
0000
1000
0000
,
0001
0000
0010
0100
0000
0000
1000
0000
0001
0000
0010
0100
0000
0000
1000
0000
,
0010
0000
0001
0000
0010
0000
1000
0000
0001
0010
0001
0000
0100
0010
0100
0000
,
0002
1000
1000
1003
,
0001
0010
0001
0100
0000
0000
0000
0000
0000
0000
0000
0000
0000
0000
0000
0000
,
0010
0000
1000
0000
0100
0000
0010
0000
0001
0000
1000
0000
0010
0000
1000
1000
;

//---------------dance-single - ----------------
#NOTES:
     dance-single:
     :
     Beginner:
     1:
     0.081405,0.122233,0.007035,0.000000,0.000000,81.000000,80.000000,1.000000,0.000000,0.000000,0.000000,0.081405,0.122233,0.007035,0.000000,0.000000,81.000000,80.000000,1.000000,0.000000,0.000000,0.000000:
0000
0000
0000
0000
,
0000
0000
0000
0000
,
0000
0000
0000
0000
,
0000
0000
0000
0000
,
0001
0000
0000
0000
,
0010
0000
0000
0000
,
0001
0000
0000
0000
,
0010
0000
0000
0000
,
0100
0000
0000
0000
,
0010
0000
0000
0000
,
0100
0000
0000
0000
,
0010
0000
0000
0000
,
0100
0000
0000
0000
,
0100
0000
0000
0000
,
1000
0000
0000
0000
,
1000
0000
0000
0000
,
0001
0000
0000
0000
,
0001
0000
0000
0000
,
0100
0000
0000
0000
,
0100
0000
0000
0000
,
0010
0000
0000
0000
,
1000
0000
0000
0000
,
0010
0000
0000
0000
,
1000
0000
0000
0000
,
0001
0000
0000
0000
,
0001
0000
0000
0000
,
1000
0000
0000
0000
,
1000
0000
0000
0000
,
0100
0000
0000
0000
,
0100
0000
0000
0000
,
0010
0000
0000
0000
,
0010
0000
0000
0000
,
0001
0000
0000
0000
,
0000
0000
0000
0000
,
0001
0000
0000
0000
,
0000
0000
0000
0000
,
1000
0000
0000
0000
,
0000
0000
0000
0000
,
1000
0000
0000
0000
,
0000
0000
0000
0000
,
0001
0000
0000
0000
,
0100
0000
0000
0000
,
0010
0000
0000
0000
,
1000
0000
0000
0000
,
0001
0000
0000
0000
,
0000
0000
0000
0000
,
0010
0000
0000
0000
,
0000
0000
0000
0000
,
0100
0000
0000
0000
,
1000
0000
0000
0000
,
0001
0000
0000
0000
,
0010
0000
0000
0000
,
0001
0000
0000
0000
,
0010
0000
0000
0000
,
0001
0000
0000
0000
,
0010
0000
0000
0000
,
0001
0000
0000
0000
,
0010
0000
0000
0000
,
0100
0000
0000
0000
,
0100
0000
0000
0000
,
0010
0000
0000
0000
,
0010
0000
0000
0000
,
0100
0000
0000
0000
,
0100
0000
0000
0000
,
1000
0000
0000
0000
,
1000
0000
0000
0000
,
0000
0000
0000
0000
,
0000
0000
0000
0000
,
1001
0000
0000
0000
,
1000
0000
0000
0000
,
0001
0000
0000
0000
,
1000
0000
0000
0000
,
0001
0000
0000
0000
,
0010
0000
0000
0000
,
0100
0000
0000
0000
,
1000
0000
0000
0000
,
0001
0000
1000
0000
,
0001
0000
0000
0000
,
1000
0000
0001
0000
,
1000
0000
0000
0000
,
0001
0000
1000
0000
,
0001
0000
0000
0000
,
1000
0000
0001
0000
,
1000
0000
0000
0000
,
0001
0000
0000
0000
,
0100
0000
0000
0000
,
0010
0000
0000
0000
0000
0000
0000
0010
;

//---------------dance-single - ----------------
#NOTES:
     dance-single:
     :
     Challenge:
     18:
     0.947718,1.131473,0.154770,0.204016,1.385899,943.000000,921.000000,22.000000,29.000000,0.000000,0.000000,0.947718,1.131473,0.154770,0.204016,1.385899,943.000000,921.000000,22.000000,29.000000,0.000000,0.000000:
// measure 0
0000
0000
0000
0000
,  // measure 1
0000
0000
0000
0000
,  // measure 2
0000
0000
0000
0000
,  // measure 3
0000
0000
0000
0000
,  // measure 4
0001
0000
0001
0000
0100
0010
0000
2000
0000
0000
3100
0000
0010
0000
0100
0000
,  // measure 5
1000
0000
1000
0000
0010
0100
0000
0002
0000
0000
0000
0000
0000
0000
0000
0000
,  // measure 6
1003
0000
1000
0000
0100
0010
0000
0002
0000
0000
0103
0000
0010
0000
0100
0000
,  // measure 7
0001
0000
0001
0000
0010
0100
0000
1000
0001
0100
0001
0000
1000
0100
1000
0000
,  // measure 8
0001
0000
0001
0000
0100
0010
0000
2000
0000
0000
3001
0000
0010
0000
0001
0000
,  // measure 9
1000
0000
1000
0000
0010
0100
0000
0002
0000
0000
0000
0000
0000
0000
0000
0000
,  // measure 10
1003
0000
1000
0000
0100
0010
0000
0002
0000
0000
1003
0000
0010
0000
1000
0000
,  // measure 11
0001
0000
0001
0000
0010
0100
0000
2020
0000
0000
0000
0000
3030
0000
0000
0000
,  // measure 12
1000
0000
0100
0000
0010
0100
0000
0110
0000
0000
0001
0000
0100
0000
1000
0000
,  // measure 13
0101
0000
0000
1001
0000
0000
0000
0000
0100
0010
0100
0010
0100
0010
0100
0000
,  // measure 14
0001
0000
0010
0000
0100
0010
0000
0110
0000
0000
1000
0000
0100
0000
0010
0000
,  // measure 15
0001
0100
0001
1000
0100
0010
0000
0100
0020
0000
0001
0000
0031
0000
0000
0000
,  // measure 16
1000
0000
0100
0000
0010
0100
0000
0110
0000
0000
0001
0000
0100
0000
1000
0000
,  // measure 17
0101
0000
0000
1001
0000
0000
0000
0000
0010
0100
0010
0100
0010
0100
0010
0000
,  // measure 18
1000
0000
0100
0000
0010
0100
0000
0110
0000
0000
0001
0000
0010
0000
0100
0000
,  // measure 19
1000
0010
1000
0001
0010
0100
0000
0010
0200
0000
1000
0000
1300
0000
0000
0000
,  // measure 20
1001
0000
0001
0000
0100
0001
0100
0020
0000
0000
1030
0000
0100
0000
0010
0000
,  // measure 21
1001
0000
1000
0000
0010
0100
0000
0102
0000
0000
0000
0000
0000
0000
0003
0000
,  // measure 22
1001
0000
1000
0000
0010
1000
0100
0020
0000
0000
0031
0000
0100
0000
0010
0000
,  // measure 23
1001
0000
0001
0000
1000
0010
0000
0220
0000
0000
0000
0000
0000
0330
0000
0000
,  // measure 24
1000
0000
0010
0000
0100
0010
0000
1010
0000
0000
1000
0000
0100
0000
0010
0000
,  // measure 25
0001
1000
0010
2000
0000
0000
0000
0000
3001
0010
0001
0010
0100
1000
0100
0000
,  // measure 26
1000
0000
0010
0000
0100
0000
0010
0000
1000
0000
0001
0010
0000
0001
0000
0000
,  // measure 27
1000
0100
0010
0001
1000
0100
0010
0001
0100
0000
0010
0000
1010
0000
0000
0000
,  // measure 28
1000
0000
0010
0000
0100
0010
0000
1010
0000
0000
1000
0000
0100
0000
0010
0000
,  // measure 29
0001
0100
0001
2000
0000
0000
0000
0000
3001
0010
0001
0010
0100
1000
0100
0000
,  // measure 30
1000
0000
0010
0000
0100
0000
0010
0000
1000
0001
1000
0010
1000
0001
0000
0000
,  // measure 31
1000
0100
0010
0001
1000
0100
0010
0001
1000
0010
0001
0010
1000
0100
0001
0100
,  // measure 32
1000
0001
0010
0001
1000
0001
0010
0001
1000
0010
0100
0010
1000
0010
0100
0010
,  // measure 33
1000
0100
0010
0100
1000
0100
0010
0100
1000
0010
0001
0010
1000
0010
0001
0010
,  // measure 34
1000
0001
0100
1000
0100
0001
1000
0001
0010
1000
0010
0001
1000
0001
0100
1000
,  // measure 35
0100
0001
0100
1000
0100
0001
0010
1000
0010
0001
0010
1000
0010
0001
0010
0100
,  // measure 36
1000
0001
0100
1000
0100
0001
1000
0001
0010
1000
0010
0001
1000
0001
0100
1000
,  // measure 37
0100
0001
0100
1000
0100
0001
0010
1000
0010
0001
0010
1000
0010
0001
0100
0010
,  // measure 38
1000
0001
0010
1000
0010
0001
1000
0001
0100
1000
0100
0001
0100
0010
1000
0100
,  // measure 39
0020
0032
0203
0320
2030
0000
3000
0001
,  // measure 40
1000
0100
0010
0001
0000
0000
0001
0000
1000
0100
0010
0001
0000
0000
0001
0000
,  // measure 41
1000
0100
0010
0001
0000
0000
0001
0100
0010
0000
0010
0000
1000
0100
0001
0100
,  // measure 42
1000
0100
0010
0001
0000
0000
0001
0000
1000
0100
0010
0001
0000
0000
0001
0000
,  // measure 43
1000
0100
0010
0001
0100
0001
1000
0000
0001
1000
0001
0010
0100
1000
0100
0010
,  // measure 44
0001
0100
0010
1000
0000
0000
1000
0000
0001
0100
0010
1000
0000
0000
1000
0000
,  // measure 45
0001
0100
0010
1000
0000
0000
1000
0000
0010
0000
0100
0001
1000
0100
0010
0000
,  // measure 46
0001
0100
0010
1000
0000
0000
1000
0000
0001
0100
0010
1000
0000
0000
1000
0000
,  // measure 47
0001
0100
0010
0100
0001
0000
1000
0000
0100
0010
0001
0100
1000
0100
0001
1000
,  // measure 48
0010
0100
0010
0100
0001
1000
0001
1000
0010
0100
0001
0010
0100
1000
0100
0010
,  // measure 49
0001
1000
0010
1000
0000
0000
0000
0000
0000
0000
0000
0000
0000
0000
0000
0000
,  // measure 50
0001
0000
0000
0001
0000
0000
0001
0000
1000
0000
0100
0000
0011
0000
0100
0000
,  // measure 51
1000
0000
0000
1000
0000
0000
1000
0000
0100
0000
0010
0000
0001
0100
1000
0100
,  // measure 52
0001
0000
0000
0001
0000
0000
0001
0000
1000
0000
0100
0000
0011
0000
0100
1000
,  // measure 53
0100
1000
0001
0100
0010
1000
0010
0100
0001
0010
1000
0010
0001
0100
1000
0100
,  // measure 54
0001
0000
0010
0001
0000
0100
0010
0000
1000
0100
0010
0001
0010
0100
1000
0010
,  // measure 55
0200
0000
0000
0001
0000
0000
0001
0000
0001
0000
0000
0000
0301
0000
1000
0100
,  // measure 56
0010
0002
0000
1000
0000
0000
1000
0000
1000
0000
0000
0000
1003
0100
0010
0001
,  // measure 57
0100
0020
0000
1000
0000
0000
1000
0000
1030
0000
0010
0000
0100
0001
1000
0001
,  // measure 58
0100
0000
0001
1000
0000
1000
0100
0010
0001
0100
1000
0100
0001
0010
0100
1000
,  // measure 59
0001
0001
0000
0000
1000
1000
0000
0010
0010
0000
0100
0100
0000
0000
0001
0010
,  // measure 60
0100
1000
0010
1000
0001
0100
1000
0100
0001
0010
0100
0010
0002
0000
0000
0000
,  // measure 61
0103
0001
1000
0100
0001
0100
1000
0100
0010
0001
0100
0010
2000
0000
0000
0000
,  // measure 62
3001
0010
0001
1000
0001
0010
1000
0010
0001
1000
0100
0010
0001
0100
0001
0000
,  // measure 63
1000
0100
1000
0001
1000
0100
0001
0100
1000
0010
0100
0001
0020
0000
0000
0000
,  // measure 64
0031
1000
0010
1000
0001
0010
0100
1000
0000
1000
0010
0000
1000
0000
0001
0100
,  // measure 65
0010
1000
0001
0100
1000
0100
0001
0010
1000
0010
0001
1000
0100
0010
0001
1000
,  // measure 66
0020
0000
0000
0000
0000
0000
0000
0000
0000
0000
0000
0000
1030
0100
1000
0100
0010
0001
0010
0001
0010
0100
0010
0100
,  // measure 67
1000
0010
1000
0010
0100
0001
0100
0001
0100
0010
0100
0010
1000
0100
1000
0100
0010
0001
0000
0000
0000
0001
0000
0000
,  // measure 68
1000
0010
0100
0001
0000
0000
0001
0000
1000
0010
0100
0001
0000
0000
0001
0000
,  // measure 69
1000
0010
0100
0001
0000
0000
0001
1000
0100
0000
1000
0100
0001
0100
1000
0010
,  // measure 70
1000
0100
0010
0001
0000
0000
0001
0000
1000
0100
0010
0001
0000
0000
0001
1000
,  // measure 71
0010
1000
0001
0010
0100
1000
0010
0000
1000
0100
0001
0100
1000
0010
0001
0010
,  // measure 72
1000
0100
0010
0001
0000
0000
0001
0000
1000
0100
0010
0001
0000
0000
0001
0000
,  // measure 73
1000
0100
0010
0001
0000
0000
0001
1000
0010
0000
1000
0100
0001
0100
1000
0010
,  // measure 74
1000
0100
0010
0001
0000
0000
0001
0000
1000
0100
0010
0001
0000
0000
0001
0000
,  // measure 75
1000
0000
0000
0100
0000
0000
1000
0000
0000
0001
0000
0000
0100
0000
0000
0001
0000
0000
1000
0000
0000
0100
0000
0000
1000
0000
0001
0000
1000
0000
0001
0000
0010
0000
0100
0000
1000
0000
0100
0000
0010
0000
0001
0000
0000
0000
0000
0000
,  // measure 76
0001
0100
0010
1000
0000
0000
1000
0000
0001
0100
0010
1000
0000
0000
1000
0000
,  // measure 77
0001
0100
0010
1000
0000
0000
1000
0100
0010
0001
1000
0100
0001
0100
1000
0010
,  // measure 78
1000
0100
0010
0001
0000
0000
0001
0000
1000
0100
0010
0001
0000
0000
0001
0000
,  // measure 79
1000
0100
0010
0001
0100
0010
0100
0001
1000
0010
0001
0010
1000
0100
0001
0100
,  // measure 80
1000
0010
0100
0001
0000
0000
0001
0000
1000
0010
0100
0001
0000
0000
0001
0000
,  // measure 81
1000
0010
0100
0001
0000
0000
0001
0000
0010
0100
1000
0010
0001
0010
1000
0001
,  // measure 82
1000
0100
0010
0001
0000
0000
0001
0000
1000
0100
0010
0001
0000
0000
0001
0000
,  // measure 83
1000
0010
0100
0010
1000
0100
0010
0001
1000
0010
0001
0010
1000
0100
0001
0100
,  // measure 84
1000
0001
1000
0001
0100
0010
0100
0010
1000
0100
0010
0001
0010
0100
1000
0010
,  // measure 85
0100
0001
1000
0100
0000
0000
0000
0000
0000
0000
0000
0000
0000
0000
0000
0000
,  // measure 86
1000
0010
0100
1000
0100
0010
1000
0100
0010
0000
0001
1000
0010
0100
1001
1001
;
