#TITLE:恋;
#SUBTITLE:;
#ARTIST:星野源;
#TITLETRANSLIT:KOI;
#SUBTITLETRANSLIT:;
#ARTISTTRANSLIT:GEN HOSHINO;
#CREDIT:DigiMindAxel;
#BANNER:KOI.png;
#BACKGROUND:KOI-bg.png;
#LYRICSPATH:KOI.lrc;
#CDTITLE:DigiMindAxel original simfile.png;
#MUSIC:KOI.ogg;
#METERTYPE:DDR X;
#OFFSET:-0.758;
#SAMPLESTART:49.295;
#SAMPLELENGTH:12.000;
#SELECTABLE:YES;
#BPMS:0.000=158.000;
#STOPS:;
#BGCHANGES:-2.000=KOI.avi=1.000=1=1=0,
99999=-nosongbg-=1.000=0=0=0 // don't automatically add -songbackground-
;

//---------------dance-single - ----------------
#NOTES:
     dance-single:
     :
     Easy:
     5:
     0.260,0.324,0.169,0.153,0.000: // measure 1
0000
0000
0000
0000
,  // measure 2
0000
0000
0000
0000
,  // measure 3
0000
0000
0000
0000
,  // measure 4
0000
0000
0000
0000
,  // measure 5
2000
0000
3002
0000
,  // measure 6
0023
0000
0032
0000
,  // measure 7
1003
0000
0100
0000
0010
0000
0000
2002
,  // measure 8
0000
0000
0000
3003
0000
0000
0000
0000
,  // measure 9
1000
0000
0001
0000
,  // measure 10
1000
0000
0100
0000
,  // measure 11
1000
0000
0001
0000
,  // measure 12
1000
0000
0100
0000
,  // measure 13
1000
0000
0001
0000
,  // measure 14
1000
0000
0100
0000
,  // measure 15
0010
0001
0100
0000
,  // measure 16
0010
0000
0000
0000
0000
1001
0000
0000
,  // measure 17
0001
0000
1000
0000
,  // measure 18
0001
0000
0010
0000
,  // measure 19
0001
0000
1000
0000
,  // measure 20
0001
0000
0010
0000
,  // measure 21
0001
0000
1000
0000
,  // measure 22
0010
0000
0100
0000
,  // measure 23
0001
1000
0100
0000
,  // measure 24
0010
0000
0000
0000
0000
1001
0000
0000
,  // measure 25
1000
0000
1000
0000
,  // measure 26
0001
0000
0001
0000
,  // measure 27
0010
0000
0010
0000
,  // measure 28
0001
0000
0001
0000
,  // measure 29
0100
0000
0100
0000
,  // measure 30
0010
0000
0010
0000
,  // measure 31
1000
0000
0001
0000
1000
0000
0000
2002
,  // measure 32
0000
0000
0000
3003
0000
0000
0000
0000
,  // measure 33
0001
0100
0001
0000
,  // measure 34
1000
0100
1000
0000
,  // measure 35
0001
0010
0001
0000
,  // measure 36
1000
0010
1000
0000
,  // measure 37
0001
1000
0001
0000
,  // measure 38
1000
0000
0001
0000
1000
0000
0000
0110
,  // measure 39
0000
0000
0000
0000
0010
0000
0000
1001
,  // measure 40
0000
0000
1000
0000
,  // measure 41
0010
0100
0010
0000
,  // measure 42
1000
0001
1000
0000
,  // measure 43
0010
0100
0010
0000
,  // measure 44
1000
0001
1000
0000
,  // measure 45
0100
1000
0100
0000
,  // measure 46
0010
0000
0100
0000
0010
0000
0000
1001
,  // measure 47
0000
0000
0000
0000
1000
0000
0000
0110
,  // measure 48
0000
0000
0000
0000
0010
0000
0000
1001
,  // measure 49
0000
1000
0001
1000
,  // measure 50
0001
0000
0000
0000
,  // measure 51
1000
0100
0010
0001
,  // measure 52
1000
0000
0000
0000
,  // measure 53
0001
0010
0100
0000
,  // measure 54
1001
0000
1000
0000
,  // measure 55
1001
0000
0001
0000
,  // measure 56
1001
0000
1000
0000
,  // measure 57
2002
0000
0000
0000
0000
0000
0000
3003
0000
0000
0000
0000
0000
0000
0000
0000
,  // measure 58
0110
0000
0010
0000
,  // measure 59
0110
0000
0100
0000
,  // measure 60
0110
0000
0010
0000
,  // measure 61
2002
0000
0000
0000
0000
0000
0000
3003
0000
0000
0000
0000
0000
0000
0000
0000
,  // measure 62
0001
1000
0100
0000
,  // measure 63
0010
0001
1000
0000
,  // measure 64
0010
0100
0001
0000
,  // measure 65
0220
0000
0000
0000
0000
0000
0000
0330
0000
0000
0000
0000
0000
0000
0000
0000
,  // measure 66
0001
1000
0100
0000
,  // measure 67
0010
0001
0100
0000
,  // measure 68
0010
1000
0010
0000
,  // measure 69
2002
0000
0000
0000
0000
0000
0000
3003
0000
0000
0000
0000
0000
0000
0000
0000
,  // measure 70
0001
0010
0001
0010
,  // measure 71
0100
1000
0100
1000
,  // measure 72
0010
0100
0010
0100
,  // measure 73
0001
1000
0100
0000
,  // measure 74
0010
0001
0010
0001
,  // measure 75
0100
0010
0100
0010
,  // measure 76
1000
0100
1000
0010
,  // measure 77
2002
0000
0000
0000
0000
0000
0000
3003
0000
0000
0000
0000
0000
0000
0000
0000
;

//---------------dance-single - ----------------
#NOTES:
     dance-single:
     :
     Medium:
     10:
     0.483,0.518,0.314,0.314,0.025: // measure 1
0000
0000
0000
0000
,  // measure 2
0000
0000
0000
0000
,  // measure 3
0000
0000
0000
0000
,  // measure 4
0000
0000
0000
0000
,  // measure 5
1000
0001
0100
0001
,  // measure 6
1000
0001
0100
0001
,  // measure 7
2000
0000
3200
0000
0320
0000
0030
0101
,  // measure 8
0000
0101
0000
0101
0000
0000
0000
0000
,  // measure 9
0001
0000
1000
0000
0100
2000
0000
0000
,  // measure 10
3100
0000
0010
0001
0000
0000
0100
0000
,  // measure 11
0001
0000
0010
0000
0100
0020
0000
0000
,  // measure 12
0130
0000
1000
0001
0000
0000
1000
0000
,  // measure 13
0100
0000
0010
0000
0100
2000
0000
0000
,  // measure 14
3100
0000
0010
0001
0000
0000
1000
0000
,  // measure 15
0020
0230
0302
1003
,  // measure 16
0100
1000
0100
0000
0000
1001
0000
0000
,  // measure 17
0001
0100
0001
0000
0100
0020
0000
0000
,  // measure 18
0130
0000
0001
0010
0000
0000
0100
0000
,  // measure 19
0010
0001
0010
0000
0100
2000
0000
0000
,  // measure 20
3010
0000
0100
0001
0000
0000
1000
0000
,  // measure 21
0100
1000
0100
0000
0010
0002
0000
0000
,  // measure 22
1003
0000
0001
0100
0000
0000
0001
0000
,  // measure 23
0010
0100
0010
0000
0001
0000
1000
0000
,  // measure 24
0100
1000
0100
1000
0000
1001
0000
0000
,  // measure 25
0002
0000
0013
0100
,  // measure 26
2000
0000
3100
0010
,  // measure 27
0002
0000
0103
0010
,  // measure 28
2000
0000
3010
0100
,  // measure 29
0002
0000
1003
0100
,  // measure 30
0010
0100
1000
0010
,  // measure 31
1002
0000
0023
0000
0230
0000
0300
1010
,  // measure 32
0000
1010
0000
1010
0000
0000
0000
0000
,  // measure 33
1000
0001
1000
0001
0010
0000
1000
0000
,  // measure 34
0010
0000
0001
0000
0100
0001
0001
0000
,  // measure 35
1000
0001
1000
0001
0100
0000
1000
0000
,  // measure 36
0100
0000
0001
0000
0100
0010
0010
0010
,  // measure 37
1000
0001
1000
0001
0100
0000
1000
0000
,  // measure 38
0100
0000
0001
0000
0010
0100
0100
2000
,  // measure 39
0000
0000
0010
0000
3010
0000
0000
1001
,  // measure 40
0000
1001
0000
1001
0000
0000
0000
0000
,  // measure 41
0001
1000
0001
1000
0100
0000
0001
0000
,  // measure 42
0100
0000
1000
0000
0100
0010
0010
0000
,  // measure 43
0001
1000
0001
1000
0010
0000
0001
0000
,  // measure 44
0010
0000
1000
0000
0100
0010
0010
0010
,  // measure 45
0001
1000
0001
1000
0100
0000
0001
0000
,  // measure 46
0100
0000
1000
0000
0001
0010
0010
0002
,  // measure 47
0000
0000
1000
0000
1003
0000
0000
0200
,  // measure 48
0000
0000
1000
0000
1300
0000
0000
0020
,  // measure 49
0000
0100
0130
0001
,  // measure 50
0020
0000
0230
0000
2300
0000
3001
0200
,  // measure 51
0000
0001
0301
1000
,  // measure 52
0100
0000
1100
0000
0010
0100
0010
0200
,  // measure 53
0000
0001
0301
0000
,  // measure 54
1100
0200
1000
1300
,  // measure 55
0011
0020
0001
0031
,  // measure 56
0210
0310
2001
3001
,  // measure 57
1100
0000
0000
0000
0100
0000
0000
0100
0000
0000
0000
0000
0000
0000
0000
0000
,  // measure 58
1001
2000
0100
3100
,  // measure 59
1001
0002
0010
0013
,  // measure 60
2001
3010
1002
0103
,  // measure 61
0110
0000
0000
0000
0010
0000
0000
0010
0000
0000
0000
0000
0000
0000
0000
0000
,  // measure 62
0101
0000
0100
0001
0100
0001
1000
0000
,  // measure 63
1100
0000
0100
1000
0100
1000
0010
0000
,  // measure 64
1010
0000
0010
0100
0010
0100
0001
0000
,  // measure 65
0011
0000
0000
0000
0100
0000
0000
1000
0000
0000
0000
0000
0000
0000
0000
0000
,  // measure 66
0110
0000
0100
0010
0100
0010
0001
0000
,  // measure 67
0011
0000
0010
0001
0010
0001
1000
0000
,  // measure 68
1001
0000
0001
1000
0001
1000
0010
0000
,  // measure 69
0101
0000
0000
0000
0010
0000
0000
1000
0000
0000
0000
0000
0000
0000
0000
0000
,  // measure 70
0001
0010
0001
0010
0001
0010
0001
0000
,  // measure 71
0100
0010
0100
0010
0100
0010
0100
0000
,  // measure 72
0001
1000
0001
1000
0001
1000
0001
0000
,  // measure 73
0010
0000
0000
0000
0100
0000
0000
1100
0000
0000
0000
0000
0000
0000
0000
0000
,  // measure 74
1001
0000
0001
0010
0001
0010
0100
0000
,  // measure 75
1001
0000
1000
0010
1000
0010
0100
0000
,  // measure 76
1001
0000
0010
0100
0010
0100
0001
0000
,  // measure 77
1001
0000
0000
0000
1000
0000
0000
1010
0000
0000
0000
0000
0000
0000
0000
0000
;

//---------------dance-single - ----------------
#NOTES:
     dance-single:
     :
     Hard:
     13:
     0.672,0.777,0.458,0.551,0.237:
0000
0000
0000
0000
,
0000
0000
0000
0000
,
0000
0000
0000
0000
,
0000
0000
0000
0000
,
0200
0000
0000
1300
0001
0010
0100
1000
,
0002
0000
0000
0013
0001
1000
0010
0100
,
0020
0000
0230
0000
0301
1000
0000
1010
,
0000
1010
0000
2020
0000
0000
3030
0000
,
1001
0000
0002
0000
0103
0001
0010
0100
,
1000
0000
0000
1010
0000
0000
0010
0100
,
0010
1000
0100
0010
0001
1000
0000
0002
,
0000
0103
0010
0200
0000
0000
0310
0000
,
1000
0001
0010
0001
1000
0010
0000
2000
,
0000
3001
0010
0002
0000
0003
1000
0010
,
0100
1000
0100
0010
1000
0100
0010
0000
,
0001
0000
0100
0001
0000
1001
0000
0000
,
1001
0000
2000
0000
3001
0010
0100
1000
,
0010
0000
0000
1010
0000
0000
0010
0100
,
0001
0100
0010
0001
0010
0100
0000
0002
,
0000
1003
0010
2000
0000
3000
0000
0000
,
0001
0010
0001
0100
0010
1000
0000
0020
,
0000
0130
0010
0200
0000
0300
0010
0100
,
0001
0100
0010
0001
0010
0100
0001
0000
,
0100
0000
0010
1000
0000
0010
1000
0000
0000
0000
1001
0000
0000
0000
0000
0000
,
0011
0100
1001
0100
,
0011
0100
1001
0010
,
0101
0010
1001
0010
,
0101
0010
1001
1001
,
1100
0010
1001
0010
,
1100
1100
1001
0001
,
0201
0000
0320
0000
1030
0001
0000
1001
,
0000
1001
0000
2002
0000
0000
3003
0000
,
1000
0100
0001
0100
2000
0000
3010
0100
,
0002
0000
0023
0000
0230
1000
1300
0000
,
0001
0100
1000
0100
0002
0000
0013
0100
,
2000
0000
3020
0000
0230
0001
0301
1000
,
0001
0100
1000
0100
0002
0000
0013
0100
,
2000
0000
3020
0000
0230
0001
0301
2000
,
0000
0000
3001
0010
0001
0100
0010
1001
,
0000
1001
0000
2002
0000
0000
3003
0000
,
1000
0010
0001
0010
2000
0000
3010
0100
,
0002
0000
0013
0100
1000
0001
0001
0000
,
1000
0010
0001
0010
2000
0000
3100
0010
,
0002
0000
2003
0000
3020
0100
0130
0001
,
1000
0100
0001
0100
2000
0000
3100
0010
,
0002
0000
1003
0010
0100
0001
0001
0200
,
0000
0310
1000
0100
0010
0001
0000
0200
,
0000
0310
1000
0100
0010
0001
0000
0200
,
0000
0310
1000
0100
0010
0001
1000
0010
,
2000
0000
3020
0000
0230
0000
0301
0200
,
0000
0310
1000
0100
0010
0001
1000
0010
,
0200
0000
0310
0000
2000
0000
3001
0200
,
0000
0000
0301
1000
0001
1000
0001
1000
0001
0000
0000
0000
0000
0000
0000
0000
,
1001
0000
0000
0000
1000
0010
1000
0000
0001
0000
0000
0010
0000
0000
0100
0000
,
1001
0000
0000
0000
1000
0010
1000
0000
0001
0000
0000
0010
0000
0000
0100
0000
,
1001
0000
0000
0000
1000
0010
1000
0000
0001
0000
0000
0010
0000
0000
0100
0000
,
2001
0000
0000
0000
3010
0000
0000
0110
0000
0000
0000
0000
0000
0000
0000
0000
,
1001
0000
0000
0000
0001
0100
0001
0000
1000
0000
0000
0100
0000
0000
0010
0000
,
1001
0000
0000
0000
0001
0100
0001
0000
1000
0000
0000
0100
0000
0000
0010
0000
,
1001
0000
0000
0000
0001
0100
0001
0000
1000
0000
0000
0100
0000
0000
0010
0000
,
1002
0000
0000
0000
0103
0000
0000
0110
0000
0000
0001
1000
0001
1000
0001
1000
,
0001
0000
0000
0000
1000
0100
1000
0000
0001
0000
0100
0001
0000
0100
0001
0000
,
1000
0000
0000
0000
0100
1000
0100
0000
0010
0000
0001
0100
0000
0001
0100
0000
,
0010
0000
0000
0000
1000
0001
1000
0000
0100
0000
0010
0001
0000
0010
0001
0000
,
2001
0000
0000
0000
3010
0000
0000
2002
0000
0000
0000
0000
3003
0000
0000
0000
,
1001
0000
0000
0000
0001
0100
0000
0010
0000
0100
0001
0000
1000
0000
0000
0000
,
1001
0000
0000
0000
1000
0100
0000
0010
0000
0100
1000
0000
0010
0000
0000
0000
,
1001
0000
0000
0000
1000
0010
0000
0100
0000
0010
1000
0000
0001
0000
0000
0000
,
2001
0000
0000
0000
3100
0000
0000
2200
0000
0000
0000
0000
3300
0000
0000
0000
,
1000
0010
0100
1000
0100
0010
0100
1000
,
0001
0100
0010
0001
0010
0100
0010
0001
,
1000
0010
0001
0010
1000
0100
0001
0100
,
2100
0000
0000
0000
3001
0000
0000
2002
0000
0000
0000
0000
3003
0000
0000
0000
,
1001
0000
0000
0000
0010
0100
0010
0100
0010
0000
1000
0100
0000
1000
0100
0000
,
1001
0000
0000
0000
0100
0010
0100
0010
0100
0000
0001
0010
0000
0001
0010
0000
,
1001
0000
0000
0000
0010
0100
0010
0100
0010
0000
1000
0100
0000
1000
0100
0000
,
1002
0000
0000
0000
0103
0000
0000
0110
0000
0000
0000
0000
0000
0000
0000
0000
;

//---------------dance-single - ----------------
#NOTES:
     dance-single:
     :
     Beginner:
     2:
     0.086,0.129,0.059,0.000,0.000:
0000
0000
0000
0000
,
0000
0000
0000
0000
,
0000
0000
0000
0000
,
0000
0000
0000
0000
,
0100
0000
0000
0000
,
1000
0000
0000
0000
,
0100
0000
0000
0000
,
0000
0000
0000
0000
,
1000
0000
0000
0000
,
0001
0000
0000
0000
,
0010
0000
0000
0000
,
0001
0000
0000
0000
,
0100
0000
0000
0000
,
0010
0000
0000
0000
,
0100
0000
0000
0000
,
0000
0000
0000
0000
,
0001
0000
0000
0000
,
1000
0000
0000
0000
,
0001
0000
0000
0000
,
0010
0000
0000
0000
,
0100
0000
0000
0000
,
1000
0000
0000
0000
,
0010
0000
0000
0000
,
0100
0000
0000
0000
,
1001
0000
0000
0000
,
0000
0000
0000
0000
,
1001
0000
0000
0000
,
0000
0000
0000
0000
,
0110
0000
0000
0000
,
0000
0000
0000
0000
,
0110
0000
0000
0000
,
0000
0000
0000
0000
,
0001
0000
0000
0000
,
0010
0000
0000
0000
,
0001
0000
0000
0000
,
0010
0000
0000
0000
,
0100
0000
0000
0000
,
1000
0000
0000
0000
,
0010
0000
0000
0000
,
0000
0000
0000
0000
,
0100
0000
0000
0000
,
0001
0000
0000
0000
,
0100
0000
0000
0000
,
0001
0000
0000
0000
,
1000
0000
0000
0000
,
0100
0000
0000
0000
0000
0000
0000
1000
,
0000
0000
0000
0000
0000
0000
0000
1000
,
0000
0000
0000
0000
0000
0000
0000
0001
,
0000
0000
0000
0000
,
0000
0000
0000
0000
0000
0000
0000
0010
,
0000
0000
0000
0000
,
0000
0000
0000
0000
0000
0000
0000
0100
,
0000
0000
0000
0000
,
1001
0000
0000
0000
,
1000
0000
0000
0000
,
1000
0000
0000
0000
,
0010
0000
0000
0000
,
0100
0000
0000
0000
,
0100
0000
0000
0000
,
0100
0000
0000
0000
,
0001
0000
0000
0000
,
1001
0000
0000
0000
,
1000
0000
0000
0000
,
0001
0000
0000
0000
,
0010
0000
0000
0000
,
0001
0000
0000
0000
,
1000
0000
0000
0000
,
0100
0000
0000
0000
,
1000
0000
0000
0000
,
0001
0000
0000
0000
,
0001
0000
0000
0000
,
0010
0000
0000
0000
,
0010
0000
0000
0000
,
0100
0000
0000
0000
,
1000
0000
0000
0000
,
0001
0000
0000
0000
,
1001
0000
0000
0000
;
