#TITLE:幾何学的『トリックスター』;
#SUBTITLE:;
#ARTIST:DJ Genki feat. SHIN from HYPERNOVA With 三代;
#TITLETRANSLIT:KIKAGAKUTEKI "TRICKSTER";
#SUBTITLETRANSLIT:;
#ARTISTTRANSLIT:DJ Genki feat. SHIN from HYPERNOVA With MITSUYO;
#CREDIT:DigiMindAxel;
#BANNER:KIKAGAKUTEKI ''TRICKSTER''.png;
#BACKGROUND:KIKAGAKUTEKI ''TRICKSTER''-bg.png;
#LYRICSPATH:KIKAGAKUTEKI ''TRICKSTER''.lrc;
#CDTITLE:GITADORA.png;
#MUSIC:KIKAGAKUTEKI ''TRICKSTER''.ogg;
#METERTYPE:DDR X;
#OFFSET:-0.571;
#SAMPLESTART:52.320;
#SAMPLELENGTH:12.000;
#SELECTABLE:YES;
#BPMS:0.000=300.000;
#STOPS:;
#BGCHANGES:;

//---------------dance-single - ----------------
#NOTES:
     dance-single:
     :
     Easy:
     7:
     0.309,0.473,0.175,0.046,0.000: // measure 1
0000
0000
0000
0000
,  // measure 2
0000
0000
0000
0000
,  // measure 3
0000
0000
0000
0000
,  // measure 4
0000
0000
0000
0000
,  // measure 5
0000
0000
0000
0000
,  // measure 6
0000
0000
0000
0000
,  // measure 7
0000
0000
0000
0000
,  // measure 8
2000
0000
0000
0000
,  // measure 9
3001
0000
0000
0000
,  // measure 10
1000
0000
0010
0000
,  // measure 11
1000
0000
0000
0000
,  // measure 12
0001
0000
1000
0000
,  // measure 13
0001
0000
0000
0000
,  // measure 14
0010
0000
0001
0000
,  // measure 15
0010
0000
0000
0000
,  // measure 16
0001
0000
1000
0000
,  // measure 17
0001
0000
1000
0000
,  // measure 18
0100
0000
0010
0000
,  // measure 19
0000
0000
0001
0000
,  // measure 20
0100
0000
0001
0000
,  // measure 21
1000
0000
0100
0000
,  // measure 22
1000
0000
0100
0000
,  // measure 23
0010
0000
0001
0000
,  // measure 24
0100
0000
0000
0000
,  // measure 25
0100
0000
0000
0000
,  // measure 26
1001
0000
0000
0000
,  // measure 27
0001
0000
0000
0000
,  // measure 28
1000
0000
0000
0000
,  // measure 29
1000
0000
0000
0000
,  // measure 30
0001
0000
0000
0000
,  // measure 31
0001
0000
0000
0000
,  // measure 32
1000
0001
0000
1000
,  // measure 33
0001
0000
1000
0000
,  // measure 34
0110
0000
0000
0000
,  // measure 35
0100
0000
0010
0000
,  // measure 36
0100
0000
0010
0000
,  // measure 37
0100
0000
0000
0000
,  // measure 38
1001
0000
0000
0000
,  // measure 39
0001
0000
1000
0000
,  // measure 40
0001
0000
1000
0000
,  // measure 41
0001
0000
0000
0000
,  // measure 42
0110
0000
0000
0000
,  // measure 43
0010
0000
0100
0000
,  // measure 44
0010
0000
0100
0000
,  // measure 45
0010
0000
0000
0000
,  // measure 46
1001
0000
0000
0000
,  // measure 47
1000
0000
0001
0000
,  // measure 48
1000
0000
0100
0000
,  // measure 49
0010
0000
0001
0000
,  // measure 50
1000
0000
0000
0000
,  // measure 51
0100
0000
0000
0000
,  // measure 52
0010
0000
0000
0000
,  // measure 53
0100
0000
0000
0000
,  // measure 54
1000
0000
0000
0000
,  // measure 55
0001
0000
0000
0000
,  // measure 56
0100
0000
0001
0000
,  // measure 57
0100
0000
0000
0000
,  // measure 58
0001
0000
1000
0000
,  // measure 59
0001
0000
1000
0000
,  // measure 60
0100
0000
1000
0000
,  // measure 61
0100
0000
1000
0000
,  // measure 62
0100
0000
0010
0000
,  // measure 63
0001
0000
1000
0000
,  // measure 64
0100
0000
0000
0000
,  // measure 65
0100
0000
0000
0000
,  // measure 66
1001
0000
0000
0000
,  // measure 67
1001
0000
0000
0000
,  // measure 68
0001
0000
0010
0000
,  // measure 69
0100
0000
0000
0000
,  // measure 70
0010
0000
0001
0000
,  // measure 71
0010
0000
0001
0000
,  // measure 72
0100
0000
0100
0000
,  // measure 73
0100
0000
0000
0000
,  // measure 74
1001
0000
0000
0000
,  // measure 75
1001
0000
0000
0000
,  // measure 76
1000
0000
0100
0000
,  // measure 77
0010
0000
0000
0000
,  // measure 78
0100
0000
1000
0000
,  // measure 79
0100
0000
0010
0000
,  // measure 80
0001
0000
0100
0000
,  // measure 81
0001
0000
0000
0000
,  // measure 82
1001
0000
0000
0000
,  // measure 83
1001
0000
0000
0000
,  // measure 84
0001
0000
0000
1000
0000
0000
0001
0000
,  // measure 85
1000
0000
0000
0000
,  // measure 86
0001
0000
0001
0000
,  // measure 87
0001
0000
0001
0000
,  // measure 88
0001
0000
0001
0000
,  // measure 89
0001
0000
0001
0000
,  // measure 90
1000
0000
1000
0000
,  // measure 91
1000
0000
1000
0000
,  // measure 92
1000
0000
1000
0000
,  // measure 93
1000
0000
1000
0000
,  // measure 94
0010
0000
0000
0010
,  // measure 95
0000
0000
0010
0000
,  // measure 96
0000
0010
0000
0000
,  // measure 97
0010
0000
0000
0000
,  // measure 98
0220
0000
0000
0000
,  // measure 99
0000
0000
0000
0000
,  // measure 100
0330
0000
0000
0000
,  // measure 101
0000
0000
0000
0000
,  // measure 102
0001
0000
1000
0000
,  // measure 103
0100
1000
0100
0000
,  // measure 104
1000
0001
1000
0000
,  // measure 105
0100
0000
0010
0000
,  // measure 106
0001
0100
0001
0000
,  // measure 107
0100
0010
0100
0000
,  // measure 108
0001
1000
0001
1000
,  // measure 109
0100
0000
0010
0000
,  // measure 110
0001
0100
0001
0000
,  // measure 111
1000
0001
1000
0000
,  // measure 112
0100
1000
0100
0000
,  // measure 113
1000
0001
1000
0000
,  // measure 114
0100
0000
0010
0000
,  // measure 115
0001
0000
0100
0010
,  // measure 116
1000
0000
0000
0001
0000
0000
1000
0000
,  // measure 117
0000
0001
0000
0000
1000
0000
0000
0000
,  // measure 118
1001
0000
0000
0000
,  // measure 119
1001
0000
0000
0000
,  // measure 120
1001
0000
0000
0000
,  // measure 121
1001
0000
0000
0000
,  // measure 122
1000
0000
1000
0000
,  // measure 123
0001
0000
0001
0000
,  // measure 124
0200
0000
0000
0000
,  // measure 125
0300
0000
0000
0000
,  // measure 126
1001
0000
0000
0000
,  // measure 127
1001
0000
0000
0000
,  // measure 128
0001
1000
0001
0000
,  // measure 129
1000
0000
0100
0000
,  // measure 130
0010
0000
0100
0000
,  // measure 131
0010
0000
0001
0000
,  // measure 132
0100
0001
0100
0000
,  // measure 133
0001
0000
1000
0000
,  // measure 134
1001
0000
0000
0000
,  // measure 135
1001
0000
0000
0000
,  // measure 136
0110
0000
0000
0000
,  // measure 137
0110
0000
0000
0000
,  // measure 138
1000
0001
1000
0000
,  // measure 139
0100
0000
0010
0000
,  // measure 140
0001
1000
0001
0000
,  // measure 141
0010
0000
0100
0000
,  // measure 142
0010
0001
0010
0000
,  // measure 143
0001
0000
0100
0000
,  // measure 144
0010
0100
0010
0000
,  // measure 145
0100
0000
0001
0000
,  // measure 146
1000
0100
1000
0000
,  // measure 147
0100
0000
0010
0000
,  // measure 148
0001
1000
0001
0000
,  // measure 149
1000
0000
0100
0000
,  // measure 150
0010
0100
0010
0000
,  // measure 151
0001
0000
0100
0000
,  // measure 152
0020
0000
0130
0000
,  // measure 153
0002
0000
1003
0000
,  // measure 154
0001
0000
0000
1000
,  // measure 155
0000
0000
0001
0000
,  // measure 156
0110
0000
0000
0000
;

//---------------dance-single - ----------------
#NOTES:
     dance-single:
     :
     Medium:
     13:
     0.629,0.708,0.229,0.191,0.011: // measure 1
0000
0000
0000
0000
,  // measure 2
0000
0000
0000
0000
,  // measure 3
0000
0000
0000
0000
,  // measure 4
0000
0000
0000
0000
,  // measure 5
0000
0000
0000
0000
,  // measure 6
0000
0000
0000
0000
,  // measure 7
0000
0000
0000
0000
,  // measure 8
0002
0000
0203
0000
,  // measure 9
0320
0000
0030
0000
,  // measure 10
0100
0000
0001
0000
1000
0100
1000
0000
,  // measure 11
0000
0100
1000
0100
,  // measure 12
0010
0000
0001
0000
1000
0001
1000
0000
,  // measure 13
0000
0010
0100
0010
,  // measure 14
1000
0000
0001
0000
1000
0010
1000
0000
,  // measure 15
0000
0001
0010
0001
,  // measure 16
0010
0000
0100
0000
1000
0100
1000
0000
,  // measure 17
0000
0010
0100
0010
,  // measure 18
1000
0000
0100
0000
1000
0001
1000
0000
,  // measure 19
0000
0010
0100
0010
,  // measure 20
1000
0000
0100
0000
0010
0100
0010
0000
,  // measure 21
0000
0100
1000
0001
,  // measure 22
0100
0000
0001
0000
1000
0100
1000
0000
,  // measure 23
0000
0100
0010
0001
,  // measure 24
0100
0000
0000
0100
0000
0000
0100
0000
,  // measure 25
0010
0000
0000
0010
0000
0000
0000
0000
,  // measure 26
1001
0000
1000
0000
,  // measure 27
0001
0000
0001
0000
,  // measure 28
0100
0000
0100
0000
,  // measure 29
0010
0000
0010
0000
,  // measure 30
1000
0000
1000
0000
,  // measure 31
0100
0000
0100
0000
,  // measure 32
1000
0001
1000
0001
0000
0000
1000
0001
,  // measure 33
1000
0001
0000
0000
0100
0000
0000
0000
,  // measure 34
0110
0000
0000
0110
0000
0000
0010
0000
,  // measure 35
0100
0010
0100
0001
,  // measure 36
0010
0100
1000
0001
,  // measure 37
0100
0010
0100
0000
,  // measure 38
0101
0000
0000
0101
0000
0000
0100
0000
,  // measure 39
0001
1000
0100
0010
,  // measure 40
0100
1000
0010
0100
,  // measure 41
0010
1000
0001
0000
,  // measure 42
0011
0000
0000
0011
0000
0000
0010
0000
,  // measure 43
0001
1000
0001
0010
,  // measure 44
0001
1000
0010
0100
,  // measure 45
0001
1000
0001
0000
,  // measure 46
1001
0000
0000
1001
0000
0000
0000
0000
,  // measure 47
1000
0100
0010
0100
,  // measure 48
1000
0000
0000
1000
0001
0000
0000
0001
,  // measure 49
0100
0000
0000
0100
0010
0000
0000
0000
,  // measure 50
0100
0000
0000
0100
0000
0000
0100
0000
,  // measure 51
1010
0000
0010
0100
,  // measure 52
0001
0000
0000
0001
0000
0000
0001
0000
,  // measure 53
1001
0000
0110
0000
,  // measure 54
1000
0000
0001
0010
0001
0000
1000
0000
,  // measure 55
0001
0000
1000
0100
1000
0000
0001
0000
,  // measure 56
0100
0010
0100
0010
0000
0000
0100
0010
,  // measure 57
0100
0010
0000
0000
1000
0000
0000
0000
,  // measure 58
0001
1000
0001
0000
0100
0000
1000
0000
,  // measure 59
0100
0000
0001
0000
1000
0000
0010
0100
,  // measure 60
0010
1000
0100
0001
,  // measure 61
0100
0000
1000
0000
0001
0000
0010
0001
,  // measure 62
0010
0000
1100
0000
,  // measure 63
0011
0000
1100
0000
,  // measure 64
0011
0000
0000
0010
0000
0000
0010
0000
,  // measure 65
0110
0000
0000
0000
0000
0000
1000
0010
,  // measure 66
2000
0000
0001
0000
3001
0000
1000
0010
,  // measure 67
2000
0000
0001
0000
3001
0000
1000
0100
,  // measure 68
1000
0000
0010
0000
0100
0001
0000
0010
,  // measure 69
0000
0000
0000
0000
0001
1000
0001
1000
,  // measure 70
0001
0010
0100
1000
,  // measure 71
0001
0010
0001
0000
0100
0010
0100
0000
,  // measure 72
0001
0000
1000
0000
0010
1000
0000
0001
,  // measure 73
0000
1000
0000
0000
0000
0000
0100
1000
,  // measure 74
0200
0000
0010
0000
0310
0000
0100
1000
,  // measure 75
0200
0010
0310
0001
,  // measure 76
0010
0000
0100
0000
1000
0001
0000
0100
,  // measure 77
0000
0000
0000
0000
0000
0000
0010
1000
,  // measure 78
0010
0000
0101
0000
,  // measure 79
1010
0010
0100
0001
,  // measure 80
2000
0000
0010
0000
,  // measure 81
0010
0000
0000
0000
3010
0000
0100
0010
,  // measure 82
0200
0000
0000
0000
,  // measure 83
0310
1000
0001
0010
,  // measure 84
0100
0000
0000
0100
0000
0000
0100
0000
,  // measure 85
2002
0000
3003
0000
,  // measure 86
0001
0000
1000
0000
,  // measure 87
0001
0000
1000
0000
,  // measure 88
0100
0000
0010
0000
,  // measure 89
0100
0000
0010
0000
,  // measure 90
0001
0000
0100
0000
,  // measure 91
0001
0000
0100
0000
,  // measure 92
0001
0000
1000
0000
,  // measure 93
0001
1000
0100
0010
,  // measure 94
0001
0000
0000
0001
0000
0000
1000
0000
,  // measure 95
0000
1000
0000
0000
0010
0000
0000
0010
,  // measure 96
0000
0000
0100
0000
0000
0100
0000
0000
,  // measure 97
0001
0000
0000
0001
0000
0000
1000
0000
,  // measure 98
0020
0000
0130
0010
,  // measure 99
0100
0010
0100
0010
,  // measure 100
0100
0000
0000
0100
0000
0000
0100
0000
,  // measure 101
2002
0000
0000
3003
,  // measure 102
0001
0000
1000
0100
0000
1000
0100
0000
,  // measure 103
1000
0001
1000
0000
0010
0000
0100
0000
,  // measure 104
0001
0000
1000
0100
0000
1000
0100
0000
,  // measure 105
0010
0000
0001
0000
1000
0001
1000
0000
,  // measure 106
0010
0000
0100
0000
0010
1000
0000
0100
,  // measure 107
0000
1000
0001
0000
0100
0010
0100
0000
,  // measure 108
0001
0000
0000
0000
0001
0000
0100
0000
0000
0000
0100
0000
,  // measure 109
0010
0000
0000
0000
0010
0000
1000
0000
0000
0000
0000
0000
,  // measure 110
1001
0000
0000
0100
0000
0000
0010
0000
,  // measure 111
0000
0001
0000
0000
0100
0000
0000
0001
,  // measure 112
0000
0000
1000
0000
0000
0100
0000
0000
,  // measure 113
0020
0000
0130
1000
,  // measure 114
0001
0001
0010
0010
,  // measure 115
0100
1000
0001
1000
,  // measure 116
0100
0000
0000
1100
0000
0000
0010
0000
,  // measure 117
0000
0110
0000
0000
0001
0000
0100
0001
,  // measure 118
0200
0000
0000
0000
0300
0000
0010
1000
,  // measure 119
0020
0000
0030
0000
,  // measure 120
1100
0000
0010
0000
,  // measure 121
0011
0000
0000
0000
0100
1000
0100
1000
,  // measure 122
0100
1000
0001
1000
,  // measure 123
0100
1000
0001
0100
,  // measure 124
0001
0000
1000
0000
0100
1000
0000
0001
,  // measure 125
0000
0100
0000
0000
0000
0000
0010
1000
,  // measure 126
0020
0000
0100
0000
0130
0000
0010
1000
,  // measure 127
0020
0100
0130
0001
,  // measure 128
0010
0000
0100
0000
1000
0001
0000
0100
,  // measure 129
0000
0000
0000
0000
0001
0000
1000
0100
,  // measure 130
1000
0000
0011
0000
,  // measure 131
1100
0010
0001
1000
,  // measure 132
0020
0000
0230
0000
,  // measure 133
0302
0000
0000
0000
0103
0000
0010
0100
,  // measure 134
0020
0000
0000
0000
,  // measure 135
0130
0001
0010
0100
,  // measure 136
1010
0000
0000
0010
0000
0000
0010
0000
,  // measure 137
2002
0000
3003
0000
,  // measure 138
1000
0000
0010
0000
1000
0001
1000
0000
,  // measure 139
0000
0000
0100
1000
0100
0000
0010
0000
,  // measure 140
0001
0000
0100
0000
0001
1000
0001
0000
,  // measure 141
0000
0000
0010
0001
0010
0000
0100
0000
,  // measure 142
1000
0000
0001
0000
0010
0100
0010
0000
,  // measure 143
0000
0000
0001
0100
0001
0000
1000
0000
,  // measure 144
0100
0000
0010
0000
0100
1000
0100
0000
,  // measure 145
0000
0000
1000
0001
1000
0001
1000
0000
,  // measure 146
0010
0000
1000
0000
0001
0010
0001
0000
,  // measure 147
0000
0000
0010
0000
0100
1000
0100
0000
,  // measure 148
0010
0000
0001
0000
0100
0010
0100
0000
,  // measure 149
0000
0000
0001
0000
0100
0010
0100
0000
,  // measure 150
0001
0000
1000
0000
0100
0010
0100
0000
,  // measure 151
0000
0000
1000
0000
0001
0100
0001
0000
,  // measure 152
1000
0000
0000
0100
0000
0000
0010
0000
,  // measure 153
0100
0000
0000
1000
0000
0000
0001
0000
,  // measure 154
0100
0010
0100
0010
0000
0000
1000
0001
,  // measure 155
1000
0001
0000
0000
0010
0100
0010
0100
;

//---------------dance-single - ----------------
#NOTES:
     dance-single:
     :
     Hard:
     16:
     0.877,1.000,0.259,0.335,0.038: // measure 1
0000
0000
0000
0000
,  // measure 2
0000
0000
0000
0000
,  // measure 3
0000
0000
0000
0000
,  // measure 4
0000
0000
0000
0000
,  // measure 5
0000
0000
0000
0000
,  // measure 6
0000
0000
0000
0000
,  // measure 7
0000
0000
0000
0000
,  // measure 8
1000
0000
0100
0000
1000
0000
0100
0000
0010
0000
0100
0000
,  // measure 9
0020
0000
0032
0000
,  // measure 10
1003
0000
0010
1000
0010
1000
0002
0000
,  // measure 11
0000
0000
0013
0000
0100
1000
0100
0000
,  // measure 12
1000
0000
0100
0010
0100
0010
0200
0000
,  // measure 13
0000
0000
1300
0000
0010
0100
0010
0000
,  // measure 14
0100
0000
0001
0010
0001
0010
0002
0000
,  // measure 15
0000
0000
0013
0000
0100
0010
0100
0000
,  // measure 16
1000
0000
0001
0100
0001
0100
0002
0000
,  // measure 17
0000
0000
1003
0100
0010
0001
1000
0000
,  // measure 18
0010
0100
0010
0100
0010
0100
0002
0000
,  // measure 19
0000
0000
1003
0000
0001
0100
0001
0000
,  // measure 20
1000
0000
0100
1000
0100
1000
0200
0000
,  // measure 21
0000
0000
0310
0000
0001
0100
0001
0000
,  // measure 22
1000
0100
1000
0100
1000
0100
0020
0000
,  // measure 23
0031
0000
0002
0000
1003
0010
0100
0000
,  // measure 24
0001
0100
0000
0001
0100
0000
0001
0000
,  // measure 25
1000
0100
0000
1000
0100
0000
0000
0000
,  // measure 26
1001
1000
0010
1000
,  // measure 27
0001
1000
0010
1000
,  // measure 28
0001
0010
0100
0010
,  // measure 29
0001
0100
0010
0000
0100
0010
1000
0000
,  // measure 30
0001
0010
0100
0010
,  // measure 31
0001
1000
0010
1000
,  // measure 32
0001
0010
0001
2000
0000
0000
3001
0010
,  // measure 33
0001
2000
0000
0000
3001
0000
0000
0000
,  // measure 34
0101
0000
0000
0101
0000
0000
0001
0000
,  // measure 35
1000
0000
0100
0000
1000
0001
1000
0000
,  // measure 36
0010
0000
1000
0000
0100
0010
0100
0000
,  // measure 37
1000
0001
1000
0000
0001
0000
0010
0000
,  // measure 38
1100
0000
0000
1100
0000
0000
1000
0000
,  // measure 39
0010
0000
0100
0000
0001
1000
0001
0000
,  // measure 40
0010
0000
0100
0000
1000
0100
1000
0000
,  // measure 41
0001
0000
0100
0000
0010
0100
0010
0000
,  // measure 42
1001
0000
0000
1001
0000
0000
1000
0000
,  // measure 43
0010
0000
0100
0000
0001
1000
0001
0000
,  // measure 44
0010
0000
0100
0000
1000
0010
1000
0000
,  // measure 45
0001
0100
0001
0000
0010
0000
0100
0000
,  // measure 46
1001
0000
0000
1001
0000
0000
0000
0000
,  // measure 47
1000
0000
0010
0000
1000
0001
1000
0001
,  // measure 48
0100
0000
0001
0100
0010
0000
0100
0010
,  // measure 49
1000
0000
0001
0010
0100
1000
0001
0000
,  // measure 50
0200
0000
0000
0001
0000
0000
0301
0000
,  // measure 51
1001
0000
0000
0000
1000
0100
0010
0000
,  // measure 52
0200
0000
0000
1000
0000
0000
1300
0000
,  // measure 53
0010
0100
0001
0000
1001
0000
0000
0000
,  // measure 54
1000
0100
0010
0000
0100
1000
0100
0000
,  // measure 55
0010
0001
0010
0000
0001
0010
0100
0000
,  // measure 56
1000
0010
1000
0002
0000
0000
1003
0010
,  // measure 57
1000
0002
0000
0000
0013
0000
0000
0000
,  // measure 58
0100
1000
0100
1000
0100
1000
0100
1000
,  // measure 59
0001
0100
0001
0100
0001
0100
0001
0000
,  // measure 60
0100
0010
0100
0010
0100
0010
0100
0010
,  // measure 61
1000
0100
1000
0100
1000
0100
1000
0000
,  // measure 62
1001
0000
0001
0100
0001
0000
1000
0010
,  // measure 63
1000
0000
0001
1000
0001
0000
1000
0001
,  // measure 64
2000
0000
0000
0100
0000
0000
3100
0000
,  // measure 65
1001
0000
0000
0000
0000
0000
0001
0010
,  // measure 66
0100
0000
0010
0001
0010
0000
0001
0010
,  // measure 67
0100
0000
0010
0001
0010
0000
0001
0010
,  // measure 68
0100
1000
0001
0000
0100
0001
0000
2000
,  // measure 69
0000
0000
3000
0000
0100
0010
0001
0010
,  // measure 70
0100
0000
1000
0010
1000
0001
0000
0100
,  // measure 71
0001
1000
0100
0010
0001
1000
0001
0000
,  // measure 72
0100
0001
0100
0000
0001
1000
0000
0100
,  // measure 73
0000
0020
0000
0000
0030
0000
0001
0100
,  // measure 74
0010
0000
0100
0010
0100
0000
0001
0100
,  // measure 75
0010
0000
0100
0010
0100
0000
0001
0100
,  // measure 76
0001
0000
1000
0000
0010
0100
0000
0020
,  // measure 77
0000
0000
0000
0000
0030
0000
1000
0100
,  // measure 78
0010
0000
0001
1000
0001
0000
0100
0010
,  // measure 79
0100
0001
0010
0100
1000
0010
1000
0001
,  // measure 80
0010
0000
0210
0000
,  // measure 81
1000
0000
0000
0000
1300
0000
0001
0010
,  // measure 82
0200
0000
1000
0000
,  // measure 83
1300
0010
0100
0001
0010
0100
1000
0000
,  // measure 84
1010
0000
0000
1010
0000
0000
1010
0000
,  // measure 85
2002
0000
3003
0000
,  // measure 86
0001
1000
0100
1000
,  // measure 87
0001
0010
1000
0010
,  // measure 88
0001
0100
0010
0100
,  // measure 89
0001
0100
1000
0100
,  // measure 90
0001
0100
0010
0001
,  // measure 91
0010
0100
0001
1000
,  // measure 92
0010
1000
0100
0010
,  // measure 93
0001
0000
0100
0001
0100
0001
1000
0100
,  // measure 94
0010
0000
0001
0010
0000
0000
0100
0000
,  // measure 95
1000
0100
0000
0000
0010
0000
0001
0100
,  // measure 96
0000
0000
0010
0000
1000
0100
0000
0000
,  // measure 97
0010
0000
0001
0010
0000
0100
1000
0010
,  // measure 98
0200
0000
0010
0010
,  // measure 99
0010
0010
0010
0310
,  // measure 100
0101
0000
0000
0101
0000
0000
0101
0000
,  // measure 101
2002
0000
0000
3003
,  // measure 102
1000
0000
0010
0100
0000
0010
0100
0000
,  // measure 103
0001
0010
0100
1000
0001
0100
0001
1000
,  // measure 104
0100
0010
0001
1000
0010
1000
0001
0010
,  // measure 105
0100
0010
0001
1000
0100
0010
0100
1000
,  // measure 106
0010
0000
0100
0000
0001
1000
0000
0100
,  // measure 107
0000
1000
0010
0100
0001
1000
0001
0000
,  // measure 108
0010
0000
0100
0000
1000
0000
0001
0000
0100
0000
0001
0000
,  // measure 109
1000
0000
0100
0000
0010
0000
0002
0000
0000
0000
0000
0000
,  // measure 110
0103
0001
0000
0001
1000
0000
0100
0010
,  // measure 111
0000
0010
0001
0000
0010
0100
0000
0100
,  // measure 112
1000
0000
0001
0100
0000
0100
0010
0000
,  // measure 113
2000
0000
0000
0000
3001
0000
1000
0001
,  // measure 114
0010
0001
0010
0001
1000
0001
1000
0000
,  // measure 115
0001
0010
0100
0000
0010
0001
0100
0000
,  // measure 116
1001
0000
0000
1010
0000
0000
1001
0000
,  // measure 117
0000
0101
0000
0000
1001
0000
1000
0100
,  // measure 118
0020
0000
0000
0000
0130
0000
1000
0100
,  // measure 119
0020
0000
0130
1000
,  // measure 120
0110
0000
0001
0000
1000
0010
0000
1010
,  // measure 121
0000
0000
0000
0000
0100
0010
0100
0010
,  // measure 122
0100
0001
0100
1000
,  // measure 123
0100
0001
0010
1000
,  // measure 124
0010
0000
0001
0000
1000
0010
0000
0100
,  // measure 125
0000
0002
0000
0000
0003
0000
1000
0010
,  // measure 126
0100
0000
0010
0100
0010
0000
1000
0010
,  // measure 127
0100
0000
0010
0100
0010
0000
1000
0010
,  // measure 128
0100
0010
1000
0100
0010
0001
0000
0200
,  // measure 129
0000
0000
0000
0000
0300
0000
0001
0100
,  // measure 130
0001
0000
1000
0100
0010
0000
0100
0010
,  // measure 131
0001
0000
1000
0010
0100
0000
0010
0100
,  // measure 132
0001
0000
0021
0000
,  // measure 133
0100
0000
0000
0000
0031
0000
0100
1000
,  // measure 134
0020
0000
1000
0000
,  // measure 135
1030
0001
0010
0100
1000
0001
0100
0000
,  // measure 136
1010
0000
0000
1010
0000
0000
1010
0000
,  // measure 137
2002
0000
3003
0000
,  // measure 138
0001
1000
0001
0010
0001
0010
0200
0000
,  // measure 139
0000
0000
0310
0001
0010
0001
1000
0000
,  // measure 140
0010
0100
0010
1000
0010
1000
0002
0000
,  // measure 141
0000
0000
1003
0100
0010
0001
1000
0000
,  // measure 142
0100
1000
0010
0100
0010
0100
0002
0000
,  // measure 143
0000
0000
0013
0001
0010
0001
0100
0000
,  // measure 144
0010
1000
0001
0010
0001
0010
0100
0000
,  // measure 145
1000
0010
0100
0001
1000
0100
1000
0000
,  // measure 146
0010
0100
0010
0100
0010
0100
0020
0000
,  // measure 147
0000
0000
1030
0100
1000
0001
0100
0000
,  // measure 148
0001
0100
0001
1000
0001
1000
0200
0000
,  // measure 149
0000
0000
0310
0001
0100
0010
0100
0000
,  // measure 150
0010
1000
0010
1000
0010
1000
0001
0010
,  // measure 151
0001
0010
0001
0010
0100
1000
0100
1000
,  // measure 152
0200
0000
0000
1300
0010
0000
0100
0000
,  // measure 153
0002
0000
0000
0013
0100
0000
0010
0000
,  // measure 154
0001
0100
0010
1000
0000
0000
0001
0100
,  // measure 155
0010
1000
0000
0000
0100
0010
0001
1000
;

//---------------dance-single - ----------------
#NOTES:
     dance-single:
     :
     Beginner:
     4:
     0.155,0.353,0.175,0.000,0.000: // measure 1
0000
0000
0000
0000
,  // measure 2
0000
0000
0000
0000
,  // measure 3
0000
0000
0000
0000
,  // measure 4
0000
0000
0000
0000
,  // measure 5
0000
0000
0000
0000
,  // measure 6
0000
0000
0000
0000
,  // measure 7
0000
0000
0000
0000
,  // measure 8
0000
0000
0000
0000
,  // measure 9
0000
0000
0000
0000
,  // measure 10
1000
0000
0000
0000
,  // measure 11
0000
0000
0000
0000
,  // measure 12
0001
0000
0000
0000
,  // measure 13
0000
0000
0000
0000
,  // measure 14
1000
0000
0000
0000
,  // measure 15
0000
0000
0000
0000
,  // measure 16
0001
0000
0000
0000
,  // measure 17
0000
0000
0000
0000
,  // measure 18
0010
0000
0000
0000
,  // measure 19
0000
0000
0000
0000
,  // measure 20
0001
0000
0000
0000
,  // measure 21
0000
0000
0000
0000
,  // measure 22
0010
0000
0000
0000
,  // measure 23
0100
0000
0000
0000
,  // measure 24
0010
0000
0000
0000
,  // measure 25
0000
0000
0000
0000
,  // measure 26
0100
0000
0000
0000
,  // measure 27
0000
0000
0000
0000
,  // measure 28
0000
0000
0000
0000
,  // measure 29
0000
0000
0000
0000
,  // measure 30
1000
0000
0000
0000
,  // measure 31
0000
0000
0000
0000
,  // measure 32
1001
0000
0000
0000
,  // measure 33
0000
0000
0000
0000
,  // measure 34
1001
0000
0000
0000
,  // measure 35
0000
0000
0000
0000
,  // measure 36
0000
0000
0000
0000
,  // measure 37
0000
0000
0000
0000
,  // measure 38
0110
0000
0000
0000
,  // measure 39
0000
0000
0000
0000
,  // measure 40
0000
0000
0000
0000
,  // measure 41
0000
0000
0000
0000
,  // measure 42
1001
0000
0000
0000
,  // measure 43
0001
0000
0000
0000
,  // measure 44
1000
0000
0000
0000
,  // measure 45
0001
0000
0000
0000
,  // measure 46
1001
0000
0000
0000
,  // measure 47
0000
0000
0000
0000
,  // measure 48
0010
0000
0000
0000
,  // measure 49
0010
0000
0000
0000
,  // measure 50
0110
0000
0000
0000
,  // measure 51
0000
0000
0000
0000
,  // measure 52
1000
0000
0000
0000
,  // measure 53
0000
0000
0000
0000
,  // measure 54
0100
0000
0000
0000
,  // measure 55
1000
0000
0000
0000
,  // measure 56
0100
0000
0000
0000
,  // measure 57
0000
0000
0000
0000
,  // measure 58
0010
0000
0000
0000
,  // measure 59
0010
0000
0000
0000
,  // measure 60
0001
0000
0000
0000
,  // measure 61
0001
0000
0000
0000
,  // measure 62
0100
0000
0000
0000
,  // measure 63
0010
0000
0000
0000
,  // measure 64
0100
0000
0000
0000
,  // measure 65
0000
0000
0000
0000
,  // measure 66
1001
0000
0000
0000
,  // measure 67
0001
0000
0000
0000
,  // measure 68
1000
0000
0000
0000
,  // measure 69
0000
0000
0000
0000
,  // measure 70
0100
0000
0000
0000
,  // measure 71
1000
0000
0000
0000
,  // measure 72
0010
0000
0000
0000
,  // measure 73
0000
0000
0000
0000
,  // measure 74
1001
0000
0000
0000
,  // measure 75
1000
0000
0000
0000
,  // measure 76
0001
0000
0000
0000
,  // measure 77
0000
0000
0000
0000
,  // measure 78
0010
0000
0000
0000
,  // measure 79
0001
0000
0000
0000
,  // measure 80
0100
0000
0000
0000
,  // measure 81
0000
0000
0000
0000
,  // measure 82
0110
0000
0000
0000
,  // measure 83
0110
0000
0000
0000
,  // measure 84
1001
0000
0000
0000
,  // measure 85
0000
0000
0000
0000
,  // measure 86
0001
0000
0000
0000
,  // measure 87
0000
0000
0000
0000
,  // measure 88
0001
0000
0000
0000
,  // measure 89
0000
0000
0000
0000
,  // measure 90
1000
0000
0000
0000
,  // measure 91
0000
0000
0000
0000
,  // measure 92
1000
0000
0000
0000
,  // measure 93
0000
0000
0000
0000
,  // measure 94
0001
0000
0000
0000
,  // measure 95
0000
0000
0010
0000
,  // measure 96
0000
0000
0000
0000
,  // measure 97
0100
0000
0000
0000
,  // measure 98
1000
0000
0000
0000
,  // measure 99
0000
0000
0000
0000
,  // measure 100
1001
0000
0000
0000
,  // measure 101
0000
0000
0000
0000
,  // measure 102
0001
0000
0000
0000
,  // measure 103
0100
0000
0000
0000
,  // measure 104
0001
0000
0000
0000
,  // measure 105
0100
0000
0000
0000
,  // measure 106
0010
0000
0000
0000
,  // measure 107
1000
0000
0000
0000
,  // measure 108
0010
0000
0000
0000
,  // measure 109
1000
0000
0000
0000
,  // measure 110
0100
0000
0000
0000
,  // measure 111
0010
0000
0000
0000
,  // measure 112
0100
0000
0000
0000
,  // measure 113
0010
0000
0000
0000
,  // measure 114
0001
0000
0000
0000
,  // measure 115
1000
0000
0000
0000
,  // measure 116
0100
0000
0000
0000
,  // measure 117
0000
0000
0000
0000
,  // measure 118
1001
0000
0000
0000
,  // measure 119
1001
0000
0000
0000
,  // measure 120
1001
0000
0000
0000
,  // measure 121
0000
0000
0000
0000
,  // measure 122
0010
0000
0000
0000
,  // measure 123
0010
0000
0000
0000
,  // measure 124
0010
0000
0000
0000
,  // measure 125
0000
0000
0000
0000
,  // measure 126
1001
0000
0000
0000
,  // measure 127
1001
0000
0000
0000
,  // measure 128
1001
0000
0000
0000
,  // measure 129
0000
0000
0000
0000
,  // measure 130
1000
0000
0000
0000
,  // measure 131
0100
0000
0000
0000
,  // measure 132
0010
0000
0000
0000
,  // measure 133
0001
0000
0000
0000
,  // measure 134
0100
0000
0000
0000
,  // measure 135
0100
0000
0000
0000
,  // measure 136
0110
0000
0000
0000
,  // measure 137
0110
0000
0000
0000
,  // measure 138
0001
0000
1000
0000
,  // measure 139
0001
0000
0000
0000
,  // measure 140
1000
0000
0001
0000
,  // measure 141
1000
0000
0000
0000
,  // measure 142
0100
0000
1000
0000
,  // measure 143
0100
0000
0000
0000
,  // measure 144
0010
0000
0100
0000
,  // measure 145
0010
0000
0000
0000
,  // measure 146
0001
0000
0001
0000
,  // measure 147
0001
0000
1000
0000
,  // measure 148
0001
0000
1000
0000
,  // measure 149
0100
0000
0000
0000
,  // measure 150
0010
0000
0001
0000
,  // measure 151
0010
0000
0001
0000
,  // measure 152
0100
0000
0100
0000
,  // measure 153
0100
0000
0100
0000
,  // measure 154
0110
0000
0000
0110
,  // measure 155
0000
0000
1001
0000
;
