#TITLE:風の谷のDREAM;
#SUBTITLE:;
#ARTIST:PINK PONG;
#TITLETRANSLIT:KAZE NO TANI NO DREAM;
#SUBTITLETRANSLIT:;
#ARTISTTRANSLIT:;
#CREDIT:DigiMindAxel;
#BANNER:KAZE NO TANI NO DREAM.png;
#BACKGROUND:KAZE NO TANI NO DREAM-bg.png;
#LYRICSPATH:;
#CDTITLE:beatmania IIDX.png;
#MUSIC:KAZE NO TANI NO DREAM.ogg;
#METERTYPE:DDR X;
#OFFSET:-2.060;
#SAMPLESTART:76.016;
#SAMPLELENGTH:12.000;
#SELECTABLE:YES;
#BPMS:0.000=146.000;
#STOPS:210.000=0.4109589
,241.000=0.4109589
;
#BGCHANGES:-3.000=KAZE NO TANI NO DREAM.avi=1.000=1=1=0,
99999=-nosongbg-=1.000=0=0=0 // don't automatically add -songbackground-
;

//---------------dance-single - ----------------
#NOTES:
     dance-single:
     :
     Easy:
     5:
     0.240,0.256,0.025,0.067,0.000:
0000
0000
0000
0000
,
0000
0000
0000
0000
,
0000
0000
0000
0000
,
0000
0000
0000
0000
,
0000
0000
0000
0000
,
0001
0010
0001
0000
,
1000
0100
1000
0001
,
0010
0100
0010
0000
,
0001
0100
0001
1000
,
0100
1000
0100
0000
,
0010
0100
0010
0001
,
0100
0010
0100
0000
,
0010
1000
0010
0100
,
0001
1000
0001
0000
,
0000
0010
0001
0010
,
0100
1000
0100
0000
,
0010
0001
0010
0100
,
1000
0010
1000
0000
,
0001
0100
0001
1000
,
0100
0010
0100
0000
,
1000
0100
1000
0001
,
0010
0100
1000
0000
,
0001
0010
0100
0000
,
0010
0100
1000
0000
,
0001
0100
0010
0000
,
0100
0010
1000
0000
,
0010
0100
0001
0000
,
0100
0010
1000
0000
,
0010
0100
0001
0000
,
1000
0100
0010
0000
,
0100
0010
0001
0000
,
1000
0100
0010
0000
,
0100
0010
0001
1000
,
0100
0010
0001
0000
,
1000
0010
0100
0000
,
0010
0100
0001
0000
,
0100
0010
1000
0001
,
2000
0000
0000
0000
,
3200
0000
0000
0000
,
2300
0000
0000
0000
,
3020
0000
0000
0000
,
0230
0000
0000
0000
,
0302
0000
0000
0000
,
2003
0000
0000
0000
,
3002
0000
0000
0003
,
1000
0100
1000
0000
,
0001
1000
0001
0100
,
0010
0100
0010
0000
,
0100
0001
0100
0001
,
1000
0100
1000
0000
,
0100
1000
0100
0010
,
0001
1000
0001
0000
,
0100
0010
0000
0001
,
0010
0100
0000
0010
,
0001
0010
0000
0001
,
0010
0100
0000
0010
,
0001
0010
0000
0100
,
1000
0010
0000
1000
,
0010
1000
0000
0100
,
1000
0010
0000
1000
,
0010
1000
0001
0001
,
1000
0100
0010
0001
,
1000
0000
0010
0010
,
0100
0001
0010
0100
,
0010
0000
0100
0100
,
1000
0010
0100
0001
,
0010
0000
0001
0001
,
0010
0100
1001
0000
,
1001
0000
0000
0110
0000
0000
0000
0000
;

//---------------dance-single - ----------------
#NOTES:
     dance-single:
     :
     Medium:
     10:
     0.423,0.427,0.050,0.117,0.133:
0000
0000
0000
0000
,
0000
0000
0000
0000
,
0000
0000
0000
0000
,
0000
0000
0000
0000
,
0000
0000
0000
0000
,
0001
0100
0000
0001
0100
0000
0010
1000
,
0000
0100
0000
0100
0010
0001
0100
0001
,
0000
1000
0000
1000
0100
0000
0010
0001
,
0000
0100
0000
0100
0010
1000
0100
1000
,
0000
0001
0000
0001
0010
0000
0100
0010
,
0000
0001
0000
0001
1000
0010
1000
0010
,
0000
0100
0000
0100
0001
0000
1000
0100
,
0000
0010
0000
0010
0001
1000
0010
1000
,
0000
0001
0000
0001
0010
0000
0100
0010
,
0000
0001
0000
0001
0100
0010
0100
0010
,
0000
1000
0000
1000
0100
0000
0010
0001
,
0000
0100
0000
0100
0010
1000
0100
1000
,
0000
0010
0000
0010
0100
0000
0001
0010
,
0000
0100
0000
0100
0010
0001
0010
0001
,
0000
0100
0000
0100
0010
0000
1000
0100
,
0000
0010
0000
0010
0100
0000
1000
0010
,
1000
0001
0010
0100
1000
0000
1000
0000
,
0001
0010
0100
1000
0001
0000
0001
0000
,
1000
0100
0010
0001
1000
0000
1000
0000
,
0001
0010
0100
1000
0001
0000
0001
0000
,
0100
0010
1000
0001
0010
0000
0010
0000
,
0100
1000
0001
0010
0100
0000
0100
0000
,
0010
0001
1000
0010
0100
0000
0100
0000
,
0001
1000
0100
0010
0100
0000
0110
0000
,
0100
0010
0001
1000
0010
1000
0000
1000
,
0000
0001
0010
0100
1000
0010
0000
0010
,
0000
0100
0001
0010
0100
1000
0000
1000
,
0000
0100
0010
0001
1000
0010
0100
0010
,
0000
0100
0001
0010
0100
1000
0000
1000
,
0000
0010
0100
0001
0010
0100
0000
0100
,
0000
0010
0001
1000
0100
0010
0000
0010
,
0000
0001
0100
0010
0100
0000
1001
0000
,
2100
0000
0000
0000
,
3002
0000
0000
0000
0000
0000
0000
0203
0000
0000
0000
0000
0000
0000
0000
0000
,
0320
0000
0000
0000
,
2030
0000
0000
0000
0000
0000
0000
0001
0000
0000
0000
0000
0000
0000
0000
0000
,
3002
0000
0000
0000
,
0023
0000
0000
0000
0000
0000
0000
0100
0000
0000
0000
0000
0000
0000
0000
0000
,
0230
0000
0000
2300
,
0002
0000
0000
3003
,
1000
0001
1000
0001
0100
0010
1000
0000
,
0100
0010
0100
0010
0001
1000
0100
0000
,
0010
0001
0010
0001
1000
0010
0100
0000
,
0010
1000
0010
1000
0001
0010
0100
0000
,
0010
0001
0010
0001
0100
0010
1000
0000
,
0001
0010
0001
0010
0100
1000
0010
0000
,
0100
0001
0100
0001
0010
0100
1000
0000
,
0010
0100
0010
1000
0010
0000
0200
0000
,
0001
0000
0301
1000
,
0010
0000
1000
0001
0010
0100
2000
0000
,
0010
0000
3010
0100
,
0001
0000
1000
0100
0010
0001
0200
0000
,
0001
0000
0301
1000
,
0100
0000
0010
0100
1000
0001
0200
0000
,
0001
0000
0000
0000
0301
0000
1000
0100
,
0010
0000
0100
0000
1000
0000
0000
0000
0010
0000
0000
0100
0000
0001
0000
0100
,
0000
0010
0000
0000
1000
0000
0000
0000
0001
0000
0000
0010
0000
0001
0000
0010
,
0000
0100
0000
0000
1000
0000
0000
0000
0100
0000
0000
0010
0000
0100
0000
1000
,
0000
0010
0000
0000
0100
0000
0000
0000
0001
0000
0000
0010
0000
0001
0000
0010
,
0000
0100
0000
0000
0010
0000
0000
0000
0001
0000
1000
0010
0000
1000
0000
0010
,
0000
0100
0000
0000
0001
0000
0000
0000
1000
0000
0001
0010
0000
0001
0000
0010
,
0000
0100
0000
0000
1000
0000
0000
0000
0001
0000
0100
0010
0000
0100
0000
0010
,
0000
1000
0000
0000
0001
0000
0000
0000
1001
0000
0000
0000
1001
0000
0000
0000
,
1000
0000
0000
0100
0000
0000
0011
0000
0000
0000
0000
0000
0000
0000
0000
0000
;

//---------------dance-single - ----------------
#NOTES:
     dance-single:
     :
     Hard:
     13:
     0.551,0.569,0.067,0.158,0.341: // measure 1
0000
0000
0000
0000
,  // measure 2
0000
0000
0000
0000
,  // measure 3
0000
0000
0000
0000
,  // measure 4
0000
0000
0000
0000
,  // measure 5
0000
0000
0000
0000
,  // measure 6
1000
0010
0100
0010
0100
0010
1000
0100
,  // measure 7
0000
0010
0001
1000
0001
1000
0001
0010
,  // measure 8
0000
0100
1000
0010
1000
0010
1000
0100
,  // measure 9
0000
0010
0001
1000
0001
1000
0001
0010
,  // measure 10
0000
0100
0010
0001
0010
0001
0010
0100
,  // measure 11
0000
1000
0010
0100
0010
0100
0010
1000
,  // measure 12
0000
0001
1000
0100
1000
0100
1000
0001
,  // measure 13
0000
1000
0100
0010
0100
0010
0100
1000
,  // measure 14
0001
0100
0010
0100
0001
0001
1000
1000
,  // measure 15
0000
0100
0010
0100
1000
0010
0001
0010
,  // measure 16
0000
1000
0010
0100
0010
0010
1000
1000
,  // measure 17
0000
0001
1000
0100
1000
0010
0001
0010
,  // measure 18
0000
1000
0010
1000
0001
0100
1000
0100
,  // measure 19
0000
0001
0010
0001
1000
0010
0001
0010
,  // measure 20
0000
1000
0100
0001
0100
1000
0100
0010
,  // measure 21
0000
0001
0010
1000
0010
0001
0100
0010
,  // measure 22
1000
0100
0010
0001
0200
0000
0000
0000
,  // measure 23
0310
1000
0001
0010
0200
0000
0000
0000
,  // measure 24
0310
0001
1000
0100
0020
0000
0000
0000
,  // measure 25
0130
1000
0001
0010
0200
0000
0000
0000
,  // measure 26
1300
0010
0001
0010
2000
0000
0000
0000
,  // measure 27
3001
0010
1000
0010
0002
0000
0000
0000
,  // measure 28
1003
0100
0001
0100
2000
0000
0000
0000
,  // measure 29
3001
0000
0100
0000
1000
0000
0100
0000
0002
0000
0000
0000
1003
0000
0001
0010
,  // measure 30
0001
0000
1000
0000
0100
0000
0010
0100
0010
0000
0001
0000
0100
0000
0010
0000
,  // measure 31
0000
0000
0100
0000
0001
0000
0010
0100
0010
0000
0100
0000
1000
0000
0010
0100
,  // measure 32
0001
0000
0010
0000
0100
0000
1000
0010
1000
0000
0001
0000
0010
0000
0001
0000
,  // measure 33
0000
0000
0010
0000
0100
0000
1000
0010
1000
0000
0001
0000
0010
0000
0100
0010
,  // measure 34
0100
0000
1000
0100
0010
0000
0100
0000
1000
0000
0001
0000
0100
0000
0010
0000
,  // measure 35
0000
0000
0100
0000
0001
0000
0010
0001
0010
0000
0100
0000
1000
0000
0010
0100
,  // measure 36
0010
0000
1000
0001
0100
0000
0001
0000
0010
0000
0100
0000
0010
0000
0001
1000
,  // measure 37
0001
0000
0100
0010
0100
0000
0001
0000
0011
0000
0000
0000
1100
0000
0000
0000
,  // measure 38
0210
0000
0000
0000
,  // measure 39
0320
0000
0000
0000
0000
0000
0000
0230
0000
0000
0000
0000
0000
0000
0000
0000
,  // measure 40
0302
0000
0000
0000
,  // measure 41
2003
0000
0000
0000
0000
0000
0000
3200
0000
0000
0000
0000
0000
0000
0000
0000
,  // measure 42
2300
0000
0000
0000
,  // measure 43
3020
0000
0000
0000
0000
0000
0000
0230
0000
0000
0000
0000
0000
0000
0000
0000
,  // measure 44
0320
0000
0000
0000
0000
0000
1030
0001
,  // measure 45
2000
0000
0000
0000
0000
0000
0000
0000
0000
0000
3000
0001
0100
0000
0100
0000
,  // measure 46
0001
0000
1000
0010
0000
0100
0000
0010
0000
0100
0001
0000
1000
0000
0100
0000
,  // measure 47
1000
0000
0001
0100
0000
0010
0000
0100
0000
0010
1000
0000
0001
0000
0001
0000
,  // measure 48
0100
0000
0010
1000
0000
0100
0000
1000
0000
0100
0010
0000
0001
0000
0100
0000
,  // measure 49
0001
0000
1000
0100
0000
0010
0000
0100
0000
0010
0001
0000
1000
0000
1000
0000
,  // measure 50
0010
0000
0100
0001
0000
0010
0000
0001
0000
0010
0100
0000
1000
0000
0001
0000
,  // measure 51
1000
0000
0010
0100
0000
0001
0000
0100
0000
0001
0010
0000
0100
0000
0100
0000
,  // measure 52
1000
0000
0100
0010
0000
0001
0000
0010
0000
0001
0100
0000
0010
0000
0100
0000
,  // measure 53
0001
0000
1000
0001
0000
0010
0000
0100
0000
0000
0000
0000
1000
0000
0010
0000
,  // measure 54
0000
0010
0100
0010
1000
0000
0001
0010
,  // measure 55
0000
0010
0100
0010
0001
1000
0010
1000
,  // measure 56
0000
1000
0001
0010
0100
0000
0010
0001
,  // measure 57
0000
0001
1000
0100
0010
0001
0100
0010
,  // measure 58
0000
0010
1000
0100
1000
0000
0010
0100
,  // measure 59
0000
0100
0001
0010
0100
1000
0001
0100
,  // measure 60
0000
0000
0100
0000
0010
0000
1000
0000
0100
0000
0010
0000
0001
1000
0001
1000
,  // measure 61
0001
1000
0001
1000
0100
0000
0000
0000
0010
0000
0001
1000
0000
0100
0000
0010
,  // measure 62
0000
0001
1000
0000
0010
0000
0010
0000
0100
0000
0001
1000
0000
0010
0000
0100
,  // measure 63
0000
0001
0010
0000
0100
0000
0010
0000
0001
0000
1000
0001
0000
0010
0000
0100
,  // measure 64
0000
1000
0001
0000
0100
0000
0100
0000
0001
0000
1000
0001
0000
0100
0000
0010
,  // measure 65
0000
1000
0001
0000
1000
0000
0100
0000
1000
0000
0001
1000
0000
0100
0000
0001
,  // measure 66
0000
0100
1000
0000
0001
0000
0100
0000
0001
0000
1000
0001
0000
0010
0000
1000
,  // measure 67
0000
0010
0001
0000
1000
0000
0100
0000
1000
0000
0001
0010
0000
1000
0000
0010
,  // measure 68
0000
0001
1000
0100
1000
0000
0001
0000
1001
0000
0000
0000
1001
0000
0000
0000
,  // measure 69
1100
0000
0000
0011
0000
0000
0110
0000
0000
0000
0000
0000
0000
0000
0000
0000
;

//---------------dance-single - ----------------
#NOTES:
     dance-single:
     :
     Beginner:
     1:
     0.068,0.112,0.050,0.000,0.000:
0000
0000
0000
0000
,
0000
0000
0000
0000
,
0000
0000
0000
0000
,
0000
0000
0000
0000
,
0000
0000
0000
0000
,
0001
0000
0000
0000
,
1000
0000
0000
0000
,
0001
0000
0000
0000
,
0010
0000
0000
0000
,
0001
0000
0000
0000
,
0100
0000
0000
0000
,
0010
0000
0000
0000
,
0100
0000
0000
0000
,
1001
0000
0000
0000
,
0001
0000
0000
0000
,
1000
0000
0000
0000
,
0100
0000
0000
0000
,
1000
0000
0000
0000
,
0001
0000
0000
0000
,
1000
0000
0000
0000
,
0010
0000
0000
0000
,
1001
0000
0000
0000
,
0000
0000
0000
0000
,
1000
0000
0000
0000
,
0000
0000
0000
0000
,
0001
0000
0000
0000
,
0000
0000
0000
0000
,
1000
0000
0000
0000
,
0000
0000
0000
0000
,
1001
0000
0000
0000
,
0000
0000
0000
0000
,
0001
0000
0000
0000
,
0000
0000
0000
0000
,
0100
0000
0000
0000
,
0000
0000
0000
0000
,
0001
0000
0000
0000
,
1000
0000
1000
0000
,
1001
0000
0000
0000
,
0000
0000
0000
0000
,
0001
0000
0000
0000
,
0000
0000
0000
0000
,
1000
0000
0000
0000
,
0000
0000
0000
0000
,
1000
0000
0000
0000
,
0000
0000
0000
0000
,
0110
0000
0000
0000
,
0010
0000
0000
0000
,
0100
0000
0000
0000
,
0010
0000
0000
0000
,
0100
0000
0000
0000
,
0001
0000
0000
0000
,
0010
0000
0000
0000
,
0001
0000
0000
1000
,
0000
0000
0000
0000
,
0000
0000
0000
0001
,
0000
0000
0000
0000
,
0000
0000
0000
1000
,
0000
0000
0000
0000
,
0000
0000
0000
0001
,
0000
0000
0000
0100
,
0000
0000
0010
0000
,
0000
0000
0100
0000
,
0000
0000
0010
0000
,
0000
0000
1000
0000
,
0000
0000
0001
0000
,
0000
0000
0010
0000
,
0000
0000
0001
0000
,
0000
0000
1001
0000
;
