#TITLE:Journey;
#SUBTITLE:;
#ARTIST:猫叉Master;
#TITLETRANSLIT:;
#SUBTITLETRANSLIT:;
#ARTISTTRANSLIT:Nekomata Master;
#CREDIT:DigiMindAxel;
#BANNER:Journey.png;
#BACKGROUND:Journey-bg.png;
#LYRICSPATH:;
#CDTITLE:REFLEC BEAT.png;
#MUSIC:Journey.ogg;
#METERTYPE:DDR X;
#OFFSET:-9.846;
#SAMPLESTART:78.404;
#SAMPLELENGTH:12.000;
#SELECTABLE:YES;
#BPMS:0.000=112.000;
#STOPS:;
#BGCHANGES:;

//---------------dance-single - ----------------
#NOTES:
     dance-single:
     :
     Easy:
     5:
     0.210,0.180,0.000,0.098,0.000: // measure 1
0001
1000
0000
1000
,  // measure 2
0000
0010
0000
0010
,  // measure 3
0000
0100
0000
0100
,  // measure 4
0000
0001
1000
0001
,  // measure 5
1000
0100
1000
0100
,  // measure 6
0010
0001
0010
0001
,  // measure 7
1000
0100
1000
0100
,  // measure 8
0010
0001
0010
0000
,  // measure 9
0001
1000
0001
1000
,  // measure 10
0010
1000
0010
1000
,  // measure 11
0001
0100
0001
0100
,  // measure 12
0010
0100
0010
0000
,  // measure 13
2000
0000
3002
0000
,  // measure 14
0023
0000
0230
0000
,  // measure 15
2300
0000
3002
0000
,  // measure 16
0103
0010
0100
0010
,  // measure 17
2000
0000
3002
0000
,  // measure 18
0023
0000
0032
0000
,  // measure 19
0203
0000
0320
0000
,  // measure 20
1030
0001
1000
0001
,  // measure 21
0010
0100
0100
0100
,  // measure 22
0010
0001
1000
0000
,  // measure 23
0010
0100
0100
0100
,  // measure 24
0010
1000
0100
0000
,  // measure 25
0010
0001
0001
0001
,  // measure 26
0010
0100
1000
0000
,  // measure 27
0001
0100
0001
0000
,  // measure 28
1000
0001
1000
0000
,  // measure 29
0100
1000
0100
0000
,  // measure 30
0010
0100
0010
0100
,  // measure 31
0010
0001
0010
0001
,  // measure 32
0100
0010
0100
0010
,  // measure 33
1000
0100
0010
0001
,  // measure 34
1000
1000
1000
0000
,  // measure 35
0001
0001
0001
0010
,  // measure 36
0100
1000
0010
0000
,  // measure 37
1000
0100
0010
0001
,  // measure 38
0100
0100
0100
0010
,  // measure 39
0100
0100
0100
0001
,  // measure 40
1000
0100
0010
0000
,  // measure 41
0001
1000
0010
0100
,  // measure 42
0001
0001
0001
0010
,  // measure 43
0100
0010
0100
0000
,  // measure 44
1000
0010
1000
0001
,  // measure 45
0010
0100
1000
0010
,  // measure 46
0100
0100
0100
0001
,  // measure 47
1000
1000
0100
0010
,  // measure 48
0001
0001
0100
0010
,  // measure 49
0100
0000
0001
0000
1000
0000
0001
1000
;

//---------------dance-single - ----------------
#NOTES:
     dance-single:
     :
     Medium:
     8:
     0.377,0.341,0.000,0.189,0.012: // measure 1
0000
1000
0000
1000
0000
0100
0000
0100
,  // measure 2
0000
1000
0000
1000
0000
0010
0000
0010
,  // measure 3
0000
1000
0000
1000
0000
0001
0000
0001
,  // measure 4
0000
0010
0000
0010
0100
0010
0100
0010
,  // measure 5
0001
0000
0100
0000
1000
0100
0001
0001
,  // measure 6
0010
0000
0100
0000
1000
0010
0100
0100
,  // measure 7
0001
0000
0010
0000
1000
0010
0001
0001
,  // measure 8
0010
0000
0200
0000
0320
0000
0230
1000
,  // measure 9
1300
0000
0100
0000
0001
0100
1000
1000
,  // measure 10
0100
0000
0010
0000
0001
0010
0100
0100
,  // measure 11
1000
0000
0010
0000
0001
0010
1000
1000
,  // measure 12
0100
0000
0010
0000
0001
1000
0100
1000
,  // measure 13
0001
0100
0001
0000
1000
0001
1000
0010
,  // measure 14
0100
0001
0100
0000
0001
1000
0001
1000
,  // measure 15
0100
1000
0100
0000
0010
0100
0010
0001
,  // measure 16
1000
0010
1000
0010
0100
0001
1000
0000
,  // measure 17
0100
1000
0100
1000
0010
0100
0010
0000
,  // measure 18
0100
0001
0100
0001
0010
0100
0010
0000
,  // measure 19
0100
0010
0100
1000
0001
0100
0010
1000
,  // measure 20
0100
1000
0100
1000
0001
0100
0001
1000
,  // measure 21
0200
0000
0000
0000
0010
0000
0000
0000
0010
0000
0000
0000
0310
0000
0000
0001
,  // measure 22
1000
0100
0010
0001
1000
0000
0000
0000
,  // measure 23
0020
0100
0100
0130
,  // measure 24
0001
0000
0000
0010
0000
0000
0100
0000
1000
0000
0000
0000
0001
0000
0100
0000
,  // measure 25
0020
0000
0000
0000
0100
0000
0000
0000
0100
0000
0000
0000
0130
0000
0000
0001
,  // measure 26
1000
0100
0010
0001
1000
0000
0100
1000
,  // measure 27
0100
0010
0100
0010
0000
0100
0010
0100
,  // measure 28
0000
0010
0100
0010
0001
0000
0100
0000
,  // measure 29
0010
1000
0010
1000
0000
0010
1000
0010
,  // measure 30
0000
1000
0010
1000
0001
0000
0010
0000
,  // measure 31
0100
1000
0100
1000
0001
0100
0001
0100
,  // measure 32
0010
1000
0010
1000
0001
0010
0100
1000
,  // measure 33
0020
0000
0230
0000
0320
0000
1030
0001
,  // measure 34
0010
0000
0001
0010
0100
0000
1000
0100
,  // measure 35
0010
0000
0100
0010
0002
0000
1003
0010
,  // measure 36
0200
0010
0010
0310
,  // measure 37
2000
0000
3002
0000
2003
0000
3100
0010
,  // measure 38
0001
0000
0010
0001
1000
0000
0100
0010
,  // measure 39
0001
0000
0100
0010
2000
0000
3010
0100
,  // measure 40
0002
0010
0010
0013
,  // measure 41
0200
0000
2300
0000
3020
0000
0130
0001
,  // measure 42
0010
0000
0100
0010
0100
0000
1000
0010
,  // measure 43
0100
0001
0100
0001
1000
1000
0100
0100
,  // measure 44
0010
0001
0010
0001
0100
0100
0010
1000
,  // measure 45
0200
0302
0203
2300
,  // measure 46
3001
0010
0100
1000
0010
0000
0100
0001
,  // measure 47
0100
0001
0100
0010
1000
1000
0100
0100
,  // measure 48
0010
0001
0010
0001
0100
0100
0010
0010
,  // measure 49
1000
0100
0001
0100
1000
1000
0010
0010
;

//---------------dance-single - ----------------
#NOTES:
     dance-single:
     :
     Hard:
     13:
     0.573,0.622,0.254,0.221,0.488: // measure 1
0000
0011
0000
0011
0000
1010
0000
1010
,  // measure 2
0000
0110
0000
0110
0000
1001
0000
1001
,  // measure 3
0000
1010
0000
1010
0000
0011
0000
0011
,  // measure 4
0000
0000
1001
0000
0000
0000
0110
0000
0100
0000
0001
0000
0010
0100
0010
0000
,  // measure 5
1001
0000
0001
0100
0001
0000
1000
0010
1000
0001
0000
0010
0100
0000
1000
0000
,  // measure 6
0001
0000
0010
0001
0010
0000
0100
1000
0100
0010
0000
0001
0100
0000
0010
0000
,  // measure 7
1000
0000
0001
1000
0001
0000
1000
0001
1000
0010
0000
0100
0001
0000
0010
0100
,  // measure 8
2000
0000
0010
0000
0010
0000
3010
0100
,  // measure 9
1001
0000
1000
0100
1000
0000
0001
0010
0001
1000
0000
0010
1000
0000
0001
0000
,  // measure 10
0010
0000
0100
0010
0100
0000
1000
0010
1000
0001
0000
1000
0001
0000
0010
0000
,  // measure 11
0100
0000
1000
0010
1000
0000
0001
0010
0001
1000
0100
1000
0001
0010
0100
1000
,  // measure 12
0002
0000
1000
0000
1003
0010
0110
0010
,  // measure 13
1000
0010
1000
0010
1000
0010
1000
0000
0110
0000
0001
0000
0110
0000
1000
0000
,  // measure 14
0001
0010
0001
0010
0001
0010
0001
0000
0110
0000
1000
0000
0110
0000
0001
0000
,  // measure 15
0100
0010
0100
0010
0100
0010
0100
0000
0011
0000
0100
0000
1010
0000
0100
0000
,  // measure 16
0001
0010
0001
0010
0100
1000
0100
1000
0001
1000
0001
1000
0001
0000
1001
0000
,  // measure 17
1000
0010
1000
0010
0100
0001
0100
0000
1001
0000
0100
0000
0011
0000
0100
0000
,  // measure 18
1000
0010
1000
0010
0100
0001
0100
0000
1001
0000
0010
0000
1100
0000
0010
0000
,  // measure 19
0001
1000
0001
1000
0100
0010
0100
0000
1010
0000
0100
0001
0010
0100
1000
0000
,  // measure 20
0100
1000
0100
1000
0001
1000
0001
1000
0010
0100
0001
0100
0010
1000
0001
0010
,  // measure 21
0002
0000
0000
0000
1000
0000
0000
0000
1000
0000
0000
0000
1003
0000
0000
0001
,  // measure 22
0100
0010
1000
0100
0010
0000
0001
0100
,  // measure 23
0020
0000
0000
0000
0100
0000
0000
0000
0100
0000
0000
0000
0130
0000
0000
0010
,  // measure 24
2000
0000
0000
3002
0000
0000
0013
0000
0100
0000
0000
0000
1000
0000
0001
0000
,  // measure 25
0020
0000
0000
0000
0001
0000
0000
0000
0001
0000
0000
0000
0031
0000
0000
0010
,  // measure 26
0100
1000
0001
0100
0010
0000
1000
0010
,  // measure 27
2000
0001
0000
0001
0000
0100
0000
0100
,  // measure 28
0000
0001
0000
0001
0000
0100
0000
3100
,  // measure 29
0020
0001
0001
0001
0000
0100
0100
0100
,  // measure 30
0100
0000
0001
0000
0001
0000
0001
0031
,  // measure 31
1001
0000
0001
0100
0000
0001
0100
0000
0001
0000
1000
0100
0000
1000
0100
0000
,  // measure 32
0010
0000
0001
1000
0000
0001
1000
0000
0010
0000
0100
0001
0000
0100
0001
0000
,  // measure 33
2001
0000
3020
0000
0230
0000
0301
0010
,  // measure 34
1000
0000
0010
0000
0001
0000
1000
0010
0100
0000
0000
0000
0001
0000
0100
0000
,  // measure 35
1000
0000
0100
0000
0001
0000
0010
0100
2000
0000
0000
0000
3001
0000
0100
0000
,  // measure 36
0020
0000
0100
0000
0100
0000
0130
0001
,  // measure 37
0020
0000
0230
0000
2300
0000
3001
0010
,  // measure 38
1000
0000
0010
0000
0001
0000
1000
0010
0200
0000
0000
0000
0301
0000
0100
0000
,  // measure 39
1000
0000
0100
0000
0001
0000
0010
0100
2000
0000
0000
0000
3100
0000
0010
0100
,  // measure 40
2000
0000
0001
0000
0001
0000
3001
1000
,  // measure 41
0020
0100
0230
0001
0302
1000
1003
0010
,  // measure 42
0001
0000
0010
0000
1000
0000
0100
0010
0001
0000
0100
0000
0010
0000
0100
0000
,  // measure 43
0001
0100
0001
0100
0001
0100
0010
1000
0100
0010
0000
0100
0010
0001
1000
0010
,  // measure 44
0000
1000
0010
1000
0010
1000
0001
0010
0100
1000
0000
0100
0010
0001
1000
0000
,  // measure 45
0002
0100
0203
0010
0320
1000
2030
0010
,  // measure 46
3010
1000
0100
0001
0100
1000
0001
0100
,  // measure 47
0010
1000
0010
1000
0001
0010
0001
1000
0010
0100
0000
0010
0100
0001
0010
0100
,  // measure 48
0000
0010
0001
0010
0001
0100
0010
1000
0100
0010
0000
0100
0010
0001
1000
0010
,  // measure 49
0000
0100
0010
0100
0010
1000
0100
0010
0100
1000
0000
0100
1000
0001
0010
0100
;

//---------------dance-single - ----------------
#NOTES:
     dance-single:
     :
     Challenge:
     15:
     0.786,0.722,0.246,0.238,1.000: // measure 1
2000
0000
0100
0000
0000
0000
3100
0000
0000
0010
0001
1000
0010
0100
0010
1000
,  // measure 2
0002
0000
0010
0000
0000
0000
0013
0000
0000
0100
1000
0001
0100
0010
0100
0001
,  // measure 3
2000
0000
0010
0000
0000
0000
3010
0000
0000
0100
0001
0010
0100
0010
0001
0100
,  // measure 4
0000
0010
1000
0100
0010
0001
1000
0010
1000
0001
0010
0100
1000
0001
1000
0000
,  // measure 5
0001
0100
0001
0100
0001
1000
0100
1000
0100
0010
0000
0100
0010
0000
0001
0000
,  // measure 6
1000
0100
1000
0100
0010
0001
0010
0001
0100
0010
1000
0100
0010
0000
0100
0000
,  // measure 7
1000
0001
1000
0001
0100
0001
0100
0001
1000
0100
0000
1000
0100
0010
0001
1000
,  // measure 8
0002
0000
0000
0100
0100
0000
0000
1000
1000
0000
0000
0100
0103
0000
0010
0000
,  // measure 9
1000
0001
1000
0001
0100
0001
0100
0001
1000
0100
0000
1000
0100
0000
0010
0000
,  // measure 10
0100
1000
0100
1000
0001
0100
0010
0001
0010
0100
0001
1000
0010
0000
0100
0000
,  // measure 11
0001
1000
0001
1000
0010
0100
0010
0100
0001
0010
0100
0001
0100
0010
0001
1000
,  // measure 12
0020
0000
0000
0100
0100
0000
0000
0100
0130
0001
0010
0100
1000
0001
0100
0010
,  // measure 13
1000
0000
0100
0000
1000
0000
0100
0000
0010
0000
0001
0000
0010
0000
0001
0000
0100
0010
0100
0000
0001
0000
0010
0000
0100
0000
1000
0000
0001
0000
0000
0000
,  // measure 14
1000
0000
0010
0000
1000
0000
0010
0000
0100
0000
0001
0000
0100
0000
0001
0000
1000
0100
1000
0000
0001
0000
0100
0000
0001
0000
0010
0000
0100
0000
0000
0000
,  // measure 15
0010
0000
0001
0000
0010
0000
0001
0000
1000
0000
0010
0000
1000
0000
0010
0000
0100
0001
0100
0000
0010
0000
1000
0000
0010
0000
0100
0000
0001
0000
0010
0000
,  // measure 16
0000
0000
0001
0000
0100
0000
1000
0000
0100
0000
0001
0000
0010
0000
0100
0000
1000
0010
1000
0000
0001
0000
0100
0000
0010
0100
0010
0000
0100
0000
0000
0000
,  // measure 17
0001
0000
1000
0000
0100
0000
1000
0000
0001
0000
1000
0000
0100
0000
0010
0000
0001
1000
0001
0000
0010
0000
0100
0000
0010
0000
0001
0000
1000
0000
0000
0000
,  // measure 18
0100
0000
0010
0000
0001
0000
0010
0000
0100
0000
0010
0000
0001
0000
0010
0000
0100
0010
0100
0000
1000
0000
0001
0000
0100
0000
0010
0000
0100
0000
0001
0000
,  // measure 19
0000
0000
1000
0000
0100
0000
1000
0000
0001
0000
1000
0000
0100
0000
1000
0000
0001
0100
0001
0000
1000
0000
0010
0000
0100
0000
0010
0000
1000
0000
0100
0000
,  // measure 20
0000
0010
0100
1000
0001
0100
0001
1000
0100
0010
0001
0010
0100
1000
0001
0100
,  // measure 21
2001
0000
0000
0000
0000
0000
0000
0000
3020
0000
0000
0000
0000
0000
0130
0001
0200
0000
0000
0000
0000
0000
0310
0100
0020
0000
0000
0000
0000
0000
0130
0000
,  // measure 22
0001
1000
0110
1001
0110
0000
1000
0010
,  // measure 23
0200
0000
0000
0000
0000
0000
0000
0000
0302
0000
0000
0000
0000
0000
1003
0100
2000
0000
0000
0000
0000
0000
3010
0100
0020
0000
0000
0000
0000
0000
0130
0000
,  // measure 24
0002
0000
0000
2003
0000
0000
3100
0000
0011
0000
0000
0000
1001
0000
1000
0000
,  // measure 25
0200
0000
0000
0000
0000
0000
0000
0000
2300
0000
0000
0000
0000
0000
3010
0100
0020
0000
0000
0000
0000
0000
0130
0001
0200
0000
0000
0000
0000
0000
0310
0000
,  // measure 26
1000
0100
0011
1001
1100
0000
0010
0010
,  // measure 27
0001
1000
0001
1000
0100
1000
0100
1000
0000
0100
1000
0100
1000
0001
1000
0001
,  // measure 28
0000
0100
0001
0100
0001
0010
0100
0010
0001
0100
0010
0100
0001
1000
0001
1000
,  // measure 29
0000
0010
1000
0010
1000
0001
0010
0001
0000
0100
0010
0100
0001
1000
0001
1000
,  // measure 30
0000
0100
1000
0100
0010
0001
0100
0001
0010
0100
1000
0001
0100
0001
1000
0000
,  // measure 31
1001
0000
1000
1010
0000
0010
0110
0000
0001
0010
0100
1000
0100
0010
0001
0000
,  // measure 32
0110
0000
0010
1010
0000
1000
1100
0000
0010
0001
0100
0001
0010
0100
1000
0000
,  // measure 33
1010
0000
0000
0000
0000
0000
0010
0000
0200
0000
0000
0000
0000
0000
0310
0000
2000
0000
0000
0000
0000
0000
3001
0000
0020
0000
0000
0000
0130
0000
1000
0010
,  // measure 34
1000
0000
0000
0000
0010
0000
0000
0000
0110
0000
0000
0000
0001
0100
0001
0000
1001
0000
0000
0000
0000
0000
0000
0000
1000
0000
0000
0000
0100
0000
0000
0000
,  // measure 35
0011
0000
0000
0000
0100
0000
0000
0000
0110
0000
0000
0000
1000
0010
1000
0000
1002
0000
0000
0000
0000
0000
0000
0000
1003
0000
0000
0000
0100
0000
0000
0000
,  // measure 36
0020
0000
0000
0001
0001
0000
0000
0100
0130
0000
0000
0001
0010
0000
0110
0000
,  // measure 37
1100
0000
0000
0000
0000
0000
1000
0000
0002
0000
0000
0000
0000
0000
0013
0000
0200
0000
0000
0000
0000
0000
1300
0000
0020
0000
0000
0000
0130
0000
0001
1000
,  // measure 38
0001
0000
0000
0000
1000
0000
0000
0000
1001
0000
0000
0000
0010
0100
0010
0000
1010
0000
0000
0000
0000
0000
0000
0000
1000
0000
0000
0000
0010
0000
0000
0000
,  // measure 39
0101
0000
0000
0000
0010
0000
0000
0000
1000
0001
1000
0000
0100
0000
0010
0000
0200
0000
0000
0000
0000
0000
0000
0000
1300
0000
0000
0000
0110
0000
0000
0000
,  // measure 40
0002
0000
0000
1000
1000
0000
0000
0100
0103
0000
0000
0010
1000
0000
0001
0000
,  // measure 41
0101
0000
0000
0000
0100
0000
0010
0000
0100
0000
0000
0000
0010
0000
1000
0000
0010
0000
0000
0000
1000
0000
0001
0000
1000
0000
0000
0000
0100
0000
0010
0100
,  // measure 42
0010
0000
0000
0000
0001
0000
1000
0000
0001
0000
0000
0000
0100
0001
0100
0000
0010
0000
0000
0000
1000
0000
0001
0000
1000
0000
0000
0000
0100
0000
0000
0000
,  // measure 43
1000
0000
0001
0000
0100
0000
1000
0000
0100
0000
0001
0000
1000
0000
0001
0000
0100
0010
0100
0000
0001
0000
1000
0000
0100
0010
0100
0000
1000
0000
0001
0000
,  // measure 44
0000
0000
0010
0000
1000
0000
0010
0000
0001
0000
1000
0000
0010
0000
1000
0000
0001
0010
0001
0000
1000
0000
0100
0000
0010
0100
0010
0000
0001
0000
1000
0000
,  // measure 45
0100
0000
0010
0100
0010
0000
0001
0010
0001
0000
0100
0001
0100
0000
0010
0100
,  // measure 46
0010
0000
1000
0001
1000
0000
1100
0000
1001
0000
0000
0000
1000
0000
0010
0000
,  // measure 47
0100
0000
0001
0000
0010
0000
1000
0000
0010
0000
0001
0000
1000
0000
0001
0000
0100
0010
0100
0000
0001
0000
1000
0000
0100
0010
0100
0000
1000
0000
0001
0000
,  // measure 48
0000
0000
1000
0000
0010
0000
0001
0000
0010
0000
1000
0000
0100
0000
1000
0000
0001
0100
0001
0000
0100
0000
0010
0000
1000
0100
1000
0000
0010
0000
0100
0000
,  // measure 49
0000
0000
0001
0000
0010
0000
1000
0000
0010
0000
0001
0000
1000
0000
0100
0000
0010
0100
0010
0000
0001
0000
1000
0000
0010
0100
0010
0000
1000
0000
0001
0000
;

//---------------dance-single - ----------------
#NOTES:
     dance-single:
     :
     Beginner:
     1:
     0.056,0.098,0.016,0.000,0.000:
0001
0000
0000
0000
,
0100
0000
0000
0000
,
0010
0000
0000
0000
,
0100
0000
0000
0000
,
1001
0000
0000
0000
,
1000
0000
0000
0000
,
0001
0000
0000
0000
,
0001
0000
0000
0000
,
0010
0000
0000
0000
,
0010
0000
0000
0000
,
0100
0000
0000
0000
,
0100
0000
0000
0000
,
1000
0000
0000
0000
,
0010
0000
0000
0000
,
0100
0000
0000
0000
,
0010
0000
0000
0000
,
1001
0000
0000
0000
,
1000
0000
0000
0000
,
0001
0000
0000
0000
,
0001
0000
0000
0000
,
0100
0000
0000
0000
,
0000
0000
0000
0000
,
0010
0000
0000
0000
,
0000
0000
0000
0000
,
0100
0000
0000
0000
,
0000
0000
0000
0000
,
0001
0000
0000
0000
,
0000
0000
0000
0000
,
0010
0000
0000
0000
,
0000
0000
0000
0000
,
0100
0000
1000
0000
,
0100
0000
1000
0000
,
0010
0000
0000
0000
,
0100
0000
0000
0000
,
0010
0000
0000
0000
,
0100
0000
0000
0000
,
0001
0000
0000
0000
,
1000
0000
0000
0000
,
0001
0000
0000
0000
,
1000
0000
0000
0000
,
0100
0000
0000
0000
,
0010
0000
0000
0000
,
0100
0000
0000
0000
,
0010
0000
0000
0000
,
0001
0000
0000
0000
,
0100
0000
0000
0000
,
0010
0000
0000
0000
,
0100
0000
0000
0000
,
0010
0000
0000
0000
;
