#VERSION:0.83;
#TITLE:JULIAN;
#SUBTITLE:;
#ARTIST:Queen P.A.L.;
#TITLETRANSLIT:;
#SUBTITLETRANSLIT:;
#ARTISTTRANSLIT:;
#GENRE:;
#ORIGIN:;
#CREDIT:DigiMindAxel;
#BANNER:JULIAN.png;
#BACKGROUND:JULIAN-bg.png;
#PREVIEWVID:;
#JACKET:JULIAN-jacket.png;
#CDIMAGE:;
#DISCIMAGE:;
#LYRICSPATH:;
#CDTITLE:DigiMindAxel original simfile.png;
#MUSIC:JULIAN.ogg;
#OFFSET:-1.191000;
#SAMPLESTART:84.676003;
#SAMPLELENGTH:12.000000;
#SELECTABLE:YES;
#BPMS:0.000=153.000;
#STOPS:;
#DELAYS:;
#WARPS:;
#TIMESIGNATURES:0.000=4=4;
#TICKCOUNTS:0.000=4;
#COMBOS:0.000=1;
#SPEEDS:0.000=1.000=0.000=0;
#SCROLLS:0.000=1.000;
#FAKES:;
#LABELS:0.000=Song Start;
#BGCHANGES:-2.000=JULIAN.avi=1.000=1=0=0=StretchNoLoop==CrossFade==,
99999=-nosongbg-=1.000=0=0=0 // don't automatically add -songbackground-
;
#KEYSOUNDS:;
#ATTACKS:
;

//---------------dance-single - ----------------
#NOTEDATA:;
#CHARTNAME:;
#STEPSTYPE:dance-single;
#DESCRIPTION:;
#CHARTSTYLE:;
#DIFFICULTY:Easy;
#METER:6;
#RADARVALUES:0.299082,0.305136,0.076284,0.067808,0.000000,247.000000,238.000000,9.000000,8.000000,0.000000,0.000000,0.000000,0.000000,0.000000,0.299082,0.305136,0.076284,0.067808,0.000000,247.000000,238.000000,9.000000,8.000000,0.000000,0.000000,0.000000,0.000000,0.000000;
#CREDIT:;
#NOTES:
// measure 0
0000
0000
0000
0000
,  // measure 1
0000
0000
0000
0000
,  // measure 2
0000
0000
0000
0000
,  // measure 3
0000
0000
0000
0000
,  // measure 4
1000
0100
1000
0000
,  // measure 5
0001
0010
0001
0000
,  // measure 6
0100
0010
0100
0000
,  // measure 7
0010
1000
0010
1000
,  // measure 8
0001
0001
0010
0010
,  // measure 9
0001
0001
1000
1000
,  // measure 10
0001
0001
0010
0010
,  // measure 11
0001
0010
0100
1000
,  // measure 12
0010
0010
0100
0100
,  // measure 13
0001
0010
0100
1000
,  // measure 14
0010
0010
0100
0100
,  // measure 15
0001
0010
0100
1000
,  // measure 16
0001
0001
0100
0100
,  // measure 17
0010
1000
0100
0010
,  // measure 18
0001
0001
0100
0100
,  // measure 19
0010
1000
0100
0010
,  // measure 20
0001
0001
1000
1000
,  // measure 21
0100
0010
0100
1000
,  // measure 22
0010
0010
0100
0100
,  // measure 23
0001
0100
0010
0100
,  // measure 24
0001
0001
1000
1000
,  // measure 25
0100
0010
0100
1000
,  // measure 26
0010
0010
0100
0100
,  // measure 27
0001
1000
0100
1000
,  // measure 28
1001
0000
0000
0000
0000
0000
0000
1001
,  // measure 29
0000
0000
0000
0000
0000
0000
0000
0010
,  // measure 30
0000
0100
0000
0110
0000
0000
0000
0000
,  // measure 31
0000
1001
0000
2002
,  // measure 32
0000
3003
0000
0001
,  // measure 33
0100
0001
0100
0010
,  // measure 34
1000
0020
0230
0302
,  // measure 35
1003
0001
1000
0100
,  // measure 36
0010
0002
0000
0000
,  // measure 37
0003
0010
0001
0010
,  // measure 38
0000
0100
0010
0100
,  // measure 39
0000
1000
0100
1000
,  // measure 40
0100
1000
0100
0010
,  // measure 41
0001
0100
0001
0100
,  // measure 42
0000
0010
0100
0010
,  // measure 43
0000
1000
0010
1000
,  // measure 44
0010
1000
0010
1000
,  // measure 45
0010
0100
0001
0100
,  // measure 46
0001
1000
0100
1000
,  // measure 47
0100
0010
0001
0010
,  // measure 48
0001
0100
0010
0100
,  // measure 49
0010
1000
0001
1000
,  // measure 50
0001
0100
0001
0100
,  // measure 51
0001
0010
0100
1000
,  // measure 52
0010
0110
0000
0000
,  // measure 53
0000
1000
0001
1000
,  // measure 54
0001
0100
0100
0010
,  // measure 55
0010
1000
0001
0010
,  // measure 56
0100
1000
1000
0001
,  // measure 57
0001
0100
0010
0100
,  // measure 58
0000
0001
1000
0100
,  // measure 59
0010
0001
0001
0100
,  // measure 60
0100
0010
1000
0001
,  // measure 61
0000
0010
0010
0001
,  // measure 62
0001
1000
0100
0010
,  // measure 63
0000
0100
0100
1000
,  // measure 64
1000
0010
0100
0001
,  // measure 65
1000
0100
0100
1000
,  // measure 66
1000
0010
0100
0001
,  // measure 67
0000
0010
0100
1000
,  // measure 68
0100
0010
0001
0100
,  // measure 69
0010
0000
1001
0000
0000
1000
0000
0000
,  // measure 70
0001
0000
0010
0000
0000
0000
0000
0110
,  // measure 71
0000
0000
0000
2002
0000
0000
0000
0000
,  // measure 72
3003
0000
0000
0000
;

//---------------dance-single - ----------------
#NOTEDATA:;
#CHARTNAME:;
#STEPSTYPE:dance-single;
#DESCRIPTION:;
#CHARTSTYLE:;
#DIFFICULTY:Medium;
#METER:11;
#RADARVALUES:0.507350,0.549246,0.372945,0.059332,0.000000,419.000000,375.000000,44.000000,7.000000,0.000000,0.000000,0.000000,0.000000,0.000000,0.507350,0.549246,0.372945,0.059332,0.000000,419.000000,375.000000,44.000000,7.000000,0.000000,0.000000,0.000000,0.000000,0.000000;
#CREDIT:;
#NOTES:
// measure 0
0000
0000
0000
0000
,  // measure 1
0000
0000
0000
0000
,  // measure 2
0000
0000
0000
0000
,  // measure 3
0000
0000
0000
0000
,  // measure 4
2000
0100
0000
3000
,  // measure 5
0020
0100
0000
0030
,  // measure 6
0200
0001
0000
0300
,  // measure 7
0001
1000
0001
1000
0001
1000
1000
1000
,  // measure 8
0001
0000
0010
0001
0000
0010
0001
0010
,  // measure 9
0100
0000
1000
0010
0000
1000
0010
0100
,  // measure 10
0001
0000
1000
0001
0000
1000
0001
0010
,  // measure 11
0200
1000
1000
1300
,  // measure 12
0001
1000
0010
0000
0100
0001
1000
0000
,  // measure 13
0100
1000
0001
0000
0010
0001
1000
0000
,  // measure 14
0100
0010
0001
0000
0010
0100
1000
0000
,  // measure 15
0010
0100
0001
0000
0100
0010
1000
0000
,  // measure 16
0010
1000
0010
1000
0001
0010
0001
0000
,  // measure 17
0010
0001
0010
0001
1000
0010
1000
0000
,  // measure 18
0010
0100
0010
0100
0001
0010
0001
0000
,  // measure 19
0100
0010
0100
0010
1000
0100
1000
0000
,  // measure 20
0100
0010
0100
0010
0001
0100
0010
0000
,  // measure 21
0100
0010
0100
0010
1000
0100
0010
0000
,  // measure 22
0100
1000
0100
1000
0001
0100
0010
0000
,  // measure 23
0100
0001
0100
0001
1000
0100
0010
0000
,  // measure 24
0100
1000
0100
1000
0001
0010
0100
0000
,  // measure 25
0010
0001
0010
0001
1000
0010
0100
0000
,  // measure 26
0010
1000
0010
1000
0001
0100
0010
0000
,  // measure 27
0100
0001
0100
0001
1000
0100
0010
0001
,  // measure 28
0100
0000
0000
0100
0000
0100
0000
1001
,  // measure 29
0000
0001
1000
0000
0000
0000
0000
0100
,  // measure 30
0000
0100
0000
1100
0000
1001
0000
0000
,  // measure 31
0000
0110
0000
1001
,  // measure 32
0000
1001
0000
0101
,  // measure 33
0100
0001
1000
0100
1000
0000
0001
1000
,  // measure 34
0001
1100
0011
1100
,  // measure 35
1000
0001
0100
0000
0010
1000
0001
0000
,  // measure 36
0100
0001
0100
0000
0100
0000
0100
0000
,  // measure 37
0110
0000
0001
1000
0001
1000
0001
0000
,  // measure 38
0011
0000
0100
1000
0100
1000
0010
0000
,  // measure 39
1010
1001
1001
0110
,  // measure 40
0110
1001
1001
0110
,  // measure 41
0110
0000
1000
0100
1000
0100
0010
0000
,  // measure 42
0110
0000
0001
0100
0001
0100
0010
0000
,  // measure 43
0110
1001
1001
0110
,  // measure 44
0110
1001
1001
0110
,  // measure 45
0110
0000
0010
0010
0010
0000
1000
0100
,  // measure 46
0010
0001
0010
0000
1000
0000
0010
0000
,  // measure 47
0001
0000
0100
0100
0100
0000
0001
0010
,  // measure 48
0100
1000
0010
0000
0001
0000
0010
0000
,  // measure 49
1000
0000
0001
0001
0001
0000
0010
0100
,  // measure 50
1000
0001
0100
0000
1000
0000
0100
0000
,  // measure 51
0001
0000
1000
1000
1000
0100
0010
0001
,  // measure 52
0100
0001
2000
0000
0000
0001
0001
0000
,  // measure 53
3001
0000
0101
0000
0110
0000
0100
0001
,  // measure 54
1000
0000
0001
1000
0001
1000
0100
0010
,  // measure 55
0100
0000
1000
0010
0100
0000
0010
0100
,  // measure 56
0001
0000
0100
0001
0100
0001
0010
0100
,  // measure 57
1000
0000
1100
0000
0110
0000
0010
0100
,  // measure 58
1000
0000
0010
0100
0010
0100
0001
0010
,  // measure 59
0100
0000
0010
0001
1000
0000
0010
1000
,  // measure 60
0001
0000
1000
0001
1000
0001
0010
0100
,  // measure 61
1000
0000
1001
0000
0101
0000
0100
0001
,  // measure 62
1000
0000
0100
0010
0001
0010
0100
0000
,  // measure 63
1100
0000
0010
0001
0100
0000
0010
1000
,  // measure 64
0100
0000
1000
0100
0010
0001
1000
0010
,  // measure 65
1000
0000
1001
0000
1100
0000
0100
1000
,  // measure 66
0001
0000
0100
0010
1000
0010
0100
0000
,  // measure 67
0101
0000
0001
1000
0100
0000
0010
0001
,  // measure 68
1000
0000
0010
0100
0010
0100
0001
0010
,  // measure 69
0100
0000
1000
0010
0000
0100
0001
0000
,  // measure 70
0010
0100
1000
1010
0000
0000
0000
0101
,  // measure 71
0000
0000
0000
2002
0000
0000
0000
0000
,  // measure 72
3003
0000
0000
0000
;

//---------------dance-single - ----------------
#NOTEDATA:;
#CHARTNAME:;
#STEPSTYPE:dance-single;
#DESCRIPTION:;
#CHARTSTYLE:;
#DIFFICULTY:Hard;
#METER:14;
#RADARVALUES:0.678081,0.701814,0.288184,0.050856,0.436515,560.000000,526.000000,34.000000,6.000000,0.000000,0.000000,0.000000,0.000000,0.000000,0.678081,0.701814,0.288184,0.050856,0.436515,560.000000,526.000000,34.000000,6.000000,0.000000,0.000000,0.000000,0.000000,0.000000;
#CREDIT:;
#NOTES:
// measure 0
0000
0000
0000
0000
,  // measure 1
0000
0000
0000
0000
,  // measure 2
0000
0000
0000
0000
,  // measure 3
0000
0000
0000
0000
,  // measure 4
0011
0100
1000
0001
,  // measure 5
0001
0100
0010
1000
,  // measure 6
1000
0001
0010
0001
,  // measure 7
0001
0010
0100
1000
0001
0100
0110
0110
,  // measure 8
1001
0000
0000
1000
0000
0000
0100
0000
0000
0001
0000
0000
0100
0000
1000
0000
,  // measure 9
0001
0000
0000
0010
0000
0000
1000
0000
0000
0010
0000
0000
0001
0000
1000
0000
,  // measure 10
0100
0000
0000
0001
0000
0000
0100
0000
0000
1000
0000
0000
0010
0000
0100
0000
,  // measure 11
0001
1000
0100
0010
0001
1000
0010
0100
,  // measure 12
0001
1000
0000
0001
1000
0000
0010
0000
0100
0000
0010
0000
1000
0000
0001
0010
,  // measure 13
0000
0001
0000
1000
0001
0000
0010
0000
0100
0000
0010
0000
0001
0000
1000
0010
,  // measure 14
0000
1000
0000
0001
1000
0000
0010
0100
0010
0000
1000
0000
0100
0000
0010
0100
,  // measure 15
0000
1000
0000
0001
1000
0000
0100
0000
0010
0000
0100
0000
1000
0000
0010
0100
,  // measure 16
0000
0001
0000
1000
0001
0000
0010
0000
0100
0000
0010
0000
0001
0000
0100
0001
,  // measure 17
0000
1000
0000
0001
1000
0000
0010
0000
0100
0000
0010
0000
1000
0000
0100
0010
,  // measure 18
0000
0001
0000
1000
0001
0000
1000
0010
1000
0000
0001
0000
0010
0000
0100
0010
,  // measure 19
0000
0001
0000
1000
0001
0000
0100
0000
0010
0000
0100
0000
0001
0000
1000
0001
,  // measure 20
1000
0100
0000
1000
0100
0000
0010
0100
0010
0000
0001
0000
0100
0000
0010
0100
,  // measure 21
0010
1000
0000
0010
1000
0000
0001
0000
0010
0000
0100
0000
1000
0000
0001
0100
,  // measure 22
0001
1000
0000
0001
1000
0000
0100
1000
0100
0000
0010
0000
0001
0000
0100
0010
,  // measure 23
0100
0001
0000
0100
0001
0000
1000
0001
1000
0000
0100
0000
0010
0000
0001
0100
,  // measure 24
0001
1000
0000
0001
1000
0000
0100
1000
0100
0000
0010
0000
0001
0000
0100
0010
,  // measure 25
0100
0001
0000
0100
0001
0000
1000
0000
0100
0000
0010
0000
0001
0000
1000
0010
,  // measure 26
1000
0001
0000
0010
0001
0000
0010
0000
0100
0000
1000
0000
0001
0000
0100
0001
,  // measure 27
0100
0010
0000
0100
0010
0000
1000
0000
0001
0000
0010
0000
0100
0000
1000
0000
,  // measure 28
1010
0000
0000
0001
0000
0001
0000
1001
,  // measure 29
0000
1001
1100
0000
0000
0010
0000
1001
,  // measure 30
0000
1001
0000
0110
0000
1001
0000
0000
,  // measure 31
1000
0000
0000
0000
0000
0000
0000
0000
0000
0000
0000
0000
1100
0000
0000
0000
0000
0000
0000
0000
0000
0100
0000
0000
0000
0000
0000
0000
0000
0000
0010
0000
0000
0000
0000
0000
1001
0000
0000
0000
0000
0000
0000
0000
0001
0000
0000
0000
,  // measure 32
0000
0000
0001
0000
1000
0000
0001
0000
0000
0000
0000
0000
0000
0000
0000
0000
0000
0000
1001
0000
0000
0001
0000
0000
,  // measure 33
1000
0100
0001
0100
1000
0001
0010
0001
,  // measure 34
0011
0000
0000
0000
0001
0000
1000
0100
1000
0000
0001
0010
0001
0000
1000
0001
,  // measure 35
1000
0010
0100
0001
0100
0010
1000
0100
,  // measure 36
0010
0001
0101
0000
0110
0100
0101
0000
,  // measure 37
1001
0100
1200
0000
1300
0001
0001
0100
,  // measure 38
0010
0000
1000
0010
0001
0010
1000
0100
,  // measure 39
0010
0001
1000
1000
1000
0010
0000
0010
,  // measure 40
0100
0000
0001
0001
0001
0100
0000
0100
,  // measure 41
0010
0000
0201
0000
0310
1000
1000
0100
,  // measure 42
0010
0001
1000
0010
0001
0010
1000
0010
,  // measure 43
0100
0000
0001
0100
0010
0100
0001
0100
,  // measure 44
0010
0100
0001
1000
0100
1000
0001
1000
,  // measure 45
0100
0000
0000
0000
1000
0001
1000
0001
1000
0000
0000
0000
0100
0010
0100
0010
,  // measure 46
0100
1000
0010
0100
0001
0100
0010
1000
,  // measure 47
0100
0000
0000
0000
1000
0001
1000
0001
1000
0000
0000
0000
0010
0100
0010
0100
,  // measure 48
0010
1000
0100
0010
0100
1000
0001
0100
,  // measure 49
0001
0000
0000
0000
1000
0001
1000
0001
1000
0000
0000
0000
0100
0010
0100
0010
,  // measure 50
0100
1000
0001
0010
0001
1000
1010
0000
,  // measure 51
1001
0000
1000
1000
1000
0100
0010
0001
,  // measure 52
0100
0000
0010
0000
1000
0000
0000
1000
0000
0000
2000
0000
0002
0000
0000
0000
,  // measure 53
3003
0000
0000
0000
0011
0000
0000
0000
1001
0000
0000
0000
1000
0100
1000
0100
,  // measure 54
1000
0001
1000
0010
0001
0010
1000
0100
,  // measure 55
0010
0000
0000
0000
0001
0100
0001
0100
0001
0000
1000
0000
0001
0000
0010
0000
,  // measure 56
0100
1000
0001
0010
1000
0010
0001
0010
,  // measure 57
0100
0000
0000
0000
0011
0000
0000
0000
1001
0000
0000
0000
1000
0100
1000
0100
,  // measure 58
1000
0001
1000
0010
0001
0010
1000
0100
,  // measure 59
0010
0000
0000
0000
0001
0100
0001
0100
0001
0000
1000
0000
0100
0000
0010
0000
,  // measure 60
0100
1000
0001
0100
1000
0100
0010
1000
,  // measure 61
0001
0000
0000
0000
0101
0000
0000
0000
1001
0000
0000
0000
1000
0010
1000
0010
,  // measure 62
1000
0001
1000
0100
0010
0100
1000
0001
,  // measure 63
0100
0000
0000
0000
0010
1000
0010
1000
0010
0000
0100
0000
0001
0000
0010
0000
,  // measure 64
0100
0010
0001
1000
0010
0001
0010
0100
,  // measure 65
0001
0000
0000
0000
0101
0000
0000
0000
1001
0000
0000
0000
1000
0010
1000
0010
,  // measure 66
1000
0001
1000
0100
0010
0100
1000
0001
,  // measure 67
0100
0000
0000
0000
0001
1000
0001
1000
0001
0000
0010
0000
0100
0000
0010
0000
,  // measure 68
0001
1000
0010
0001
0010
0100
0001
1000
,  // measure 69
0010
0000
0000
0000
0100
0010
0100
0000
0000
0000
0001
0100
0001
0000
0000
0000
,  // measure 70
1000
0000
0000
0001
0000
0000
1000
0000
0000
0000
0000
0000
0100
0000
0000
1000
0000
0000
0100
0000
0000
0000
0000
0000
0000
0000
0100
0000
0000
0000
0000
0000
0000
0000
0100
0000
0000
0000
0000
0000
0000
0000
1001
0000
0000
0000
0000
0000
,  // measure 71
0000
0001
0000
0000
0000
0001
0000
0000
0000
0202
0000
0000
0000
0000
0000
0000
0000
0000
0000
0000
0000
0000
0000
0000
,  // measure 72
0303
0000
0000
0000
;

//---------------dance-single - ----------------
#NOTEDATA:;
#CHARTNAME:;
#STEPSTYPE:dance-single;
#DESCRIPTION:;
#CHARTSTYLE:;
#DIFFICULTY:Challenge;
#METER:16;
#RADARVALUES:0.902090,0.884896,0.678081,0.050856,0.991693,745.000000,665.000000,80.000000,6.000000,0.000000,0.000000,0.000000,0.000000,0.000000,0.902090,0.884896,0.678081,0.050856,0.991693,745.000000,665.000000,80.000000,6.000000,0.000000,0.000000,0.000000,0.000000,0.000000;
#CREDIT:;
#NOTES:
// measure 0
0000
0000
0000
0000
,  // measure 1
0000
0000
0000
0000
,  // measure 2
0000
0000
0000
0000
,  // measure 3
0000
0000
0000
0000
,  // measure 4
1001
0000
0000
0100
0000
0000
0010
0000
0100
0000
0000
1000
0000
0000
0001
0000
,  // measure 5
0100
0000
0000
0001
0000
0000
1000
0000
0000
0100
0000
0000
0010
0000
0001
0000
,  // measure 6
1000
0000
0000
0010
0000
0000
1000
0000
0000
0001
0000
0000
0010
0000
0100
0000
,  // measure 7
1000
0001
1000
0001
0100
0000
0001
1000
0001
1000
0010
0000
0110
0000
0110
0000
,  // measure 8
1001
0000
0001
0100
0000
0001
1000
0000
0001
0100
0000
0001
1000
0000
0100
0000
,  // measure 9
0010
0000
0001
1000
0000
0100
0010
0000
0001
1000
0000
0100
0010
0000
0001
0000
,  // measure 10
1000
0000
0010
0100
0000
0001
0100
0000
0010
0100
0000
0001
0100
0000
0001
0000
,  // measure 11
1000
0100
1000
0100
1000
0001
1000
0001
0100
0010
0100
0010
1000
0100
0010
0001
,  // measure 12
0100
0010
0000
0010
1000
0000
0010
1000
0001
0000
0001
0000
0100
0000
0100
0010
,  // measure 13
0000
1000
0000
1000
0100
0000
1000
0100
0010
0000
0010
0000
0001
0000
0001
0100
,  // measure 14
0000
0010
0000
0010
0100
0000
0001
0010
0100
0000
0100
0000
1000
0000
0001
0100
,  // measure 15
0000
0001
0000
0001
1000
0000
0001
1000
0100
0000
0100
0000
0010
0000
0001
0100
,  // measure 16
0000
0010
0000
0010
1000
0000
0010
1000
0001
0000
0001
0000
0010
0000
0100
1000
,  // measure 17
0000
0100
0000
0100
0010
0000
0100
0010
0001
0000
0001
0000
0100
0000
0010
1000
,  // measure 18
0000
0001
0000
0001
0010
0000
0001
0010
0100
0000
0100
0000
1000
0000
0010
0100
,  // measure 19
0000
0001
0000
0001
1000
0000
0001
1000
0100
0000
0010
0001
1000
0000
1001
0000
,  // measure 20
0001
0010
0000
0010
0100
0000
1000
0010
0100
0000
0110
0000
0101
0000
0001
1000
,  // measure 21
0000
0010
0000
0010
0100
0000
0001
0010
0100
0000
1100
0000
1001
0000
0001
0100
,  // measure 22
0000
0010
0000
0010
1000
0000
0010
0100
0001
0000
0101
0000
0110
0000
0010
1000
,  // measure 23
0000
0001
0000
0001
0010
0000
0001
0010
0100
0000
1100
0000
0110
0000
0010
0001
,  // measure 24
0000
0100
0000
0100
0010
0000
1000
0010
0100
0000
0101
0000
1001
0000
1000
0010
,  // measure 25
0000
0100
0000
0100
0001
0000
1000
0100
0010
0000
0011
0000
0110
0000
0100
1000
,  // measure 26
0000
0001
0000
0001
0100
0000
0001
0100
0010
0000
0110
0000
1010
0000
1000
0001
,  // measure 27
0100
0010
0100
0010
1000
0001
1000
0001
0010
0100
1000
0001
0100
0001
1000
0100
,  // measure 28
0010
0000
0000
0102
0000
1003
0000
1100
,  // measure 29
0000
1100
0101
0000
0000
0100
0000
0101
,  // measure 30
0000
0110
0000
1010
0000
1001
0000
0000
,  // measure 31
0100
0000
0000
0000
0000
0000
0000
0000
0000
0000
0000
0000
1100
0000
0000
0000
0000
0000
0000
0000
0000
0110
0000
0000
0000
0000
0000
0000
0000
0000
0011
0000
0000
0000
0000
0000
1001
0000
0000
0000
0000
0000
0000
0000
1001
0000
0000
0000
,  // measure 32
0000
0000
0000
0000
1000
0000
0000
0000
0001
0000
0000
0000
0200
0000
0000
0000
0000
0000
0010
0000
0000
0000
0000
0000
0010
0000
0000
0000
0000
0000
0310
0000
0000
0100
0000
0000
0001
0000
0000
0000
0000
0000
0010
0000
0000
0100
0000
0000
,  // measure 33
1000
0010
0100
0000
0010
0000
1000
0000
1100
0000
0010
0000
1001
0000
0110
0000
,  // measure 34
1001
0000
0001
0010
0100
0000
1000
1000
0010
0000
0100
0100
0001
0000
0010
0010
,  // measure 35
0100
1000
0010
1000
0100
0000
1000
0001
0100
0001
1000
0000
0100
0000
0010
0000
,  // measure 36
0101
0000
0110
0000
1001
0000
0000
0101
0000
0000
1010
0000
1001
0000
0010
0000
,  // measure 37
1100
0000
0011
0100
1000
0010
0110
0001
,  // measure 38
1000
0000
0100
0010
0100
0000
1000
0100
1000
0000
0001
0010
0001
0000
0100
0010
,  // measure 39
0100
0000
0001
0000
1000
0000
0100
1000
0000
0000
0110
0000
0000
0000
0110
0000
,  // measure 40
1001
0000
0001
0000
0100
0000
0010
0100
0000
0000
1001
0000
0000
0000
1001
0000
,  // measure 41
0110
0000
0000
0000
0011
0000
0100
0000
1000
0000
0010
0000
0110
0000
0001
0100
,  // measure 42
0010
0000
1000
0010
1000
0000
0001
1000
0001
0000
0010
0001
0010
0000
0100
0010
,  // measure 43
0100
1000
0010
1001
0000
1001
0000
1001
,  // measure 44
0000
1001
0010
1100
0000
1100
0000
1100
,  // measure 45
1001
0000
0000
0000
0001
0100
0010
0100
0001
0000
1000
0000
0100
0010
0000
0010
,  // measure 46
0100
0000
1000
0010
1000
0000
0001
1000
0001
0000
0100
0001
0100
0000
0001
1000
,  // measure 47
0001
0000
0010
0000
0100
1000
0001
1000
0100
0000
0000
0000
0010
0001
0000
0001
,  // measure 48
0010
0000
0100
0010
0100
0000
1000
0010
1000
0000
0001
0100
0001
0000
0010
0100
,  // measure 49
0010
0000
0001
0000
1000
0100
0010
0100
1000
0000
0001
0000
0100
0001
0000
0001
,  // measure 50
0100
0000
0010
1000
0010
0000
1000
0001
1000
0000
0001
0100
0001
0000
1000
0001
,  // measure 51
1000
0000
0010
0000
0100
0000
0100
0000
0100
0000
0001
0100
0010
0000
0100
0010
,  // measure 52
1000
0000
0100
0000
0011
0000
0000
0011
0000
0000
0011
0000
2002
0000
0000
0000
,  // measure 53
0000
0000
3003
0000
1001
0000
0100
0000
0011
0000
0000
0000
0100
1000
0001
1000
,  // measure 54
0100
0000
0010
0000
0001
1000
0010
0000
1000
0001
0010
0000
0100
1000
0001
0000
,  // measure 55
0100
0010
0100
0010
1000
0100
0001
0100
1000
0000
0100
0000
0010
0001
0000
0001
,  // measure 56
0000
1000
0010
0100
0010
1000
0100
0010
0000
0010
0100
1000
0000
0001
0100
0010
,  // measure 57
1000
0000
0000
0000
1001
0000
0010
0000
1100
0000
0000
0000
0010
0001
1000
0001
,  // measure 58
0010
0000
0100
0000
1000
0001
0100
0000
0001
1000
0100
0000
0010
0001
1000
0000
,  // measure 59
0010
0100
0010
0100
0001
0010
1000
0010
0001
0000
0100
0000
0001
1000
0000
1000
,  // measure 60
0000
0010
0100
0000
0001
1000
0100
1000
0001
0010
1000
0010
0001
0000
0100
0000
,  // measure 61
0110
0000
0000
0000
1001
0000
0100
0000
0011
0000
0000
0000
0100
1000
0010
1000
,  // measure 62
0100
0000
0010
0000
0001
1000
0010
0000
1000
0001
0010
0000
0100
1000
0001
0000
,  // measure 63
0100
0010
0100
0010
1000
0100
0001
0100
1000
0000
0010
0000
0100
0001
0000
0001
,  // measure 64
0000
1000
0100
0000
0010
0001
0100
1000
0100
0001
0010
0100
0010
0001
0100
0010
,  // measure 65
1000
0000
0000
0000
1001
0000
0010
0000
1100
0000
0000
0000
0010
0001
0100
0001
,  // measure 66
0010
0000
0100
0000
1000
0001
0100
0000
0001
1000
0100
0000
0010
0001
1000
0000
,  // measure 67
0100
0010
0100
0010
0001
0100
1000
0100
0001
0000
0010
0000
0001
0100
0010
0100
,  // measure 68
0001
1000
0100
0000
1000
0001
0010
0100
1000
0001
0010
0100
1000
0000
0001
0000
,  // measure 69
0100
0010
0100
0010
1000
0100
0001
0000
0100
0000
1000
0010
0001
0000
0010
0000
,  // measure 70
1000
0000
0000
0100
0000
0000
0010
0000
0000
0001
0000
0000
1000
0000
0000
0001
0000
0000
0010
0000
0000
0000
0000
0000
0000
0000
0011
0000
0000
0000
0000
0000
0000
0000
1100
0000
0000
0000
0010
0000
0000
0000
1001
0000
0000
0000
0000
0000
,  // measure 71
0000
1010
0000
0000
0000
0101
0000
0010
0000
2002
0000
0000
0000
0000
0000
0000
0000
0000
0000
0000
0000
0000
0000
0000
,  // measure 72
3003
0000
0000
0000
;

//---------------dance-single - ----------------
#NOTEDATA:;
#CHARTNAME:;
#STEPSTYPE:dance-single;
#DESCRIPTION:;
#CHARTSTYLE:;
#DIFFICULTY:Beginner;
#METER:2;
#RADARVALUES:0.138038,0.241990,0.067808,0.000000,0.000000,114.000000,106.000000,8.000000,0.000000,0.000000,0.000000,0.000000,0.000000,0.000000,0.138038,0.241990,0.067808,0.000000,0.000000,114.000000,106.000000,8.000000,0.000000,0.000000,0.000000,0.000000,0.000000,0.000000;
#CREDIT:;
#NOTES:
// measure 0
0000
0000
0000
0000
,  // measure 1
0000
0000
0000
0000
,  // measure 2
0000
0000
0000
0000
,  // measure 3
0000
0000
0000
0000
,  // measure 4
0001
0000
0000
0000
,  // measure 5
0010
0000
0000
0000
,  // measure 6
0001
0000
0000
0000
,  // measure 7
0010
0000
0000
0000
,  // measure 8
1001
0000
0000
0000
,  // measure 9
1000
0000
0000
0000
,  // measure 10
0001
0000
0000
0000
,  // measure 11
0100
0000
0000
0000
,  // measure 12
0001
0000
0001
0000
,  // measure 13
0001
0000
0000
0000
,  // measure 14
1000
0000
1000
0000
,  // measure 15
1000
0000
0000
0000
,  // measure 16
0001
0000
0001
0000
,  // measure 17
0001
0000
0000
0000
,  // measure 18
1000
0000
1000
0000
,  // measure 19
1000
0000
0000
0000
,  // measure 20
0001
0000
0100
0000
,  // measure 21
0001
0000
0000
0000
,  // measure 22
1000
0000
0010
0000
,  // measure 23
1000
0000
0000
0000
,  // measure 24
0001
0000
0010
0000
,  // measure 25
0001
0000
0000
0000
,  // measure 26
1000
0000
0100
0000
,  // measure 27
1000
0000
0000
0000
,  // measure 28
1001
0000
0000
0000
,  // measure 29
0000
0000
0000
0000
,  // measure 30
0000
0000
0000
0000
,  // measure 31
0000
0000
0000
0000
,  // measure 32
0000
0000
0000
1001
,  // measure 33
0000
0001
0000
1000
,  // measure 34
0000
0001
0000
1000
,  // measure 35
0000
0100
0000
0010
,  // measure 36
0000
0110
0000
0000
,  // measure 37
0000
0001
0000
0001
,  // measure 38
0000
0001
0000
0000
,  // measure 39
0000
0100
0000
0010
,  // measure 40
0000
0100
0000
0010
,  // measure 41
0000
1000
0000
1000
,  // measure 42
0000
1000
0000
0000
,  // measure 43
0000
0010
0000
0100
,  // measure 44
0000
0010
0000
0100
,  // measure 45
0000
0001
0000
0001
,  // measure 46
0000
0001
0000
0000
,  // measure 47
0000
0100
0000
0010
,  // measure 48
0000
1000
0000
1000
,  // measure 49
0000
1000
0000
0100
,  // measure 50
0000
0010
0000
0001
,  // measure 51
0000
0100
0000
0100
,  // measure 52
0000
0100
0000
0000
,  // measure 53
0000
1001
0000
0001
,  // measure 54
0000
0010
0000
0001
,  // measure 55
0000
0100
0000
0100
,  // measure 56
0000
0010
0000
0010
,  // measure 57
0000
1000
0000
0001
,  // measure 58
0000
0100
0000
0100
,  // measure 59
0000
0010
0000
1000
,  // measure 60
0000
0010
0000
0000
,  // measure 61
0000
1000
0000
0001
,  // measure 62
0000
0010
0000
0001
,  // measure 63
0000
0100
0000
0010
,  // measure 64
0000
1000
0000
1000
,  // measure 65
0000
0001
0000
0010
,  // measure 66
0000
0001
0000
0100
,  // measure 67
0000
0010
0000
0010
,  // measure 68
0000
1000
0000
1000
,  // measure 69
0000
0000
1001
0000
0000
1000
0000
0000
,  // measure 70
1001
0000
0010
0000
0000
0000
0000
0010
,  // measure 71
0000
0000
0000
0110
0000
0000
0000
0000
;
