#TITLE:JAMES BROWN IS DEAD;
#SUBTITLE:(ORIGINAL MIX);
#ARTIST:L.A. STYLE;
#TITLETRANSLIT:;
#SUBTITLETRANSLIT:;
#ARTISTTRANSLIT:;
#CREDIT:DigiMindAxel;
#BANNER:JAMES BROWN IS DEAD (ORIGINAL MIX).png;
#BACKGROUND:JAMES BROWN IS DEAD (ORIGINAL MIX)-bg.png;
#LYRICSPATH:;
#CDTITLE:DigiMindAxel original simfile.png;
#MUSIC:JAMES BROWN IS DEAD (ORIGINAL MIX).ogg;
#METERTYPE:DDR X;
#OFFSET:-0.295;
#SAMPLESTART:56.954;
#SAMPLELENGTH:12.000;
#SELECTABLE:YES;
#BPMS:0.000=131.150;
#STOPS:;
#BGCHANGES:;

//---------------dance-single - ----------------
#NOTES:
     dance-single:
     :
     Easy:
     4:
     0.227,0.240,0.016,0.205,0.000: // measure 1
0000
0000
0000
0000
,  // measure 2
0000
0000
0000
0000
,  // measure 3
0000
0000
0000
0000
,  // measure 4
0000
0000
0000
0000
,  // measure 5
0002
0000
2003
0000
,  // measure 6
3002
0000
0000
0000
,  // measure 7
1003
1000
1000
0000
,  // measure 8
0001
0001
0001
0000
,  // measure 9
1000
1000
1000
0000
,  // measure 10
0001
0001
0001
0000
,  // measure 11
0010
0010
0010
0000
,  // measure 12
0100
0100
0100
0000
,  // measure 13
1000
0010
1000
0000
,  // measure 14
0001
0100
0001
0000
,  // measure 15
1000
0001
1000
0000
,  // measure 16
0001
1000
0001
0000
,  // measure 17
0010
0001
0010
0000
,  // measure 18
0100
1000
0100
0000
,  // measure 19
0010
0001
0010
0000
,  // measure 20
0100
1000
0100
0000
,  // measure 21
2000
3200
0300
0000
,  // measure 22
0020
0032
0003
0000
,  // measure 23
0200
0320
0030
0000
,  // measure 24
2000
3002
0003
0000
,  // measure 25
0020
0230
0300
0000
,  // measure 26
2000
3002
0003
0000
,  // measure 27
0020
0230
0300
0000
,  // measure 28
2000
3200
0300
0000
,  // measure 29
2000
0000
0000
0000
,  // measure 30
3002
0000
0000
0000
,  // measure 31
2003
0000
0000
3000
,  // measure 32
2002
0000
3003
0000
,  // measure 33
0001
0100
0010
0000
,  // measure 34
0100
0010
1000
0000
,  // measure 35
0001
0010
0100
0000
,  // measure 36
0010
0100
1000
0000
,  // measure 37
0001
0100
0010
0000
,  // measure 38
1000
0010
0100
0000
,  // measure 39
0001
0010
0100
0000
,  // measure 40
1000
0100
0010
0000
,  // measure 41
0001
0001
0001
0001
,  // measure 42
1000
1000
1000
0000
,  // measure 43
0100
0100
0100
0100
,  // measure 44
0010
0010
0010
0000
,  // measure 45
0001
0001
0001
0001
,  // measure 46
0100
0100
0100
0000
,  // measure 47
0010
0010
0010
0010
,  // measure 48
1000
1000
1000
0000
,  // measure 49
0100
0010
0001
0000
,  // measure 50
0100
0010
1000
0000
,  // measure 51
0010
1000
0001
0000
,  // measure 52
0010
0100
1000
0000
,  // measure 53
0001
0100
0010
0000
,  // measure 54
1000
0100
0010
0000
,  // measure 55
0001
1000
0100
0000
,  // measure 56
0010
0001
0100
0000
,  // measure 57
0010
0010
0010
0010
,  // measure 58
0100
0100
0100
0000
,  // measure 59
0001
0001
0001
0001
,  // measure 60
1000
1000
1000
0000
,  // measure 61
0100
0100
0100
0100
,  // measure 62
0010
0010
0010
0000
,  // measure 63
0001
0001
0001
0001
,  // measure 64
0010
0010
0010
0000
,  // measure 65
0100
0000
0000
0000
,  // measure 66
1000
0000
0000
0000
,  // measure 67
0010
0000
0000
0000
,  // measure 68
0220
0000
0330
0000
;

//---------------dance-single - ----------------
#NOTES:
     dance-single:
     :
     Medium:
     10:
     0.461,0.480,0.909,0.087,0.012:
0000
0000
0000
0000
,
0000
0000
0000
0000
,
0000
0000
0000
0000
,
0000
0000
0000
0000
,
2000
0000
3200
0000
,
0320
0000
0000
0000
,
0031
0001
0001
0001
,
0100
0100
0100
0010
,
1000
1000
1000
1000
,
0100
0100
0100
0010
,
0001
0001
0001
0001
,
0100
0100
0010
1000
,
1001
0000
1001
0000
1001
0000
0001
1000
,
0010
0000
1010
0000
1000
0001
1000
0001
,
0010
0000
0011
0000
0011
0000
0001
1000
,
0010
0000
1010
0000
0010
1000
0001
0000
,
1001
0000
1001
0000
1000
0100
0010
0000
,
0110
0000
0110
0000
0100
0010
0001
0000
,
0011
0000
0011
0000
1001
0000
1000
0100
,
0010
0000
0110
0000
0110
0000
0100
0010
,
0001
0001
1000
1000
0000
0000
0000
0000
,
0100
0100
0010
0010
0000
0000
0000
0000
,
0001
0001
0100
0100
0000
0000
0000
0000
,
0010
0010
1000
1000
0000
0000
0000
0000
,
0100
0100
0010
0010
0000
0000
0000
0000
,
0001
0001
1000
1000
0000
0000
0000
0000
,
0100
0100
1000
1000
0000
0000
0000
0000
,
0010
0010
0100
0100
0000
0000
0000
0000
,
2002
0000
0000
0000
3003
0001
0010
0100
,
2000
0000
0000
0000
3000
0001
0010
0100
,
2000
0000
0000
0000
3000
0001
0010
0100
,
2002
0000
0000
3003
,
0011
0011
1001
1001
,
1100
1100
1001
1001
,
0101
0101
1001
1001
,
1010
1010
1001
1001
,
0011
0000
0110
0000
1000
0100
0010
0000
,
0011
0000
0110
0000
1000
0100
0010
0000
,
0011
0000
0110
0000
1000
0010
0100
0000
,
0011
0000
0110
0000
1000
0010
0100
0000
,
1001
1001
1001
1001
,
0110
0000
0110
0000
0100
0010
0100
0001
,
1001
1001
1001
1001
,
0110
0000
0110
0000
0010
0100
0010
1000
,
1001
1001
1001
1001
,
0110
0000
0110
0000
0100
0010
0100
0001
,
1001
1001
1001
1001
,
0110
0000
0110
0000
0010
0100
0010
1000
,
1001
0000
0110
0000
1001
0000
0001
1000
,
1100
0000
0110
0000
0011
0000
0100
1000
,
1001
0000
0101
0000
0110
0000
0010
1000
,
1001
0000
1010
0000
0110
0000
0100
0001
,
1001
0000
0110
0000
1010
0000
0100
0001
,
0011
0000
0110
0000
1100
0000
0010
0100
,
1100
0000
1001
0000
0101
0000
0010
1000
,
1001
0000
0110
0000
0101
0000
0010
1000
,
1100
1100
1001
1001
,
0011
0000
0011
0000
0100
1000
0010
0100
,
1001
1001
0101
0101
,
0110
0000
0110
0000
0010
1000
0100
0010
,
1001
1001
1010
1010
,
0110
0000
0110
0000
0100
0001
0010
0100
,
1100
0000
1001
0000
0011
0000
0100
1000
,
1010
0000
0110
0000
0101
0000
0010
1000
,
0001
0000
0000
0000
0010
0000
0000
0010
0000
0000
0010
0000
0000
0000
0000
0000
,
0100
0000
0000
0000
1000
0000
0000
1000
0000
0000
1000
0000
0000
0000
0000
0000
,
0010
0000
0000
0000
0100
0000
0000
0100
0000
0000
0100
0000
0000
0000
0000
0000
,
2002
0000
3003
0000
;

//---------------dance-single - ----------------
#NOTES:
     dance-single:
     :
     Hard:
     12:
     0.563,0.533,0.537,0.190,0.261:
0000
0000
0000
0000
,
0000
0000
0000
0000
,
0000
0000
0000
0000
,
0000
0000
0000
0000
,
2000
0000
3020
0000
,
0230
0000
0000
0000
0000
0301
0010
0100
,
1000
0000
1010
0000
1000
0000
1010
0010
,
0100
0000
0110
0000
0100
0001
0010
0100
,
1000
0000
1001
0000
1000
0000
1010
0010
,
0100
0000
0110
0000
0010
2000
0000
3100
,
0010
0000
0011
0000
0010
0000
0110
0100
,
1000
0000
1001
0000
0001
1000
0100
0010
,
0001
0000
0000
0000
1100
0000
0000
0000
1000
0000
0000
0000
0011
0000
0100
0010
,
0100
0000
1010
0000
1000
0010
0001
0010
,
1000
0000
0000
0000
0110
0000
0000
0000
0001
0000
0000
0000
1100
0000
0010
0100
,
0010
0000
1001
0000
1000
0100
0001
0100
,
1000
0000
0000
0000
1010
0000
0000
0010
0000
0000
0010
0000
0000
0000
0100
0010
,
0100
0000
0000
0000
0001
0000
0000
0001
0000
0000
0001
0000
0010
0000
0100
0000
,
1000
0000
0000
0000
0010
0000
0000
0010
0000
0000
0010
0000
0000
0000
0100
0001
,
0100
0000
0000
0000
0010
0000
0000
0010
0000
0000
0010
0000
1000
0000
0100
0000
,
0020
0000
0001
0000
0032
0000
1000
0000
1003
0000
0000
0000
0000
0000
0100
1000
,
0200
1000
2300
0001
3001
1000
0100
0010
,
0002
0000
0100
0000
0203
0000
0010
0000
0310
0000
0000
0000
0000
0000
1000
0001
,
2000
0010
3020
0100
0130
0001
0010
0100
,
2000
0000
0010
0000
3020
0000
0100
0000
0130
0000
0000
0000
0000
0000
0001
0010
,
0002
0010
0023
0100
0130
1000
0010
0100
,
0002
0000
1000
0000
2003
0000
0100
0000
3100
0000
0000
0000
0000
0000
0010
0100
,
0020
0100
0230
1000
1300
0000
0000
0000
,
1001
0000
0000
0000
0001
0000
0000
0001
0000
0000
0001
0000
0010
0000
0100
0000
,
1000
0000
0000
0000
0010
0000
0000
0010
0000
0000
0010
0000
1000
0000
0100
0000
,
0010
0000
0000
0000
0001
0000
0000
0001
0000
0000
0001
0000
1000
0000
0100
0000
,
2200
0000
0000
3300
,
1001
0000
0000
0001
0010
0000
0000
0010
0100
0000
1000
0000
0100
0000
0010
0000
,
0001
0000
0000
0001
0100
0000
0000
0100
0010
0000
1000
0000
0100
0000
0010
0000
,
0001
0000
0000
0001
0010
0000
0000
0010
0100
0000
1000
0000
0010
0000
0100
0000
,
0001
0000
0000
0001
0100
0000
0000
0100
0010
0000
1000
0000
0010
0000
0100
0000
,
0001
0000
0000
0001
1000
0000
0000
1000
0100
0000
0010
0000
0001
0000
1000
0000
,
0010
0000
0000
0010
1000
0000
0000
1000
0001
0000
0010
0000
0100
0000
1000
0000
,
0010
0000
0000
0010
0100
0000
0000
0100
0001
0000
1000
0000
0100
0000
0010
0000
,
0100
0000
0000
0100
1000
0000
0000
1000
0010
0000
0100
0000
0001
0000
0010
0000
,
0100
0000
0000
0000
1100
0000
0000
0000
0101
0000
0000
0000
1100
0000
0010
0100
,
0010
0000
1001
0000
0001
1000
0100
0010
,
0011
0000
0000
0000
1010
0000
0000
0000
0011
0000
0000
0000
1010
0000
0100
0010
,
0100
0000
1001
0000
1000
0001
0100
0010
,
1010
0000
0000
0000
0011
0000
0000
0000
1010
0000
0000
0000
0011
0000
0100
0010
,
0100
0000
1001
0000
1000
0001
0010
0100
,
1100
0000
0000
0000
0101
0000
0000
0000
1100
0000
0000
0000
0101
0000
0010
0100
,
0010
0000
1001
0000
1000
0001
0010
0100
,
1100
0000
0000
0000
1001
0000
0000
1001
0000
0000
0001
0000
0010
0000
0100
0000
,
1100
0000
0000
0000
0110
0000
0000
0110
0000
0000
0100
0000
0001
0000
1000
0000
,
1010
0000
0000
0000
0101
0000
0000
0101
0000
0000
0001
0000
1000
0000
0100
0000
,
1100
0000
0000
0000
0110
0000
0000
0110
0000
0000
0100
0000
0010
0000
0001
0000
,
1001
0000
0000
0000
1010
0000
0000
1010
0000
0000
0010
0000
0100
0000
0001
0000
,
1001
0000
0000
0000
1100
0000
0000
1100
0000
0000
1000
0000
0100
0000
0010
0000
,
0101
0000
0000
0000
0110
0000
0000
0110
0000
0000
0010
0000
1000
0000
0100
0000
,
1100
0000
0000
0000
1001
0000
0000
1001
0000
0000
0001
0000
1000
0000
0010
0000
,
0110
0000
0000
0000
0100
0000
0001
0010
0000
0001
0010
0000
0000
0000
0100
0010
,
0100
0000
0000
0000
1000
0000
0010
0100
0000
0010
0100
0000
0001
0000
1000
0000
,
1100
0000
0000
0000
0010
0000
0001
0100
0000
0001
0100
0000
0000
0000
0010
0100
,
0010
0000
0000
0000
0100
0000
0001
1000
0000
0001
1000
0000
0100
0000
0010
0000
,
0011
0000
0000
0000
0100
0000
1000
0010
0000
1000
0010
0000
0100
0000
0001
1000
,
0001
0000
0000
0000
0100
0000
0010
1000
0000
0010
1000
0000
0100
0000
0010
0000
,
0101
0000
0000
0000
0100
0000
0001
1000
0000
0001
1000
0000
0100
0000
0010
0100
,
0010
0000
0000
0000
0001
0000
0100
0010
0000
0100
0010
0000
1000
0000
0100
0000
,
0011
0000
0000
0000
0100
0000
0000
0100
0000
0000
0100
0000
1000
0000
0001
0000
,
0010
0000
0000
0000
0100
0000
0000
0100
0000
0000
0100
0000
1000
0000
0001
0000
,
0010
0000
0000
0000
0100
0000
0000
0100
0000
0000
0100
0000
1000
0000
0010
0000
,
2002
0000
3003
0000
;

//---------------dance-single - ----------------
#NOTES:
     dance-single:
     :
     Challenge:
     14:
     0.659,0.644,0.450,0.079,0.549:
0000
0000
0000
0000
,
0000
0000
0000
0000
,
0000
0000
0000
0000
,
0000
0000
0000
0000
,
1200
0000
2300
0000
,
3020
0000
0000
0000
0000
0130
0001
0010
,
1100
0000
0000
0000
1001
0000
0000
0000
1100
0000
0000
0000
1001
0000
0001
0100
,
0001
0000
0101
0000
0001
1000
0100
0010
,
0011
0000
0000
0000
1001
0000
0000
0000
0011
0000
0000
0000
1001
0000
1000
0010
,
1000
0000
1010
0000
0010
0200
0000
0310
,
1001
0000
0000
0000
1010
0000
0000
0000
1001
0000
0000
0000
1010
0000
1000
0001
,
1000
0000
1001
0000
0001
0100
1000
0100
,
0001
0000
0000
1000
0100
0000
0000
0100
0010
0000
0000
0010
0001
0000
1000
0010
,
1000
0000
0000
0010
0100
0000
0000
0100
0001
0000
0010
0000
1000
0000
0010
0000
,
0001
0000
0000
0010
0100
0000
0000
0100
1000
0000
0000
1000
0010
0000
0100
0010
,
0100
0010
0100
0000
0001
1000
0001
0000
1000
0100
1000
0100
0010
0001
0010
0001
,
1000
0010
1000
0010
1000
0000
0000
1010
0000
0000
1001
0000
0000
0000
0001
1000
,
0001
0010
0001
0010
0001
0000
0000
0011
0000
0000
1001
0000
1000
0000
0010
0000
,
0100
0001
0100
0001
0100
0000
0000
0101
0000
0000
1001
0000
0000
0000
1000
0001
,
1000
0100
1000
0100
1000
0000
0000
1100
0000
0000
1001
0000
0001
0000
0010
0000
,
0100
0010
0100
0000
1000
0010
1000
0010
1000
0000
0000
0000
0001
0000
1000
0100
,
1000
0100
1000
0000
0010
0100
0010
0100
0010
0000
1000
0000
0100
0000
0010
0000
,
0001
0100
0001
0000
1000
0001
1000
0001
1000
0000
0000
0000
0010
0000
0100
0001
,
0100
0001
0100
0000
0001
1000
0001
1000
0001
0000
0010
0000
0100
0000
1000
0000
,
0010
0100
0010
0000
1000
0010
1000
0010
1000
0000
0000
0000
0001
0000
0010
0001
,
0010
0001
0010
0000
0100
0010
0100
0010
0100
0000
1000
0000
0010
0000
0100
0000
,
0001
1000
0001
0000
1000
0010
1000
0010
0100
0000
0000
0000
0001
0000
0010
0100
,
1000
0100
1000
0000
0010
0100
0010
0100
0001
0000
0000
0000
0000
0000
0000
0000
,
1100
0000
0000
0000
0010
0000
0000
0010
0000
0000
0001
0000
0010
0000
0100
0000
,
1100
0000
0000
0000
0010
0000
0000
0010
0000
0000
0001
0000
0010
0000
0100
0000
,
1100
0000
0000
0000
0010
0000
0000
0010
0000
0000
0001
0000
0010
0000
0100
0000
,
2002
0000
0000
3003
,
0001
0000
1000
0100
1000
0000
0001
0010
0001
0000
0100
0000
1000
0000
0100
0000
,
0001
0000
1000
0010
1000
0000
0001
0100
0001
0000
0010
0000
1000
0000
0010
0000
,
0001
0000
0100
0010
0100
0000
0001
1000
0001
0000
0100
0000
1000
0000
0100
0000
,
0001
0000
0010
0001
0010
0000
0100
0010
0100
0000
1000
0000
0010
0000
0100
0000
,
0001
0000
1000
0100
1000
0000
0010
0100
0010
0000
1000
0000
0010
0000
0100
0000
,
0001
0000
1000
0100
1000
0000
0001
1000
0001
0000
0100
0000
1000
0000
0100
0000
,
0001
0000
0010
0100
0010
0000
0001
0010
0001
0000
0100
0000
1000
0000
0100
0000
,
0001
0000
0100
0010
0100
0000
0010
1000
0010
0000
0100
0000
0001
0000
0010
0000
,
1100
0000
0000
0000
1000
0000
0010
0100
0000
0010
0100
0000
0001
0000
0010
0100
,
1000
0000
0000
0000
0001
0000
0100
0010
0000
0100
0010
0000
1000
0000
0100
0000
,
0011
0000
0000
0000
0001
0000
1000
0010
0000
1000
0010
0000
0100
0000
0001
0010
,
0100
0000
0000
0000
0010
0000
0001
1000
0000
0001
1000
0000
0010
0000
0100
0000
,
0001
1000
0001
1000
0001
0000
1000
0100
0000
1000
0100
0000
0010
0000
0001
1000
,
0001
0000
0000
0000
0100
0000
0010
1000
0000
0010
1000
0000
0100
0000
0010
0000
,
0001
1000
0001
1000
0001
0000
1000
0100
0000
1000
0100
0000
0010
0000
0001
0100
,
0010
0000
0000
0000
0100
0000
0001
1000
0000
0001
1000
0000
0100
0000
0010
0000
,
0011
0000
0000
0000
0011
0000
0000
0110
0000
0000
1100
0000
0010
0000
0001
0000
,
1001
0000
0000
0000
1001
0000
0000
1010
0000
0000
0101
0000
0010
0000
0100
0000
,
1100
0000
0000
0000
1100
0000
0000
0110
0000
0000
0011
0000
0100
0000
1000
0000
,
1001
0000
0000
0000
1001
0000
0000
0101
0000
0000
1010
0000
0100
0000
0010
0000
,
1001
0000
0000
0000
1100
0000
0000
0100
1000
0000
0001
0000
0010
0000
0100
0000
,
1100
0000
0000
0000
1001
0000
0000
1000
0001
0000
0010
0000
0100
0000
0010
0000
,
0011
0000
0000
0000
0011
0000
0000
0001
1000
0000
0010
0000
0100
0000
0010
0000
,
1010
0000
0000
0000
1010
0000
0000
0100
0001
0000
0010
0000
0100
0000
0010
0000
,
0101
0000
0000
0001
1000
0000
0000
1000
0100
0000
0000
0100
0010
0000
0001
1000
,
0010
0000
0000
0010
0100
0000
0000
0100
0001
0000
0010
0000
0100
0000
1000
0000
,
0001
0000
0000
0001
0100
0000
0000
0100
0010
0000
0000
0010
1000
0000
0001
0010
,
0100
0000
0000
0100
1000
0000
0000
1000
0010
0000
0100
0000
0001
0000
1000
0000
,
0100
0000
0000
0100
0010
0000
0000
0010
0001
0000
0000
0001
1000
0000
0010
0100
,
0001
0000
0000
0001
0100
0000
0000
0100
0010
0000
1000
0000
0100
0000
0010
0000
,
0011
0000
0000
0001
1000
0000
0000
1000
0010
0000
0000
0010
0100
0000
0001
0010
,
0100
0000
0000
0100
1000
0000
0000
1000
0010
0000
0100
0000
0001
0000
0010
0000
,
0200
0000
0000
0000
1000
0000
0000
1300
0000
0000
0001
0000
0010
0000
0100
0000
,
2000
0000
0000
0000
0001
0000
0000
3001
0000
0000
1000
0000
0001
0000
0100
0000
,
0020
0000
0000
0000
1000
0000
0000
1030
0000
0000
0001
0000
0010
0000
0100
0000
,
2010
0000
0010
0000
0000
0001
0000
3001
;

//---------------dance-single - ----------------
#NOTES:
     dance-single:
     :
     Beginner:
     1:
     0.103,0.159,0.040,0.000,0.000: // measure 1
0000
0000
0000
0000
,  // measure 2
0000
0000
0000
0000
,  // measure 3
0000
0000
0000
0000
,  // measure 4
0000
0000
0000
0000
,  // measure 5
0001
0000
1000
0000
,  // measure 6
0001
0000
0000
0000
,  // measure 7
1000
0000
1000
0000
,  // measure 8
1000
0000
0000
0000
,  // measure 9
0001
0000
0001
0000
,  // measure 10
0001
0000
0000
0000
,  // measure 11
1000
0000
1000
0000
,  // measure 12
1000
0000
0000
0000
,  // measure 13
0001
0000
0001
0000
,  // measure 14
0001
0000
0000
0000
,  // measure 15
0010
0000
0010
0000
,  // measure 16
0010
0000
0000
0000
,  // measure 17
0100
0000
0100
0000
,  // measure 18
0100
0000
0000
0000
,  // measure 19
1000
0000
1000
0000
,  // measure 20
1000
0000
0000
0000
,  // measure 21
0010
0000
0000
0000
,  // measure 22
0100
0000
0000
0000
,  // measure 23
0001
0000
0000
0000
,  // measure 24
0100
0000
0000
0000
,  // measure 25
0010
0000
0000
0000
,  // measure 26
1000
0000
0000
0000
,  // measure 27
0100
0000
0000
0000
,  // measure 28
0010
0000
0000
0000
,  // measure 29
1001
0000
0000
0000
,  // measure 30
0000
0000
0000
0000
,  // measure 31
0000
0000
0000
0000
,  // measure 32
1001
0000
0000
0000
,  // measure 33
0010
0000
0100
0000
,  // measure 34
0010
0000
0000
0000
,  // measure 35
0100
0000
0010
0000
,  // measure 36
0100
0000
0000
0000
,  // measure 37
1001
0000
0001
0000
,  // measure 38
0001
0000
0000
0000
,  // measure 39
1000
0000
1000
0000
,  // measure 40
1000
0000
0000
0000
,  // measure 41
0100
0000
1000
0000
,  // measure 42
0100
0000
0000
0000
,  // measure 43
0010
0000
0100
0000
,  // measure 44
0010
0000
0000
0000
,  // measure 45
0001
0000
0010
0000
,  // measure 46
0001
0000
0000
0000
,  // measure 47
1000
0000
0001
0000
,  // measure 48
1000
0000
0000
0000
,  // measure 49
0010
0000
0000
0000
,  // measure 50
0100
0000
0000
0000
,  // measure 51
0001
0000
0000
0000
,  // measure 52
0100
0000
0000
0000
,  // measure 53
1001
0000
0001
0000
,  // measure 54
1000
0000
0001
0000
,  // measure 55
1000
0000
0001
0000
,  // measure 56
1000
0000
0001
0000
,  // measure 57
1000
0000
1000
0000
,  // measure 58
1000
0000
0000
0000
,  // measure 59
0100
0000
0100
0000
,  // measure 60
0100
0000
0000
0000
,  // measure 61
0010
0000
0010
0000
,  // measure 62
0010
0000
0000
0000
,  // measure 63
0001
0000
0001
0000
,  // measure 64
0001
0000
0000
0000
,  // measure 65
1000
0000
0000
0000
,  // measure 66
0010
0000
0000
0000
,  // measure 67
0100
0000
0000
0000
,  // measure 68
1001
0000
0000
0000
;
