#TITLE:Initiation;
#SUBTITLE:;
#ARTIST:BEMANI Sound Team "謎の勢力";
#TITLETRANSLIT:;
#SUBTITLETRANSLIT:;
#ARTISTTRANSLIT:NAZO NO SEIRYOKU;
#CREDIT:DigiMindAxel;
#BANNER:Initiation.png;
#BACKGROUND:Initiation-bg.png;
#LYRICSPATH:;
#CDTITLE:beatmania IIDX.png;
#MUSIC:Initiation.ogg;
#METERTYPE:DDR X;
#OFFSET:-0.546;
#SAMPLESTART:49.392;
#SAMPLELENGTH:12.000;
#SELECTABLE:YES;
#BPMS:0.000=160.000,190.000=80.000,222.000=160.000;
#STOPS:32.000=1.125
,125.000=1.125
;
#BGCHANGES:-4.000=Initiation.avi=1.000=1=1=0,
99999=-nosongbg-=1.000=0=0=0 // don't automatically add -songbackground-
;

//---------------dance-single - ----------------
#NOTES:
     dance-single:
     :
     Easy:
     6:
     0.280,0.279,0.053,0.205,0.000: // measure 1
0000
0000
0000
0000
,  // measure 2
0000
0000
0000
0000
,  // measure 3
0000
0000
0000
0000
,  // measure 4
0000
0000
0000
0000
,  // measure 5
0001
1000
0001
1000
,  // measure 6
0001
0100
0001
0100
,  // measure 7
0001
1000
0001
0000
,  // measure 8
0001
0000
1001
1001
,  // measure 9
0110
1000
1000
1000
,  // measure 10
1000
0100
0100
0100
,  // measure 11
0100
1000
1000
1000
,  // measure 12
1000
0010
0010
0010
,  // measure 13
0010
0100
0100
0100
,  // measure 14
0100
0010
0010
0010
,  // measure 15
0010
0100
0100
0100
,  // measure 16
0100
0001
0001
0001
,  // measure 17
0001
1000
0100
0010
,  // measure 18
0001
1000
1000
1000
,  // measure 19
1000
0001
0010
0100
,  // measure 20
1000
0001
0001
0001
,  // measure 21
0001
0100
0010
1000
,  // measure 22
0010
0100
0010
1000
,  // measure 23
0010
0100
0100
0001
,  // measure 24
0001
0010
0100
1000
,  // measure 25
0001
2000
0000
0000
,  // measure 26
0000
3200
0000
0000
,  // measure 27
0000
0320
0000
0000
,  // measure 28
0000
0032
0000
0000
,  // measure 29
0000
0103
0010
0100
,  // measure 30
0001
1000
0100
1000
,  // measure 31
0001
0010
0100
1000
,  // measure 32
0020
0030
1001
0001
,  // measure 33
0100
0010
0100
0001
,  // measure 34
1000
0100
1000
0001
,  // measure 35
0100
0010
0100
0001
,  // measure 36
0010
0100
1000
0010
,  // measure 37
0100
0010
1000
0001
,  // measure 38
0010
0001
1000
0100
,  // measure 39
0010
0100
1000
0001
,  // measure 40
0100
0010
1001
0010
,  // measure 41
0100
1000
0010
0100
,  // measure 42
0001
0010
0100
0010
,  // measure 43
0001
1000
0010
0100
,  // measure 44
0001
1000
1001
0000
,  // measure 45
0000
0000
0010
0000
,  // measure 46
0000
0000
0010
0010
,  // measure 47
0010
0010
0020
0000
,  // measure 48
0000
0000
0230
0000
,  // measure 49
0302
0000
2003
0000
,  // measure 50
0000
0000
3200
0000
,  // measure 51
0000
0000
2300
0000
,  // measure 52
0000
0000
3002
0000
,  // measure 53
0000
0000
0023
0000
,  // measure 54
0000
0000
0032
0000
,  // measure 55
2003
0000
3002
0000
,  // measure 56
2003
0000
3001
0100
,  // measure 57
0010
0100
0001
1000
,  // measure 58
0100
0010
0001
1000
,  // measure 59
0100
0010
0001
1000
,  // measure 60
0010
0100
0002
1000
,  // measure 61
1000
1003
0020
0100
,  // measure 62
0100
0130
0002
1000
,  // measure 63
1000
1003
0200
0000
,  // measure 64
0320
0000
0031
0100
,  // measure 65
0010
1000
0001
0010
,  // measure 66
0100
0010
0001
0100
,  // measure 67
0010
1000
0100
0010
,  // measure 68
0100
1000
0002
0100
,  // measure 69
0100
0103
0020
0100
,  // measure 70
0100
0130
0002
1000
,  // measure 71
1000
1003
0001
0010
,  // measure 72
0100
1000
0220
0000
,  // measure 73
0000
0000
0000
0000
,  // measure 74
0000
0000
0330
0000
;

//---------------dance-single - ----------------
#NOTES:
     dance-single:
     :
     Medium:
     10:
     0.449,0.447,0.175,0.311,0.030: // measure 1
0000
0000
0000
0000
,  // measure 2
0000
0000
0000
0000
,  // measure 3
0000
0000
0000
0000
,  // measure 4
0000
0000
0000
0000
,  // measure 5
1100
0010
0001
1000
,  // measure 6
0110
0001
0100
0010
,  // measure 7
1001
0000
0000
0010
0000
0000
0100
0000
0100
0000
1000
0000
,  // measure 8
0010
0000
0010
0000
0100
0000
0001
1000
0001
1000
0001
1000
,  // measure 9
0001
0000
1100
0000
0100
1000
0100
0000
,  // measure 10
0100
0010
0100
0000
0100
1000
0100
0000
,  // measure 11
0100
0010
0100
0000
0010
0001
0010
0000
,  // measure 12
0010
0100
0010
0000
0010
0001
0010
0000
,  // measure 13
0010
0100
1000
0000
0001
0100
0001
0000
,  // measure 14
0001
1000
0001
0000
0001
0100
0001
0000
,  // measure 15
0001
1000
0001
0000
1000
0010
1000
0000
,  // measure 16
1000
0001
1000
0000
1000
0010
1000
0000
,  // measure 17
1000
0010
0100
0000
0001
0010
1000
0000
,  // measure 18
0010
0001
1000
0000
0100
0010
0001
1000
,  // measure 19
0100
0000
1001
0000
0001
0100
1000
0000
,  // measure 20
0100
0001
1000
0000
0100
0010
0001
0100
,  // measure 21
0001
0000
1001
0000
1000
0100
0001
0000
,  // measure 22
0100
1000
0001
0000
0010
0100
1000
0010
,  // measure 23
1000
0000
0001
1000
0001
1000
0001
1000
,  // measure 24
0001
1000
0001
1000
0100
0010
0001
1000
,  // measure 25
0010
1000
0002
0000
0010
0000
0013
0100
,  // measure 26
1000
0010
0200
0000
0010
0000
0310
1000
,  // measure 27
0001
0010
0200
0000
1000
0000
1300
0010
,  // measure 28
0100
0001
0020
0000
0001
0000
0031
1000
,  // measure 29
0100
0010
1001
0000
0100
0000
0100
1000
,  // measure 30
0010
0000
0100
0001
0100
0001
1000
0100
,  // measure 31
0010
0000
0011
0000
0010
0000
0010
0001
,  // measure 32
1000
0020
0030
0000
1001
0000
1000
0010
,  // measure 33
0100
0000
0100
0010
1000
0000
0100
0010
,  // measure 34
0001
0000
0001
0010
0100
0000
0100
1000
,  // measure 35
0010
0000
0010
0100
0001
0000
0001
0010
,  // measure 36
0100
1000
0100
1000
0001
0100
0001
0100
,  // measure 37
0010
0000
0010
1000
0100
0000
0100
0010
,  // measure 38
0001
0000
0001
1000
0100
0000
0100
0010
,  // measure 39
0001
0000
0001
0100
0010
0000
0010
1000
,  // measure 40
0100
0000
0100
0010
0001
0000
1001
0000
,  // measure 41
0001
1001
1000
1100
,  // measure 42
1000
1100
0010
0110
,  // measure 43
0010
0110
1000
1001
,  // measure 44
0001
1001
1200
0000
,  // measure 45
0000
0000
2300
0000
,  // measure 46
0000
0000
3002
0023
,  // measure 47
0230
0000
2300
0000
3001
1000
0001
1000
,  // measure 48
0010
0100
0001
0000
0201
0000
0000
0000
,  // measure 49
0320
2030
3020
0000
,  // measure 50
0000
0230
0302
0000
,  // measure 51
2003
3200
2300
0000
,  // measure 52
3002
0000
0203
0000
,  // measure 53
0320
2030
3020
0000
,  // measure 54
0000
0000
0000
0000
0230
0000
0000
0302
,  // measure 55
2003
0000
0000
3002
2003
0000
0000
0000
,  // measure 56
3200
0000
2300
0000
3100
1000
0100
1000
,  // measure 57
0010
0100
0010
0100
0001
0000
0010
0000
,  // measure 58
0100
0000
1000
0000
0001
0100
0001
0100
,  // measure 59
0010
0100
0010
1000
0100
0000
0010
0000
,  // measure 60
0001
0000
0100
0010
2000
0000
0001
0000
,  // measure 61
0001
3001
0200
0010
,  // measure 62
0010
0310
2000
0100
,  // measure 63
0100
3100
0020
0001
,  // measure 64
0032
0000
0100
0000
0103
0010
0100
0010
,  // measure 65
1000
0100
1000
0010
0100
0000
0001
0000
,  // measure 66
0010
0000
0100
0000
0010
0001
0010
0001
,  // measure 67
0100
0010
1000
0100
0010
0000
0001
0000
,  // measure 68
0010
0100
2000
0010
,  // measure 69
0010
3010
0200
0001
,  // measure 70
0001
0301
1100
0100
,  // measure 71
0110
0000
0010
0000
1001
0001
0010
0100
,  // measure 72
1000
0001
0100
0000
2002
0000
0000
0000
,  // measure 73
0000
0000
0000
0000
,  // measure 74
0000
0000
3003
0000
;

//---------------dance-single - ----------------
#NOTES:
     dance-single:
     :
     Hard:
     15:
     0.706,0.698,0.327,0.372,0.539: // measure 1
0000
0000
0000
0000
,  // measure 2
0000
0000
0000
0000
,  // measure 3
0000
0000
0000
0000
,  // measure 4
0000
0000
0000
0000
,  // measure 5
0001
0000
0000
1000
0100
0000
0000
0000
0010
0000
0000
0001
0100
0000
0000
0000
,  // measure 6
0010
0000
0000
1000
0100
0000
0000
0010
0001
0000
0000
1000
0010
0000
0000
0010
,  // measure 7
0100
0000
0000
0000
0000
0000
0000
0000
0000
0001
0000
0000
0010
0000
0000
0000
0000
0000
0000
0000
0000
0100
0000
0000
1000
0000
0000
0000
0000
0000
0000
0000
1000
0000
0000
0000
0000
0000
0000
0000
0010
0000
0000
0000
0100
0000
0000
0000
,  // measure 8
0001
0000
0001
0000
0010
0001
0010
0001
1000
0100
1000
0100
,  // measure 9
0010
0000
0000
0000
0001
1000
0001
0000
0010
0000
0000
0000
0100
0010
0100
0000
,  // measure 10
1000
0000
0000
0000
0001
0100
0001
0000
1000
0000
0000
0000
0100
1000
0100
0000
,  // measure 11
0010
0000
0000
0000
0001
0100
0001
0000
1000
0000
0000
0000
0100
1000
0100
0000
,  // measure 12
0010
0000
0000
0000
0001
1000
0001
0000
0100
0000
0000
0000
0010
0100
0010
0000
,  // measure 13
1000
0000
0000
0000
0100
1000
0100
0000
0010
0000
0001
0000
0010
0100
0010
0000
,  // measure 14
0001
0000
0000
0000
0100
0001
0100
0000
0010
0000
1000
0000
0100
0010
0100
0000
,  // measure 15
1000
0000
0000
0000
0001
0100
0001
0000
1000
0000
0100
0000
0010
0100
0010
0000
,  // measure 16
0001
0000
0000
0000
1000
0100
1000
0000
0001
0000
0010
0000
0100
0010
0100
0000
,  // measure 17
1000
0000
0000
0000
0110
0000
0100
0000
0001
1000
0001
1000
0001
0000
0010
0000
,  // measure 18
0100
1000
0100
1000
0001
0000
0001
0000
0010
0001
0010
0001
0010
0000
0100
0000
,  // measure 19
1000
0010
1000
0000
0001
0000
0001
0000
0010
0001
0010
0001
0010
0000
0100
0000
,  // measure 20
1000
0010
1000
0010
0100
0000
0100
0000
0001
1000
0001
1000
0001
0000
0010
0000
,  // measure 21
0100
0010
0100
0000
1001
0000
1000
0000
0100
1000
0100
1000
0100
0000
0010
0000
,  // measure 22
0001
0100
0001
0100
0010
0000
0010
0000
1000
0001
1000
0001
1000
0000
0100
0000
,  // measure 23
0010
0001
0010
0000
0100
1000
0000
0000
0010
0100
0000
0000
0001
0100
0000
0000
,  // measure 24
0001
1000
0000
0000
0100
0000
0010
0000
0001
0000
1000
0000
0010
0100
0010
0100
,  // measure 25
0001
1000
0001
1000
0002
0000
0000
0000
1000
0000
0000
0000
1003
0010
0000
0010
,  // measure 26
0000
0010
0100
0000
0000
0001
1000
0000
1000
0000
1000
0000
0200
0000
0000
0010
,  // measure 27
0000
0310
0001
0000
2000
0000
0000
0000
0001
0000
0000
0000
3001
1000
0000
1000
,  // measure 28
0000
1000
0010
0000
0000
1000
0001
0000
0001
0000
0001
0000
0100
0000
0000
0100
,  // measure 29
0000
0000
0100
0000
1001
0000
1000
0000
0001
0000
0100
0000
0001
1000
0000
1000
,  // measure 30
0000
1000
0001
0000
0000
0010
0100
0000
0100
0000
0100
0000
1000
0000
0010
0100
,  // measure 31
0000
0010
0100
0000
1001
0000
0000
0000
1001
0000
0000
0000
1000
0010
0000
0010
,  // measure 32
0000
0010
0200
0000
0300
0000
0000
0000
1001
0000
0001
0000
0100
0001
0100
0001
,  // measure 33
1000
0000
0100
0000
0010
0100
0010
0100
1000
0000
0010
0000
0100
0001
0100
0001
,  // measure 34
1000
0000
0100
0000
0010
0001
0010
0001
0100
0000
0010
0000
1000
0001
1000
0001
,  // measure 35
0010
0000
0100
0000
1000
0010
1000
0010
0100
0000
0001
0000
0010
0100
0010
0100
,  // measure 36
1000
0000
0010
0000
0100
0001
0010
0100
1000
0000
0100
0000
0010
0001
0010
0001
,  // measure 37
1000
0000
0010
0000
0100
0001
0100
0001
1000
0000
0100
0000
0010
0001
0010
0001
,  // measure 38
0100
0000
0010
0000
1000
0001
1000
0001
0100
0000
0010
0000
1000
0010
1000
0010
,  // measure 39
0100
0000
0001
0000
0010
0100
0010
0100
1000
0000
0001
0000
0100
0010
0100
0010
,  // measure 40
1000
0000
0100
0000
0010
0001
0100
0010
1000
0000
1010
0000
0000
0000
0110
0000
,  // measure 41
0000
0101
0000
0110
0000
1100
0000
0110
,  // measure 42
0000
0011
0000
0110
0000
1001
0000
1100
,  // measure 43
0000
0011
0000
1001
0000
1010
0000
0101
,  // measure 44
0000
0000
1001
0000
0100
0010
0100
0010
0001
0000
0100
0000
0000
0000
0100
0000
,  // measure 45
0000
0100
0010
1000
0000
1000
0000
1000
,  // measure 46
0000
1000
0001
0010
0200
0000
2300
0000
,  // measure 47
3002
0000
2003
0000
3001
0100
0010
0001
,  // measure 48
0100
0001
0010
0100
2002
0000
0000
3003
,  // measure 49
2200
3300
0220
0330
0022
0000
0000
0000
,  // measure 50
0000
0033
0220
0330
2002
0000
0000
3003
,  // measure 51
0202
0303
0220
0330
2020
0000
0000
3030
,  // measure 52
2002
0000
0000
3003
0220
0000
0000
0330
,  // measure 53
0202
0303
0220
0330
2020
0000
0000
0000
,  // measure 54
0000
0000
0000
3030
2002
0000
3003
0011
,  // measure 55
0220
0000
0330
0110
2200
0000
3300
0010
,  // measure 56
0220
0000
0030
0000
0020
0000
0330
0000
1000
0000
0010
0100
0010
0000
1000
0000
,  // measure 57
0001
0000
0010
0000
0100
0010
0001
0010
0100
0000
1000
0000
0001
0000
1000
0000
,  // measure 58
0100
0000
1000
0000
0001
0010
0001
0000
1000
0000
0010
0100
0010
0000
1000
0000
,  // measure 59
0001
0000
0010
0000
0100
0010
0001
0010
0100
0000
1000
0000
0001
0000
1000
0000
,  // measure 60
0100
0000
1000
0000
0001
1000
0001
1000
0100
0000
0001
0000
0100
0000
1000
0000
,  // measure 61
0010
0001
0010
1000
0001
0100
1000
0100
,  // measure 62
0001
0010
1000
0010
0001
0100
1000
0100
,  // measure 63
0001
0010
1000
0010
0002
0100
0100
0103
,  // measure 64
0020
0000
1000
0000
1000
0000
1030
0000
1001
0000
0001
0100
0001
0000
1000
0000
,  // measure 65
0100
0000
0010
0000
0100
1000
0001
1000
0100
0000
1000
0000
0010
0000
1000
0000
,  // measure 66
0001
0000
1000
0000
0010
0100
0010
0000
1000
0000
0001
0010
0001
0000
1000
0000
,  // measure 67
0001
0000
1000
0000
0010
0100
0001
0100
0010
0000
1000
0000
0100
0000
1000
0000
,  // measure 68
0010
0000
1000
0000
0100
1000
0100
1000
0001
0000
0100
0000
1000
0000
0100
0000
,  // measure 69
0001
0010
1000
0010
0001
0100
1000
0100
,  // measure 70
0001
0000
0010
0000
1000
0000
0010
0000
0001
1000
0100
0000
0010
0000
0001
0000
,  // measure 71
1000
0010
0100
0000
0001
1000
0001
0000
0010
0001
0100
0010
1000
0000
0010
0000
,  // measure 72
0100
0001
0010
0100
1000
0000
0100
0000
0022
0000
0000
0000
0000
0000
0000
0000
,  // measure 73
0000
0000
0000
0000
,  // measure 74
0000
0000
0033
0000
;

//---------------dance-single - ----------------
#NOTES:
     dance-single:
     :
     Challenge:
     16:
     0.850,0.809,0.205,0.562,0.839: // measure 1
0000
0000
0000
0000
,  // measure 2
0000
0000
0000
0000
,  // measure 3
0000
0000
0000
0000
,  // measure 4
0000
0000
0000
0000
,  // measure 5
0001
0000
0100
0010
0100
0000
0000
0000
0010
0000
1000
0100
1000
0000
0010
0000
,  // measure 6
0100
0000
0001
0100
0001
0000
1000
0000
0010
0100
0000
0010
0100
0000
0001
1000
,  // measure 7
0001
0000
0000
1000
0000
0000
0100
0000
0000
0010
0000
0000
0100
0000
0000
0010
0000
0000
0001
0000
0000
0100
0000
0000
0001
0000
0000
0000
0000
0000
0000
0000
0110
0000
0000
0000
0000
0000
0000
0000
1000
0000
0000
0000
0001
0000
0000
0000
,  // measure 8
0010
0000
0011
0000
0100
1000
0010
0001
0010
1000
0100
0010
,  // measure 9
1001
0000
0000
0000
0100
0001
0100
0000
0010
0000
1000
0100
0010
0000
0100
0000
,  // measure 10
1000
0000
0001
0010
0100
0000
0010
0000
0001
0000
1000
0010
0100
0000
0010
0000
,  // measure 11
1000
0000
0001
0100
0010
0000
0100
0000
0001
0000
1000
0100
0010
0000
0001
0000
,  // measure 12
1000
0000
0001
0010
0100
0000
1000
0000
0001
0000
0100
0010
1000
0000
0001
1000
,  // measure 13
0001
0000
0100
0010
1000
0000
0100
0000
1000
0000
0001
0100
0010
0100
0001
0000
,  // measure 14
1000
0000
0001
0100
0010
0100
0001
0000
1000
0000
0100
0010
0001
0010
0100
0000
,  // measure 15
1000
0000
0100
0010
0001
0010
0100
0000
1000
0000
0010
1000
0100
1000
0010
0000
,  // measure 16
0100
0000
0001
0010
0100
0010
0001
0000
0100
0000
0010
1000
0100
1000
0010
0100
,  // measure 17
0010
0100
0010
0000
2001
0000
3100
0000
0010
0001
1000
0010
2000
0000
3001
0000
,  // measure 18
1000
0100
0010
0100
2000
0000
3010
0000
0100
0001
1000
0100
2000
0000
3010
0000
,  // measure 19
0100
0001
0010
0000
0100
1000
0010
0000
0100
0001
0010
0001
0200
0000
0310
0000
,  // measure 20
0100
0001
0010
0100
2000
0000
3100
0000
0010
0001
0010
0100
0020
0000
0031
0000
,  // measure 21
0100
0010
1000
0000
1002
0000
0103
0000
0010
1000
0100
1000
0020
0000
0130
0000
,  // measure 22
0001
0010
0100
1000
0020
0000
1030
0000
0001
0010
0100
0010
0002
0000
0103
0000
,  // measure 23
0010
1000
0100
0000
1000
0100
0010
0000
0010
0001
1000
0000
0100
0010
0001
0000
,  // measure 24
0001
0100
0010
0000
0100
0001
0100
0001
0010
0100
0010
0100
1000
0010
0100
0001
,  // measure 25
1000
0100
0010
0100
1000
0000
0000
0000
1100
0000
0000
0000
0020
0001
0000
0001
,  // measure 26
0000
0031
0100
0000
0000
0010
1000
0000
0100
0000
0010
0000
0001
0000
0000
0100
,  // measure 27
0000
0100
0010
0000
0101
0000
0000
0000
0101
0000
0000
0000
0020
1000
0000
1000
,  // measure 28
0000
1030
0001
0000
0000
0010
0001
0000
0100
0000
0010
0000
1000
0000
0000
1001
,  // measure 29
0000
0000
1001
0000
0001
0000
0100
0000
0010
0000
0100
0000
0001
1000
0001
1000
,  // measure 30
0100
1000
0100
0000
0010
0001
0100
0000
0010
0000
0100
0000
0001
0000
1000
0100
,  // measure 31
0000
1000
0100
0000
1001
0000
0000
0000
1001
0000
0000
0000
2000
0001
0000
0001
,  // measure 32
0000
3001
0200
0000
0300
0000
0000
0000
1020
0000
0130
0000
0001
0010
0100
1000
,  // measure 33
0020
0000
0130
0000
0001
0100
0010
1000
0200
0000
1300
0000
0001
0100
0010
1000
,  // measure 34
0200
0000
1300
0000
0010
0001
1000
0100
0020
0000
0130
0000
1000
0010
0100
0010
,  // measure 35
2000
0000
3001
0000
0100
0010
1000
0100
0020
0000
0130
0000
1000
0001
0010
0100
,  // measure 36
0020
0000
0031
0000
0100
0010
1000
0001
0200
0000
0301
0000
1000
0100
0001
0100
,  // measure 37
2000
0000
3010
0000
0100
0001
0010
0001
0200
0000
0310
0000
1000
0010
0001
0010
,  // measure 38
2000
0000
3001
0000
1000
0010
0100
0010
2000
0000
3001
0000
0100
0001
0010
0100
,  // measure 39
0020
0000
0031
0000
0100
0010
1000
0010
0200
0000
0301
0000
1000
0100
1000
0010
,  // measure 40
0200
0000
0301
0000
1000
0100
0010
0001
0100
0000
0000
0100
0001
0000
0000
0001
,  // measure 41
1000
0000
0000
1000
0100
0000
0000
0100
0001
0000
0000
0001
0100
0000
0000
0100
,  // measure 42
1000
0000
0000
1000
0010
0100
0010
0000
1000
0000
0000
1000
0001
0000
0000
0001
,  // measure 43
0010
0000
0000
0010
1000
0000
0000
1000
0010
0000
0000
0010
0001
0000
0000
0001
,  // measure 44
1000
0000
0010
0000
0100
0001
1000
0100
0010
0000
0010
0000
0001
1000
0001
1000
,  // measure 45
0001
0000
0010
0000
0100
1000
0010
0000
0100
0000
0100
0000
0001
1000
0001
1000
,  // measure 46
0001
0000
0010
0000
0100
0010
0001
0000
1000
0100
1000
0000
0001
0010
0001
0000
,  // measure 47
1000
0100
1000
0000
0001
0010
0001
0000
1000
0000
0100
0000
0010
0000
0001
0000
,  // measure 48
1000
0010
0100
0010
1000
0001
0010
0000
2002
0000
0000
0000
0000
0000
0003
0000
,  // measure 49
0200
0300
0002
3003
2020
3000
0200
0300
,  // measure 50
2000
3000
0200
0330
2002
0000
0000
3000
,  // measure 51
0020
0030
2000
3003
0220
0030
0002
0003
,  // measure 52
0020
0030
0002
0303
2002
0000
0000
3000
,  // measure 53
0020
0030
2000
3003
2200
3000
0020
0030
,  // measure 54
2000
3000
0020
0330
2002
0000
3003
0110
,  // measure 55
2002
0000
3003
1001
0220
0000
0330
0100
,  // measure 56
2002
0000
3000
0000
0200
0000
0303
0000
0010
1000
0001
0100
1000
0100
0001
0000
,  // measure 57
0010
0000
0001
1000
0010
1000
0001
1000
0010
0000
0100
0000
0001
1000
0100
0000
,  // measure 58
0010
0100
0010
0000
0001
0100
0010
0000
1000
0001
1000
0100
0001
0100
1000
0000
,  // measure 59
0010
0000
1000
0100
1000
0001
1000
0100
1000
0000
0001
0000
0010
0100
1000
0000
,  // measure 60
0010
0100
0010
0000
0100
0001
0010
0100
2000
0000
0001
0000
0001
0000
0100
0000
,  // measure 61
0100
0000
0001
0000
3001
1000
0100
0000
0020
0000
0001
0000
0001
0000
0100
0000
,  // measure 62
0100
0000
0001
0000
0031
0100
0010
0000
2000
0000
0001
0000
0001
0000
0100
0000
,  // measure 63
0100
0000
0001
0000
3001
1000
0100
0000
0010
0001
1000
0001
0010
0000
0100
0000
,  // measure 64
1000
0010
0100
0001
1000
0000
1001
0000
0001
1000
0001
0010
1000
0010
0001
0000
,  // measure 65
0010
0000
0100
1000
0001
1000
0100
1000
0001
0000
0100
0000
0010
1000
0100
0000
,  // measure 66
0010
0100
0010
0000
0001
0100
0010
0000
0100
0001
1000
0010
0001
0010
1000
0000
,  // measure 67
0100
0000
1000
0001
0100
0001
1000
0001
0100
0000
0010
0000
1000
0100
0010
0000
,  // measure 68
0100
0010
0100
0000
1000
0010
0100
0001
0020
0000
0001
0000
0001
0000
0100
0000
,  // measure 69
0100
0000
0001
0000
0031
0100
0010
0000
2000
0000
0100
0000
0100
0000
0001
0000
,  // measure 70
0001
0000
0100
0000
3100
0010
0001
0000
1000
0100
0010
0100
1000
0001
0010
0000
,  // measure 71
0100
1000
0010
1000
0100
0010
0100
0000
1000
0100
0001
0100
1000
0001
0010
0001
,  // measure 72
1000
0010
0001
0010
0100
0001
1000
0000
2020
0000
0000
0000
0000
0000
0000
0000
,  // measure 73
0000
0000
0000
0000
,  // measure 74
0000
0000
3030
0000
;

//---------------dance-single - ----------------
#NOTES:
     dance-single:
     :
     Beginner:
     2:
     0.110,0.163,0.084,0.000,0.000: // measure 1
0000
0000
0000
0000
,  // measure 2
0000
0000
0000
0000
,  // measure 3
0000
0000
0000
0000
,  // measure 4
0000
0000
0000
0000
,  // measure 5
0001
0000
0000
0000
,  // measure 6
0100
0000
0000
0000
,  // measure 7
0001
0000
1001
0000
,  // measure 8
0000
0000
1001
0000
,  // measure 9
0000
1000
0000
0000
,  // measure 10
0000
0100
0000
0000
,  // measure 11
0000
1000
0000
0000
,  // measure 12
0000
0001
0000
0000
,  // measure 13
0000
0010
0000
0000
,  // measure 14
0000
0001
0000
0000
,  // measure 15
0000
0100
0000
0000
,  // measure 16
0000
0010
0000
0000
,  // measure 17
0000
0100
0000
0100
,  // measure 18
0000
0100
0000
0000
,  // measure 19
0000
0010
0000
0010
,  // measure 20
0000
0010
0000
0000
,  // measure 21
0000
1001
0000
1000
,  // measure 22
0000
1001
0000
1000
,  // measure 23
0000
1001
0000
0001
,  // measure 24
0000
1000
0000
0000
,  // measure 25
0000
0110
0000
0000
,  // measure 26
0000
0000
0000
0000
,  // measure 27
0000
0010
0000
0000
,  // measure 28
0000
0000
0000
0000
,  // measure 29
0000
0110
0000
0000
,  // measure 30
0000
0100
0000
0000
,  // measure 31
0000
1001
0000
0000
,  // measure 32
0000
0000
0001
0000
,  // measure 33
0100
0000
0001
0000
,  // measure 34
0100
0000
0010
0000
,  // measure 35
1000
0000
0010
0000
,  // measure 36
1000
0000
0001
0000
,  // measure 37
1000
0000
0001
0000
,  // measure 38
1000
0000
0001
0000
,  // measure 39
1000
0000
0001
0000
,  // measure 40
1000
0000
0100
0000
,  // measure 41
0000
0000
0000
0000
,  // measure 42
0000
0000
0010
0000
,  // measure 43
0000
0000
0000
0000
,  // measure 44
0000
0000
1001
0000
,  // measure 45
0000
0000
0000
0000
,  // measure 46
0000
0000
1000
0000
,  // measure 47
1000
0000
1000
0000
,  // measure 48
0000
0000
0110
0000
,  // measure 49
0000
0000
0010
0000
,  // measure 50
0000
0000
0100
0000
,  // measure 51
0000
0000
0010
0000
,  // measure 52
0000
0000
1000
0000
,  // measure 53
0000
0000
0001
0000
,  // measure 54
0000
0000
1000
0000
,  // measure 55
0000
0000
0100
0000
,  // measure 56
0000
0000
0010
0000
,  // measure 57
0010
0000
0010
0000
,  // measure 58
0000
0000
0001
0000
,  // measure 59
0001
0000
0001
0000
,  // measure 60
0000
0000
1000
0000
,  // measure 61
0100
0000
0010
0000
,  // measure 62
0001
0000
1000
0000
,  // measure 63
0100
0000
0010
0000
,  // measure 64
0001
0000
1000
0000
,  // measure 65
1000
0000
1000
0000
,  // measure 66
0000
0000
0010
0000
,  // measure 67
0010
0000
0010
0000
,  // measure 68
0000
0000
1000
0000
,  // measure 69
0010
0000
0100
0000
,  // measure 70
0001
0000
1000
0000
,  // measure 71
0010
0000
0100
0000
,  // measure 72
0100
0000
1001
0000
;
