#TITLE:一激必翔;
#SUBTITLE:;
#ARTIST:Des-ROW・組スペシアルr;
#TITLETRANSLIT:ICHIGEKI HISSHOU;
#SUBTITLETRANSLIT:;
#ARTISTTRANSLIT:Des-ROW GUMI SPECIAL r;
#CREDIT:DigiMindAxel;
#BANNER:ICHIGEKI HISSHOU.png;
#BACKGROUND:ICHIGEKI HISSHOU-bg.png;
#LYRICSPATH:ICHIGEKI HISSHOU.lrc;
#CDTITLE:pop'n music.png;
#MUSIC:ICHIGEKI HISSHOU.ogg;
#METERTYPE:DDR X;
#OFFSET:-11.667;
#SAMPLESTART:40.549;
#SAMPLELENGTH:12.000;
#SELECTABLE:YES;
#BPMS:0.000=213.000,32.000=106.500,52.000=213.000,148.000=106.500,177.000=213.000,249.000=106.500,269.000=213.000,301.000=106.500,303.000=213.000;
#STOPS:;
#BGCHANGES:;

//---------------dance-single - ----------------
#NOTES:
     dance-single:
     :
     Easy:
     6:
     0.276,0.353,0.265,0.112,0.000:
1000
0000
1000
0000
,
0001
0000
0001
0000
,
0010
0000
0001
0000
,
0010
0000
0001
0000
,
1001
0000
1000
0000
,
0100
0000
1000
0000
,
1000
0000
1000
0000
,
1000
0000
1000
0000
,
1001
0000
0000
0000
,
0110
0000
0120
0000
,
0030
1001
0110
0110
,
0200
0000
0000
0000
,
0301
0001
1000
1000
,
0001
0000
0001
0000
,
0001
0000
0010
0000
,
0010
0000
0100
0000
,
0100
0000
1000
0000
,
1000
0001
1000
0001
,
1000
0001
1000
0001
,
2000
0000
0000
0000
,
3002
0000
0000
0000
,
1003
0000
1000
0000
,
0010
0000
0010
0000
,
1000
0000
1000
0000
,
0001
0000
0001
0000
,
0100
0000
0100
0000
,
0001
0000
0001
0000
,
0001
1000
0001
0000
,
1000
0001
1000
0000
,
0001
0000
0001
0000
,
1000
0000
1000
0000
,
0010
0000
0100
0000
,
0010
0000
0100
0000
,
0001
0000
1000
0000
,
0001
0000
1000
0000
,
0010
0000
0010
0000
,
0100
0000
0100
0000
,
0110
0000
1001
0000
,
0000
0110
0110
0110
,
0110
0000
1001
0000
,
0000
1001
1001
1001
,
0000
2001
0000
3002
,
0000
0013
0001
0010
,
0100
1001
0000
1001
,
0000
2002
0000
0000
,
3003
0220
0000
0000
,
0330
1001
0000
0001
,
0000
0010
0000
0010
,
0000
0001
0000
1000
,
0000
0100
0000
1000
,
0000
1000
0000
1000
,
0000
0010
0000
0010
,
0000
1000
0000
0001
,
0000
0100
0000
0010
,
0000
0100
0010
0100
,
0000
0001
1000
0001
,
0000
1000
0000
0001
,
0000
0010
0000
0100
,
0000
1000
0001
1000
,
0000
0010
0100
0010
,
0000
1000
0000
0100
,
0000
0010
0000
0001
,
0000
1001
0000
0000
,
0000
0110
0000
1001
,
0000
0000
0110
0110
,
0110
0120
0000
0000
,
1030
1002
0000
0000
,
0003
1000
0001
1000
,
0001
1000
0001
1000
,
0001
0010
0100
0010
,
0100
0010
0100
0010
,
0100
1000
0001
1000
,
0001
1000
0001
1000
,
0001
0010
0100
1000
,
0001
0010
0100
1000
,
0001
1001
0000
1000
,
0010
0100
0001
1000
,
0100
0010
0001
1000
,
0010
0100
0001
0010
,
0100
1000
0001
2002
,
3003
0000
0000
0000
;

//---------------dance-single - ----------------
#NOTES:
     dance-single:
     :
     Medium:
     9:
     0.534,0.578,0.988,0.522,0.000:
0001
1000
0001
1000
,
0010
0100
0010
0100
,
0001
0010
0001
0010
,
0100
0010
0100
0010
,
0001
0100
0001
0100
,
0001
1000
0001
1000
,
0100
0100
0010
0010
,
0001
0010
0100
1000
,
2002
0000
0000
3003
,
0022
0000
0000
0033
2020
0000
0000
0000
,
0000
3030
1001
0000
1001
0000
1001
0000
,
1000
0010
0100
0001
,
0010
0100
1000
0001
,
1000
0100
1001
1001
,
1000
0100
1001
1001
,
0001
0100
1001
1001
,
0001
0100
1001
1001
,
0010
0100
1000
0010
,
0100
0001
0100
0001
1000
0001
1000
0000
,
2020
0000
0000
3030
,
0202
0000
0000
0303
,
0001
0010
0001
0010
,
1001
1000
1001
1000
,
0200
0000
2300
0000
,
3020
0000
0230
0000
,
0301
1000
0001
1000
,
1001
1000
1001
1000
,
0002
0000
0203
0000
,
0302
0000
2003
0000
,
3010
0100
0010
0100
,
1001
1001
0010
0100
,
1001
1001
0100
0010
,
0001
0010
0001
0010
,
1001
1001
0001
1000
,
0100
1000
0100
0010
,
0202
0303
2002
3003
,
2020
3030
2002
3003
,
2020
0000
0000
3030
0022
0000
0000
0000
,
0000
0033
1001
0000
0110
0000
1001
0000
,
0202
0000
0000
0303
2200
0000
0000
0000
,
0000
3300
1001
0000
0110
0000
2002
0000
,
3003
0000
1000
0010
1000
0000
0001
0100
,
0010
0000
1000
0100
0010
0000
0001
0010
,
0100
0000
2002
0000
0000
3003
0202
0000
,
0000
0303
2020
0000
0000
0000
0000
0000
,
3030
0220
0000
0000
,
0330
0001
0101
0001
,
0110
1000
1010
1000
,
0110
0002
0100
0203
,
0001
0302
1000
2003
,
0001
3001
0011
0001
,
0110
1000
1100
1000
,
0110
0002
1000
2003
,
0001
3002
0100
0203
,
0001
0301
1001
1000
,
1010
1000
1001
0001
,
0101
0001
1001
1000
,
1100
1000
1001
0001
,
0011
1001
1001
1100
,
1100
1001
1001
0011
,
0011
0110
0110
0110
,
0110
1001
0110
1001
,
0110
1002
1000
0000
,
0003
0100
0220
0000
0000
0330
2002
0000
,
0000
0000
0000
3003
0101
0000
0110
0000
,
1010
0000
2200
0000
0000
0000
0000
3300
,
1001
0022
0000
0000
,
0000
0033
0001
0000
0100
0000
0010
0000
,
1100
0011
1001
0110
,
1001
0010
0100
0001
,
1100
0011
1001
0110
,
1001
0100
1000
0010
,
0101
1010
0110
1001
,
0110
0100
0001
0010
,
1100
0011
0110
1001
,
0110
0000
2002
0000
0000
3003
0101
0000
,
0101
1010
1010
1001
,
1001
0110
0110
1001
,
1001
1100
1100
0011
,
0110
1100
0110
2002
,
3003
0000
0000
0000
;

//---------------dance-single - ----------------
#NOTES:
     dance-single:
     :
     Hard:
     13:
     0.684,0.610,0.666,0.185,0.486: // measure 1
1000
0000
0010
1000
0000
0000
1000
0000
0010
1000
0000
0000
,  // measure 2
0001
0000
0100
0001
0000
0000
0001
0000
0100
0001
0000
0000
,  // measure 3
1001
1001
1010
1010
,  // measure 4
1000
0000
0001
0010
0000
0001
0010
0000
0001
1000
0000
0000
,  // measure 5
1001
0000
0001
0010
0000
0000
0001
0000
0001
0010
0000
0000
,  // measure 6
0001
0000
0001
1000
0000
1000
0100
0000
1000
0100
0000
0000
,  // measure 7
0010
0001
0010
0001
0000
0000
0100
0010
0100
0010
0000
0000
,  // measure 8
1000
0100
1000
0100
0000
0000
1000
0001
1000
0001
0000
0000
,  // measure 9
1001
0001
1000
1000
0020
0100
0100
0130
,  // measure 10
2002
0000
0000
3003
0220
0000
0000
0000
,  // measure 11
0330
0000
0101
0000
1010
0000
1000
0001
,  // measure 12
1002
0000
0000
0000
1000
0000
0000
1000
0000
1000
0000
0000
0203
0000
0000
0000
,  // measure 13
0320
0000
0000
0000
1000
0000
0000
1000
0000
1000
0000
0000
1030
0000
0000
0000
,  // measure 14
0001
0100
0010
0100
0001
0100
0010
0000
,  // measure 15
1000
0010
0100
0010
1000
0010
0100
0000
,  // measure 16
0001
0010
1000
0010
0001
0010
0100
0000
,  // measure 17
1000
0010
0001
0010
1000
0100
0010
0001
,  // measure 18
1100
1100
0110
0110
,  // measure 19
0011
0011
0110
0110
,  // measure 20
1010
1010
0110
0110
,  // measure 21
0101
0101
1001
1001
,  // measure 22
1000
0000
0100
1000
0000
0100
1000
0000
0000
0001
0000
0010
,  // measure 23
0001
0000
0010
0001
0000
0001
1000
0000
1000
0010
0000
0000
,  // measure 24
1010
0010
1010
0100
,  // measure 25
0101
0100
0101
0110
,  // measure 26
0001
0000
0010
0001
0000
0010
0001
0000
0000
1000
0000
0100
,  // measure 27
1000
0000
0100
1000
0000
1000
0001
0000
0001
0100
0000
0000
,  // measure 28
0101
0100
0101
0010
,  // measure 29
1010
0010
1010
1001
,  // measure 30
1000
0000
0010
1000
0000
0010
1000
0000
1000
0001
0000
0000
,  // measure 31
1001
0000
0000
1001
0000
0010
0001
0000
0010
0001
0000
0000
,  // measure 32
1001
0000
0000
1001
0000
0100
1000
0000
0100
1000
0000
0000
,  // measure 33
0001
0000
0100
0001
0000
0100
0001
0000
1000
0100
0000
0000
,  // measure 34
1001
0000
0000
1001
0000
0000
1000
0000
0010
1000
0000
0010
,  // measure 35
1000
0000
0001
0010
0000
0000
0001
0000
0000
1001
0000
0000
,  // measure 36
0100
1000
0100
1000
0000
0000
0010
0100
0010
0100
0000
0000
,  // measure 37
0001
0010
0001
0010
0000
0000
0001
1000
0001
1000
0001
1000
,  // measure 38
0002
0100
2000
0000
,  // measure 39
3003
0000
1010
0000
0110
0000
0101
0001
,  // measure 40
1001
0000
0010
0000
0011
0000
0001
1000
,  // measure 41
1100
1100
0110
0202
,  // measure 42
0303
0000
0000
0000
0001
0000
0100
0000
0001
0000
0000
1000
0000
1000
0000
1000
,  // measure 43
0010
0000
1000
0000
0001
0000
0010
0000
0001
0000
0000
0100
0000
0100
0000
0100
,  // measure 44
0010
1000
2002
0000
0000
3003
2020
0000
,  // measure 45
0000
0000
0000
3030
0000
0000
0100
0000
0001
0000
0100
0000
0001
0000
0000
0000
0000
0000
0100
0000
0010
0000
0100
0000
,  // measure 46
0010
0000
0000
1000
0010
1000
0010
1000
0010
1000
0010
1000
,  // measure 47
0010
0000
0000
1000
0000
0001
0100
0000
0001
0100
0000
0001
,  // measure 48
1000
0000
0001
1000
0000
0100
1000
0000
0100
1000
0000
0010
,  // measure 49
0100
0101
0100
0101
,  // measure 50
0010
1010
0010
1010
,  // measure 51
0110
0000
0000
0001
0000
0100
0001
0000
0100
0001
0000
1000
,  // measure 52
0001
0000
1000
0001
0000
0010
0001
0000
0010
0001
0000
0100
,  // measure 53
0010
1010
0010
1010
,  // measure 54
0100
0101
0100
0101
,  // measure 55
0110
0000
0000
1000
0000
0001
0100
0000
0000
0001
0000
1000
,  // measure 56
0100
0000
0100
0010
0000
0010
0001
0000
0000
1000
0000
0001
,  // measure 57
0100
0000
0000
0001
0000
1000
0100
0000
0000
1000
0000
0001
,  // measure 58
0100
0000
0100
0010
0000
0010
1000
0000
1000
0001
0000
0000
,  // measure 59
1000
0000
0000
1001
0000
1000
0001
0000
1000
0001
0000
0001
,  // measure 60
0100
0000
0001
0100
0000
0010
1000
0000
0010
1000
0000
0001
,  // measure 61
1000
0000
1000
0100
0000
1000
0100
0000
1000
0100
0000
1000
,  // measure 62
0100
0000
1000
0001
0000
0000
0100
0001
0100
0001
0000
0000
,  // measure 63
0100
0000
0010
0000
0100
0000
0020
0000
0000
0000
0000
0000
1000
0000
0000
0000
0000
0000
1030
0000
0000
0001
0000
0000
,  // measure 64
0010
0100
1020
0000
0130
0000
0201
0000
,  // measure 65
0310
1000
0100
0010
1001
0000
0110
0000
,  // measure 66
0101
1002
0010
1003
,  // measure 67
0101
2001
0100
0001
,  // measure 68
3100
0000
1000
0010
0100
0010
1000
0010
,  // measure 69
0100
0001
0100
0010
0100
0010
0100
0001
,  // measure 70
1000
0000
0001
0100
0010
0100
0001
0100
,  // measure 71
0010
1000
0010
0100
0010
0100
0010
1000
,  // measure 72
0001
0000
0010
0100
1000
0100
0010
0100
,  // measure 73
1000
0010
0001
0010
1000
0010
0100
0001
,  // measure 74
1000
0000
0100
1000
0010
1000
0100
0001
,  // measure 75
0100
1000
0001
0100
0010
0100
0001
1000
,  // measure 76
0100
1000
0001
0000
0100
0100
1001
0000
,  // measure 77
1001
0000
0000
0110
0000
0000
0110
0000
0000
1000
0010
1000
,  // measure 78
0010
0000
1000
0000
0010
0000
1000
0000
0001
0000
1000
0000
0001
0000
0000
0000
0000
0000
0100
0000
0000
0001
0000
0000
,  // measure 79
0100
0010
1000
0100
1000
0000
1010
0000
,  // measure 80
1010
0110
0110
2002
,  // measure 81
3003
0000
0000
0000
;

//---------------dance-single - ----------------
#NOTES:
     dance-single:
     :
     Challenge:
     17:
     0.977,1.000,0.289,0.329,1.000: // measure 1
0001
0000
0001
0100
0000
0100
1000
0000
1000
0100
0000
0100
,  // measure 2
0001
0000
0001
1000
0000
1000
0100
0000
0100
0010
0000
0010
,  // measure 3
0001
0000
0001
0100
0000
0100
1000
0000
1000
0100
0000
0100
,  // measure 4
0001
0000
0001
1000
0000
1000
0010
0100
0010
1000
0000
0000
,  // measure 5
0001
0000
0001
0010
0000
0010
1000
0000
1000
0010
0000
0010
,  // measure 6
0001
0000
0001
1000
0000
1000
0100
0000
0100
0010
0000
0010
,  // measure 7
0001
0100
0001
0100
0001
0100
0010
0100
0010
0100
0010
0100
,  // measure 8
0001
1000
0001
1000
0001
1000
0100
1000
0100
1000
0001
1000
,  // measure 9
0001
0010
0100
0010
0001
0010
0100
0010
0001
1000
0010
1000
0001
1000
0010
1000
,  // measure 10
2002
0000
0000
3003
2020
0000
3030
1001
,  // measure 11
0100
0010
0022
0033
2200
3300
1001
0110
,  // measure 12
1002
0000
0000
0000
1000
0000
0000
0100
0000
0100
0000
0103
0010
0000
1000
0000
,  // measure 13
0200
0000
0000
0000
1000
0000
0000
0010
0000
0010
0000
0310
0001
1000
0100
0000
,  // measure 14
1000
0001
1000
0000
0001
0010
0001
0000
0010
0000
0100
0000
1000
0000
0001
0000
,  // measure 15
0100
0010
0100
0000
0001
0100
0001
0000
0010
0000
0100
0000
1000
0000
0001
0000
,  // measure 16
1000
0001
1000
0000
0010
0100
0010
0000
1000
0000
0100
0000
0010
0000
0001
0000
,  // measure 17
1000
0001
1000
0000
0001
0100
0001
0000
1000
0000
0100
0000
0010
0000
0001
1000
,  // measure 18
0200
1000
2300
0010
3020
0100
0230
0001
,  // measure 19
0302
1000
2003
0100
3200
0010
0320
0001
,  // measure 20
0031
1000
0001
1000
0100
1000
0100
0010
0100
0010
0001
0010
,  // measure 21
0001
1000
0001
1000
0010
1000
0010
0100
0001
0010
0100
1000
,  // measure 22
0001
0000
0001
0010
0000
0010
1000
0000
1000
0010
0000
0010
,  // measure 23
0001
0000
0001
1000
0000
1000
0100
0000
0100
0010
0000
0010
,  // measure 24
0001
1000
0001
1000
0001
1000
0010
0100
0010
0100
0010
0100
,  // measure 25
0001
0010
0001
0010
0001
0010
0001
1000
0001
1000
0001
1000
,  // measure 26
0001
0000
0001
0100
0000
0100
1000
0000
1000
0100
0000
0100
,  // measure 27
0001
0000
0001
0010
0000
0010
0100
0000
0100
1000
0000
1000
,  // measure 28
0010
0100
0010
0100
0010
0100
0001
0010
0001
0010
0001
0010
,  // measure 29
0001
1000
0001
1000
0100
1000
0010
0100
0001
0010
0001
1000
,  // measure 30
0010
0000
0010
0100
0000
0100
0001
0000
0001
0010
0000
0010
,  // measure 31
0100
1000
0100
1000
0000
1000
0010
0000
0010
0100
0000
0100
,  // measure 32
0001
1000
0001
1000
0000
1000
0100
0000
0100
0001
0000
0001
,  // measure 33
0100
0000
0100
1000
0000
1000
0010
0000
0010
0100
0000
0100
,  // measure 34
0001
1000
0100
1000
0000
1000
0001
0000
0001
0100
0000
0100
,  // measure 35
1000
0000
1000
0100
0000
0100
0001
0000
0001
0010
0000
0010
,  // measure 36
0100
1000
0100
1000
0100
1000
0001
0100
0001
0100
0001
0100
,  // measure 37
0010
0100
0010
1000
0100
0010
0001
0100
0010
0100
0001
1000
,  // measure 38
1002
0000
0200
0303
1002
0000
1000
0000
,  // measure 39
1003
0000
0011
0010
0110
0100
1100
0011
,  // measure 40
1100
0000
1000
0000
0001
0000
0000
0100
0010
0100
0000
0001
1000
0000
0100
0010
,  // measure 41
0001
0000
1000
0000
1001
0000
0001
0100
0010
0100
0001
1000
0100
0010
0100
1000
,  // measure 42
0001
0000
0000
0000
0201
0000
0001
0000
0301
0000
0000
1000
0100
1000
0000
0010
,  // measure 43
0100
0000
0001
1000
0002
0000
0100
0000
0103
0000
0000
0010
0100
0010
0000
0100
,  // measure 44
0001
0010
0000
0001
2002
0000
0000
0000
0000
0000
3003
0000
2200
0000
0000
0000
,  // measure 45
0000
0000
0000
3300
0000
0000
1000
0000
0001
0000
1000
0000
0001
0000
1000
0000
0001
0000
0100
0000
0010
0000
0100
0000
,  // measure 46
0010
0100
0010
1000
0100
1000
0100
1000
0100
1000
0001
1000
,  // measure 47
0001
1000
0001
1000
0010
0100
0001
0000
0001
1000
0000
1000
,  // measure 48
0100
0000
0100
0010
0001
1000
0010
0000
0010
0100
0000
0100
,  // measure 49
0001
0000
0001
1000
0100
1000
0001
0100
0001
1000
0100
1000
,  // measure 50
0001
0100
0001
0010
0100
0010
0001
0100
0001
0010
0100
0010
,  // measure 51
0001
0100
0001
1000
0100
0010
0001
0000
0001
0100
0000
0100
,  // measure 52
0010
0000
0010
0100
0001
0010
0100
0000
0100
1000
0000
1000
,  // measure 53
0001
0000
0001
0100
0010
0100
0001
1000
0001
0100
0010
0100
,  // measure 54
0001
1000
0001
0010
0100
0010
0001
1000
0010
1000
0001
0010
,  // measure 55
0001
0100
0010
0100
0001
0010
0100
0000
0100
1000
0000
1000
,  // measure 56
0100
0000
0100
0010
0001
1000
0010
0000
0010
0100
0000
0100
,  // measure 57
0001
0000
0001
1000
0100
0010
0100
0000
0100
1000
0000
1000
,  // measure 58
0010
0000
0010
0100
0001
0010
0100
0000
0100
1000
0000
1000
,  // measure 59
0010
0000
0000
0100
0001
0010
0100
0000
0100
1000
0000
1000
,  // measure 60
0010
0000
0010
0100
0001
0010
0100
0000
0100
1000
0000
1000
,  // measure 61
0010
0000
0010
0100
0001
1000
0100
0010
0100
0010
0001
1000
,  // measure 62
0010
0100
0010
0100
0001
0010
0100
1000
0001
0100
0001
1000
,  // measure 63
0010
0000
0000
0000
0100
0000
0000
0000
0010
0000
0000
0000
1000
0000
0000
0100
0000
0000
0001
0000
0000
0100
0000
0000
1000
0000
0000
1000
0000
0000
0001
0000
0000
0001
0000
0000
1000
0000
0000
0010
0000
0000
0001
0000
0000
0010
0000
0000
,  // measure 64
1000
1000
0001
0001
0210
0000
0310
1000
0100
0000
0010
0001
0210
0000
0310
1000
,  // measure 65
0001
0000
0010
0001
1000
0001
0010
0000
1001
0000
0110
0000
1100
0000
0011
0000
,  // measure 66
1001
0000
0110
0000
1001
0000
1000
0100
0010
0000
0002
0100
0000
0100
0000
0103
,  // measure 67
0010
1000
0100
0000
1001
0000
0001
0010
0100
0000
2000
0010
0000
0010
0000
3010
,  // measure 68
1000
0000
0000
0100
0000
0000
0010
0000
0000
0001
0000
0000
1000
0000
0000
0000
0100
0000
0000
0000
0001
0000
0000
0000
0100
0000
0000
0000
1000
0000
0000
0000
0001
0000
0000
0000
0010
0000
0000
0000
0100
0000
0000
0000
0010
0000
0000
0000
,  // measure 69
0001
0100
0001
0100
0000
0100
0010
0000
0010
1000
0100
0010
,  // measure 70
0001
0000
0000
1000
0010
0001
0010
1000
0100
1000
0001
0010
,  // measure 71
0100
1000
0100
1000
0000
1000
0010
0000
0010
0100
0010
1000
,  // measure 72
0001
0000
0000
0010
0100
1000
0010
0001
0010
1000
0100
0010
,  // measure 73
0100
1000
0100
1000
0000
1000
0010
0000
0010
0100
0001
0010
,  // measure 74
0100
0000
0000
0010
0001
0100
0001
0100
1000
0100
0001
0010
,  // measure 75
0100
0000
0010
0000
0100
0000
1000
0000
0000
0001
0000
0000
0101
0000
0000
0100
0000
0000
0110
0000
0000
0010
0000
0000
,  // measure 76
1010
1000
1001
1001
0100
0100
1002
1000
,  // measure 77
2003
0000
0000
0010
0000
0000
3020
0000
0000
0100
0000
0000
0230
0000
0000
0001
0000
0000
0301
0000
1000
0000
0100
0000
,  // measure 78
1000
0000
0001
0000
0100
0000
1000
0000
0100
0000
0001
0000
0010
0000
0100
0000
1000
0000
0002
0000
0000
0100
0000
0000
,  // measure 79
0203
0000
0000
0010
0000
0000
0320
0000
0000
1000
0000
0000
2030
0000
0000
0001
0000
0000
3001
0000
1000
0000
0100
0000
,  // measure 80
0010
0001
1000
0100
0001
0100
1000
0001
0100
2002
0000
0000
,  // measure 81
3003
0000
0000
0000
;

//---------------dance-single - ----------------
#NOTES:
     dance-single:
     :
     Beginner:
     2:
     0.120,0.160,0.080,0.000,0.000:
1000
0000
0000
0000
,
0001
0000
0000
0000
,
1000
0000
0000
0000
,
1000
0000
0000
0000
,
0001
0000
0000
0000
,
1000
0000
0000
0000
,
0001
0000
0000
0000
,
0001
0000
0000
0000
,
1001
0000
0000
0000
,
0001
0000
0001
0000
,
0000
0100
0000
0010
,
0000
0000
0100
0000
,
0001
0000
0000
0000
,
1001
0000
0000
0000
,
1001
0000
0000
0000
,
0001
0000
0000
0000
,
1000
0000
0000
0000
,
1001
0000
0000
0000
,
0000
0000
0000
0000
,
1000
0000
0000
0000
,
1000
0000
0000
0000
,
0010
0000
0000
0000
,
0010
0000
0000
0000
,
0100
0000
0000
0000
,
0100
0000
0000
0000
,
0001
0000
0000
0000
,
0001
0000
0000
0000
,
1000
0000
0000
0000
,
1000
0000
0000
0000
,
1001
0000
0000
0000
,
0001
0000
0000
0000
,
0001
0000
0000
0000
,
1000
0000
0000
0000
,
1000
0000
0000
0000
,
0010
0000
0000
0000
,
0100
0000
0000
0000
,
0010
0000
0000
0000
,
1000
0000
0000
0000
,
0000
1000
0000
0000
,
0001
0000
0000
0000
,
0000
0001
0000
0000
,
0000
1001
0000
1000
,
0000
0010
0000
1000
,
0000
0001
0000
0000
,
0000
0100
0000
0000
,
0000
0100
0000
0000
,
0000
0001
0000
0000
,
0000
1000
0000
0000
,
0000
0001
0000
0000
,
0000
0001
0000
0000
,
0000
1000
0000
0000
,
0000
1000
0000
0000
,
0000
1000
0000
0000
,
0000
0001
0000
0000
,
0000
0010
0000
0000
,
0000
0010
0000
0000
,
0000
0001
0000
0000
,
0000
0001
0000
0000
,
0000
1000
0000
0000
,
0000
1000
0000
0000
,
0000
0100
0000
0000
,
0000
0100
0000
0000
,
0000
1000
0000
0000
,
0000
1001
0000
0000
,
0000
0000
0000
0000
,
0000
1001
0000
0000
,
0000
0001
0000
0000
,
0000
1000
0000
1000
,
0000
1000
0000
1000
,
0000
0001
0000
0001
,
0000
0001
0000
0001
,
0000
1000
0000
0001
,
0000
1000
0000
0001
,
0000
0010
0000
0010
,
0000
0010
0000
0010
,
0000
0110
0000
0100
,
0000
0100
0000
1000
,
0000
0001
0000
1000
,
0000
0010
0000
0100
,
0000
0001
0000
1001
;
