#TITLE:Hyper Drive feat. ぷにぷに電機;
#SUBTITLE:;
#ARTIST:パソコン音楽クラブ;
#TITLETRANSLIT:Hyper Drive feat. punipunidenki;
#SUBTITLETRANSLIT:;
#ARTISTTRANSLIT:PASOCOM MUSIC CLUB;
#GENRE:;
#CREDIT:DigiMindAxel;
#BANNER:Hyper Drive feat. punipunidenki.png;
#BACKGROUND:Hyper Drive feat. punipunidenki-bg.png;
#LYRICSPATH:Hyper Drive feat. punipunidenki.lrc;
#CDTITLE:beatmania IIDX.png;
#MUSIC:Hyper Drive feat. punipunidenki.ogg;
#OFFSET:-1.204000;
#SAMPLESTART:39.933998;
#SAMPLELENGTH:12.000000;
#SELECTABLE:YES;
#BPMS:0.000000=130.000000
;
#STOPS:
;
#BGCHANGES:-4.000=Hyper Drive feat. punipunidenki.avi=1.000=1=0=0=StretchNoLoop==CrossFade==,
99999=-nosongbg-=1.000=0=0=0 // don't automatically add -songbackground-
;
#KEYSOUNDS:;
#ATTACKS:;

//---------------dance-single - ----------------
#NOTES:
     dance-single:
     :
     Easy:
     5:
     0.188098,0.229506,0.008128,0.121916,0.000000,162.000000,161.000000,1.000000,15.000000,0.000000,0.000000,0.188098,0.229506,0.008128,0.121916,0.000000,162.000000,161.000000,1.000000,15.000000,0.000000,0.000000:
0000
0000
0000
0000
,
0000
0000
0000
0000
,
0000
0000
0000
0000
,
0000
0000
0000
0000
,
1000
1000
0100
0010
,
0001
0000
0100
0000
,
0001
0000
1000
0000
,
0001
0000
0100
0000
,
0001
0000
1000
0000
,
0100
0000
0010
0000
,
0100
0000
1000
0000
,
0100
0000
0010
0000
,
0001
0000
1000
0000
,
0200
0000
1000
0000
,
1000
0000
1300
0100
,
0020
0000
0001
0000
,
0001
0000
0001
0000
,
0032
0000
1000
0000
,
1000
0000
1003
0001
,
0020
0000
0100
0000
,
0100
0000
0130
0100
,
1000
0010
1000
0001
,
0010
0001
0010
0100
,
1000
0100
1000
0100
,
0010
0001
1000
0000
,
0100
1000
0100
1000
,
0010
0100
0001
0010
,
0100
0010
0100
1000
,
0010
1000
0010
0100
,
0002
0000
0000
0000
,
0000
0000
0000
0000
,
2003
0000
0000
0000
,
0000
0000
0000
0000
,
3002
0000
0203
0000
,
0302
0000
2003
0000
,
3200
0000
2300
0000
,
3020
0000
0130
0001
,
1000
0000
0000
0000
,
1000
0000
0000
0000
,
1000
0000
0000
0000
,
1000
0000
0000
0000
,
0001
1000
0001
0000
,
0010
0001
0010
0000
,
0100
1000
0100
0000
,
1000
0001
1000
0000
,
0001
1000
0100
0010
,
0002
0000
0103
0010
,
0100
0100
0100
0000
,
0001
0001
0001
0000
,
0010
0100
1000
0010
,
0100
0000
0010
0100
,
0001
0000
1000
0000
,
0100
0010
0001
0001
,
1000
0010
1000
0010
,
0100
0001
0100
0010
,
1000
0100
1000
0100
,
0010
0001
0010
0001
,
0100
0010
0100
0010
,
1000
0100
0010
0001
,
0100
0010
0100
0001
,
1000
0100
0010
0100
,
2000
0000
0001
0000
,
3001
0001
0001
0110
;

//---------------dance-single - ----------------
#NOTES:
     dance-single:
     :
     Medium:
     9:
     0.342525,0.408011,0.089405,0.406385,0.073149,295.000000,284.000000,11.000000,50.000000,0.000000,0.000000,0.342525,0.408011,0.089405,0.406385,0.073149,295.000000,284.000000,11.000000,50.000000,0.000000,0.000000:
0000
0000
0000
0000
,
0000
0000
0000
0000
,
0000
0000
0000
0000
,
0000
0000
0000
0000
,
0001
1000
0001
1000
0100
0010
0100
0000
,
1000
0000
0100
1000
0100
0000
0010
0001
,
0100
0000
0001
0100
0001
0000
1000
0200
,
0000
0310
0001
2000
0000
3000
0001
0020
,
0000
0130
1000
0002
0000
0003
0010
0000
,
0100
0000
1000
0010
0100
0000
0001
1000
,
0100
0000
1000
0100
0010
0000
0001
0200
,
0000
0310
0100
0002
0000
0003
1000
0020
,
0000
1030
0010
1000
0001
0010
0100
2000
,
0000
0000
0010
0000
0010
0000
0010
3010
,
0000
1002
0000
0000
1003
0010
0100
0001
,
2000
0000
0100
0000
3100
0000
0010
0200
,
0000
0310
0001
0010
0100
1000
0000
0020
,
0000
0000
0100
0000
0100
0000
0100
0130
,
0000
2001
0000
0000
3001
0010
0100
1000
,
0020
0000
1000
0000
1030
0000
0010
0100
,
0001
0000
0100
0001
1000
1000
1100
0000
,
1001
0000
0000
0001
0000
0000
0001
0000
0000
0000
0010
0000
0100
1000
0000
0002
,
0000
2003
0000
3000
0001
0010
0100
1000
,
0001
0000
0000
0100
0000
0000
0002
0000
0000
0000
0000
0000
0003
0000
1000
0000
,
0010
0100
0010
1000
0001
0010
0100
0000
,
1000
0000
0000
1000
0000
0000
1000
0000
0000
0000
0010
0000
0100
0001
0000
2000
,
0000
3002
0000
0003
1000
0010
0100
0001
,
1000
0000
0000
0100
0000
0000
2000
0000
0000
0000
0000
0000
3000
0000
0001
0000
,
0010
0100
0010
0001
1000
0010
1000
0001
,
0020
0000
0000
0000
,
0032
0000
0000
0000
,
0203
0000
0000
0000
,
0320
0000
0000
0000
0000
0000
1030
1000
,
1010
2001
0000
0000
,
0000
0000
3001
0100
0001
0100
0010
1000
,
2000
0000
0000
0001
3002
0000
0000
1000
,
2003
0000
3200
0000
0310
0001
0010
0001
,
2000
0000
0000
3100
,
0020
0000
0000
0031
,
0200
0000
0000
0310
,
2000
0000
0000
3001
,
1000
0100
0001
0100
,
1000
0010
0001
0010
,
1000
0100
0001
0100
,
1000
0000
0010
0000
0100
0001
0100
0001
,
2000
0000
0100
0000
0100
0000
0100
3100
,
0000
1002
0000
0000
0013
0001
0010
0001
,
1000
0000
0000
0010
0000
0000
2000
0000
0000
0000
0000
0000
3001
0000
0200
0000
,
0000
0000
0301
2000
0000
3200
0000
0320
,
0000
0000
0001
0000
0001
0000
0001
0031
,
0000
2001
0000
0000
3001
0010
0100
1000
,
0001
0000
0000
0100
0000
0000
0002
0000
0000
0000
0003
0000
1000
0000
0020
0000
,
0000
0130
0001
1000
0010
0010
0110
0000
,
1001
0000
0000
1000
0000
0000
1000
0000
0000
0000
0010
0000
0100
0001
0000
2000
,
0000
3200
0000
0300
1000
0010
0001
0010
,
1000
0000
0000
0001
0000
0000
2000
0000
0000
0000
0000
0000
3000
0000
0100
0000
,
0010
0001
1000
0010
1000
0001
0000
0000
,
0010
0000
0000
0010
0000
0000
0010
0000
0000
0000
0001
0000
1000
0100
0000
2000
,
0000
3002
0000
0003
1000
0100
0001
0100
,
1000
0000
0000
0001
0000
0000
2000
0000
0000
0000
0000
0000
3000
0000
0100
0000
,
0010
0001
0100
1000
0100
0001
1000
0100
,
0020
0001
0001
0031
,
0100
0000
0100
0010
1000
1000
1100
0000
;

//---------------dance-single - ----------------
#NOTES:
     dance-single:
     :
     Hard:
     12:
     0.524817,0.561015,0.113788,0.300725,0.426704,452.000000,438.000000,14.000000,37.000000,0.000000,0.000000,0.524817,0.561015,0.113788,0.300725,0.426704,452.000000,438.000000,14.000000,37.000000,0.000000,0.000000:
0000
0000
0000
0000
,
0000
0000
0000
0000
,
0000
0000
0000
0000
,
0000
0000
0000
0000
,
0001
0000
0001
0000
0100
0010
0000
0010
1000
0000
1000
0000
0001
0000
0000
0000
,
1000
0000
0010
1000
0000
0010
1000
0000
0001
0000
0010
0000
0100
0000
0100
0000
,
0010
0000
0001
1000
0000
0001
1000
0000
0100
0000
0010
0000
0100
0000
0100
0000
,
1000
0000
0010
0100
0000
0010
0100
0000
0001
0000
1000
0000
0100
0000
0100
0000
,
1000
0000
0001
0100
0000
0001
0100
0000
0010
0000
1000
0000
0001
0000
0001
0000
,
0010
0000
0100
1000
0000
0100
1000
0000
0001
0000
0100
0000
0010
0000
0010
0000
,
0100
0000
0001
1000
0000
0001
1000
0000
0100
0000
1000
0000
0001
0000
0001
0000
,
1000
0000
0100
0010
0000
0100
0010
0000
0001
0000
1000
0000
0010
0000
0010
0000
,
1000
0000
0001
0010
0000
0001
0010
0000
0100
0000
1000
0000
0001
0000
0100
0000
,
0102
1003
2010
3001
,
0012
1003
2100
3001
,
1000
0000
0100
0010
0000
0100
0010
0000
0001
0000
0010
0100
0000
0010
0100
0000
,
1000
0000
0010
0100
0000
0010
0100
0000
0001
0000
0100
0010
0000
0100
0010
0000
,
0201
0310
1020
0130
,
1002
0013
2001
3100
,
1000
0000
0001
0010
0000
0001
0010
0000
0001
0000
1000
0100
0000
1000
0100
0000
,
1000
0000
0001
0100
0000
0001
0100
0000
0010
0100
0010
0100
0010
0000
0000
0000
,
1000
0000
0001
0000
0100
0000
0001
0000
1000
0000
0100
0000
1000
0001
0000
0010
,
0000
0000
0100
0000
0010
0001
0010
0001
1000
0000
0100
0000
0010
0000
0001
0000
,
1000
0000
0010
0000
0100
0000
0010
0000
1000
0000
0100
0000
1000
0000
0001
0100
,
0001
0000
0010
0000
0100
0000
1000
0010
0000
0000
2002
0000
0000
0000
3003
0000
,
0100
0000
0010
0000
0001
0000
0010
0000
0100
0000
1000
0000
0001
1000
0000
0010
,
0000
0000
0100
0000
0010
1000
0010
1000
0001
0000
0010
0000
0100
0000
1000
0000
,
0010
0000
0100
0000
0010
0000
1000
0000
0001
0000
0010
0000
0001
0000
1000
0010
,
1000
0100
0010
0001
1000
0100
0010
0100
,
1001
0000
0000
0000
0002
0000
0000
2003
0000
0000
3001
0000
0010
0000
0100
0000
,
2000
0000
0000
3200
0000
0000
0302
0000
0000
0000
0003
0000
0200
0000
0000
0000
,
2300
0000
0000
3020
0000
0000
0130
0000
0002
0000
0000
0023
0000
0000
0130
0000
,
2000
0000
0000
3002
0000
0000
1003
0000
0200
0000
0000
0320
0000
0000
0031
0000
,
1000
2002
0000
0000
,
0000
0000
3003
0000
0010
0000
0100
0000
1000
0000
0010
1000
0000
0100
0000
0020
,
0000
0000
0000
0031
2000
0000
0000
3010
,
0200
0000
0000
0302
0000
0000
1003
0000
0001
0000
0010
0000
0100
0000
1000
0000
,
1001
0000
0100
0000
0000
0000
0100
0010
,
1000
0000
1000
0000
0000
0000
1000
0001
,
0010
0000
0010
0000
0000
0000
0010
0001
,
0100
0000
0100
0000
0000
0000
0100
0010
,
1000
0000
0000
1000
0000
0000
1000
0000
0000
0000
0100
0000
0010
0000
0001
0000
,
0100
0000
0000
0100
0000
0000
0100
0000
0000
0000
0010
0000
1000
0000
0001
0000
,
0010
0000
0000
0010
0000
0000
0010
0000
0000
0000
0100
0000
1000
0000
0001
0000
,
0100
0000
0000
0100
0000
0000
0100
0000
0001
0000
0010
0000
0100
0000
1000
0000
,
0010
0000
0000
0100
0000
0000
0001
0000
1000
0000
0000
0100
0000
0000
0001
0000
,
0100
0000
0000
1000
0000
0000
0100
0000
0010
0000
0000
0001
0000
0000
1000
0000
,
0001
0000
1000
0010
0000
1000
0010
0000
0100
0000
0001
0010
0000
0001
0010
0000
,
0100
0000
1000
0001
0000
1000
0001
0000
0100
0000
0001
0010
0000
0001
0010
0000
,
0200
0000
0000
1000
0000
0000
1300
0000
0020
0000
0000
0100
0000
0000
0130
0000
,
0002
0000
0000
0010
0000
0000
0013
0000
0200
0000
0000
0010
0000
0000
0310
0000
,
0001
0000
1000
0100
0000
1000
0100
0000
0010
0000
0001
0100
0000
0001
0100
0000
,
0010
0000
1000
0100
0000
1000
0100
0000
0010
0100
0010
0100
0010
0000
0000
0000
,
0001
0000
1000
0100
1000
0000
0001
0000
0100
0000
0001
0000
1000
0001
0000
0010
,
0000
0000
0100
0000
1000
0001
1000
0001
0010
0000
0100
0000
1000
0000
0001
0000
,
0100
0000
0010
0100
0010
0000
0100
0000
0001
0000
0010
0000
0001
0000
1000
0010
,
1000
0000
0100
0000
0010
0000
0001
0100
0000
0000
2002
0000
0000
0000
3003
0000
,
0010
0000
0100
1000
0100
0000
0010
0000
0001
0000
0100
0000
0001
1000
0000
0100
,
0000
0000
0010
0000
0001
0100
0001
0100
0010
0000
1000
0000
0100
0000
0010
0000
,
0001
0000
0100
0010
0100
0000
0001
0000
1000
0000
0100
0000
1000
0000
0001
0100
,
0001
0010
0100
1000
0001
0100
0010
0100
,
1002
0000
0000
0000
0100
0000
0000
0100
0000
0103
0000
0000
0010
0000
1000
0000
,
0100
0000
0000
1000
0100
1000
0000
0001
0100
0010
0100
0010
1000
0000
0000
0000
;

//---------------dance-single - ----------------
#NOTES:
     dance-single:
     :
     Beginner:
     1:
     0.066183,0.102003,0.016255,0.000000,0.000000,57.000000,55.000000,2.000000,0.000000,0.000000,0.000000,0.066183,0.102003,0.016255,0.000000,0.000000,57.000000,55.000000,2.000000,0.000000,0.000000,0.000000:
0000
0000
0000
0000
,
0000
0000
0000
0000
,
0001
0000
0000
0000
,
1000
0000
0000
0000
,
0001
0000
0000
0000
,
0010
0000
0000
0000
,
0010
0000
0000
0000
,
0100
0000
0000
0000
,
0100
0000
0000
0000
,
0010
0000
0000
0000
,
0010
0000
0000
0000
,
0100
0000
0000
0000
,
0100
0000
0000
0000
,
1000
0000
0000
0000
,
0000
0000
0000
0000
,
0001
0000
0000
0000
,
0100
0000
0000
0000
,
0001
0000
0000
0000
,
0000
0000
0000
0000
,
1000
0000
0000
0000
,
0010
0000
0000
0000
,
1000
0000
0000
0000
,
0001
0000
0000
0000
,
0010
0000
0000
0000
,
0100
0000
0000
0000
,
0010
0000
0000
0000
,
0001
0000
0000
0000
,
1000
0000
0000
0000
,
0010
0000
0000
0000
,
1000
0000
0000
0000
,
0000
0000
0000
0000
,
1000
0000
0000
0000
,
0000
0000
0000
0000
,
1001
0000
0000
0000
,
0001
0000
0000
0000
,
0010
0000
0000
0000
,
0100
0000
0000
0000
,
1000
0000
0000
0000
,
0000
0000
0000
0000
,
1000
0000
0000
0000
,
0000
0000
0000
0000
,
1000
0000
0000
0000
,
0100
0000
0000
0000
,
1000
0000
0000
0000
,
0001
0000
0000
0000
,
0100
0000
0000
0000
,
0000
0000
0000
0000
,
0010
0000
0000
0000
,
0010
0000
0000
0000
,
0100
0000
0000
0000
,
0000
0000
0000
0000
,
1000
0000
0000
0000
,
1000
0000
0000
0000
,
1001
0000
0000
0000
,
0001
0000
0000
0000
,
0100
0000
0000
0000
,
0010
0000
0000
0000
,
0100
0000
0000
0000
,
0001
0000
0000
0000
,
1000
0000
0000
0000
,
0100
0000
0000
0000
,
1000
0000
0000
0000
,
0001
0000
0001
0100
;

//---------------dance-single - ----------------
#NOTES:
     dance-single:
     :
     Challenge:
     14:
     0.696660,0.739519,0.000000,0.154426,0.881856,600.000000,600.000000,0.000000,19.000000,0.000000,0.000000,0.696660,0.739519,0.000000,0.154426,0.881856,600.000000,600.000000,0.000000,19.000000,0.000000,0.000000:
// measure 0
0000
0000
0000
0000
,  // measure 1
0000
0000
0000
0000
,  // measure 2
0000
0000
0000
0000
,  // measure 3
0000
0000
0000
0000
,  // measure 4
1000
0001
1000
0001
1000
0010
1000
0010
0100
0001
0100
0001
1000
0000
0000
0000
,  // measure 5
0001
0000
0100
0010
0000
0100
0010
1000
0100
0000
0010
0000
0001
1000
0001
0000
,  // measure 6
0010
0000
0100
1000
0000
0100
1000
0010
0000
0100
0000
0000
0001
1000
0001
0000
,  // measure 7
0100
0000
0010
1000
0000
0010
1000
0100
0010
0000
0001
0000
0010
0100
0010
0000
,  // measure 8
0001
0000
0100
0001
0000
0100
0001
1000
0000
0100
0000
0000
0010
0100
0010
0000
,  // measure 9
0001
0000
0100
0010
0000
0100
0010
1000
0100
0000
0010
0000
0001
0100
0001
0000
,  // measure 10
1000
0000
0100
1000
0000
0100
1000
0010
0000
0100
0000
0000
0001
1000
0001
0000
,  // measure 11
0100
0000
0010
1000
0000
0010
1000
0100
0010
0000
0001
0000
0100
0010
0100
0000
,  // measure 12
0001
0000
1000
0010
0000
1000
0010
0100
0001
1000
0001
1000
0001
1000
0001
1000
,  // measure 13
0001
0010
1000
0010
0001
0010
0100
1000
,  // measure 14
0001
0100
0010
0100
0001
1000
0100
0010
,  // measure 15
0001
0000
1000
0010
0000
0010
1000
0100
0010
0000
0001
0100
0000
0100
0001
0010
,  // measure 16
0100
0000
1000
0001
0000
0001
0100
0010
1000
0000
0001
1000
0000
1000
0010
0100
,  // measure 17
0001
0100
1000
0100
0001
1000
0010
1000
,  // measure 18
0001
0010
0100
0010
0001
0100
0010
1000
,  // measure 19
0001
0000
0010
0001
0000
0001
0100
0010
1000
0000
0100
1000
0000
1000
0010
0100
,  // measure 20
0001
0000
1000
0001
0000
0001
0010
0100
1000
0001
1000
0001
0100
0000
0000
0000
,  // measure 21
0001
0100
0010
0100
0001
0100
0010
0100
0001
0000
1000
0000
0100
0010
0000
0002
,  // measure 22
0000
0000
1003
0000
0001
0010
0100
1000
0001
0000
0100
0000
0010
0000
0100
0000
,  // measure 23
0001
0010
0100
0010
0001
0010
0100
0010
0001
0000
1000
0000
0010
0000
1000
0000
,  // measure 24
0100
0010
0001
0010
0100
0010
0001
0010
0100
0000
1000
0000
0010
0000
1000
0000
,  // measure 25
0001
0100
0010
0100
0001
0100
0010
0100
0001
0000
0010
0000
0100
1000
0000
0002
,  // measure 26
0000
0000
1003
0000
0001
0100
0010
1000
0100
0000
0010
0000
0001
0000
0100
0000
,  // measure 27
0001
0010
0100
0010
0001
0010
0100
0010
0001
0000
1000
0000
0100
0000
1000
0000
,  // measure 28
0010
1000
0100
1000
0010
1000
0100
1000
0001
1000
0001
1000
0001
1000
0001
1000
,  // measure 29
0001
0000
0000
0000
0200
0000
0000
0302
0000
0000
0013
0000
0100
0000
1000
0000
,  // measure 30
0002
0000
0000
2003
0000
0000
3020
0000
0000
0000
0000
0000
0230
0000
0000
0000
,  // measure 31
0301
0000
0000
0020
0000
0000
1030
0000
0020
0000
0000
0032
0000
0000
1003
0000
,  // measure 32
0002
0000
0000
0203
0000
0000
1300
0000
0200
0000
0000
0302
0000
0000
1003
0000
,  // measure 33
0001
0000
0010
0000
0001
0000
1000
0010
0000
1000
0001
0000
0010
0000
0100
0000
,  // measure 34
1000
0000
0000
0000
0001
0100
0010
1000
0001
0100
0010
1000
0000
0001
0000
0020
,  // measure 35
0000
0000
0000
0000
0000
0000
0030
0000
0000
0001
0010
0100
2000
0000
0000
0000
0000
0000
3000
0000
0000
0010
0000
0000
,  // measure 36
0100
0000
0001
0100
0000
0010
1000
0000
0001
1000
0001
1000
0001
1000
0001
1000
,  // measure 37
0001
0000
0100
0010
0000
0100
0010
0000
1000
0000
0100
0000
0010
0000
0000
0000
,  // measure 38
0001
0000
1000
0100
0000
1000
0100
0000
0010
0000
0001
0000
0100
0000
0000
0000
,  // measure 39
0010
0000
1000
0001
0000
1000
0001
0000
0010
0000
0100
0000
1000
0000
0000
0000
,  // measure 40
0010
0000
0100
0001
0000
0100
0001
0000
1000
0000
0100
0000
0010
0000
0000
0000
,  // measure 41
0001
0000
1000
0010
0000
1000
0001
0010
0100
0000
1000
0000
0001
0000
0000
0000
,  // measure 42
0100
0000
0010
1000
0000
0001
1000
0100
0000
0010
0000
0000
0001
0000
0000
0000
,  // measure 43
0100
0000
0010
1000
0000
0010
1000
0100
0010
0000
0001
0000
0100
0000
0000
0000
,  // measure 44
0001
0000
1000
0100
0000
1000
0010
0100
0001
1000
0001
1000
0001
1000
0001
1000
,  // measure 45
0001
0010
1000
0010
0001
1000
0100
1000
,  // measure 46
0001
0010
0100
1000
0100
0010
0001
1000
,  // measure 47
0010
0000
0100
0001
0000
0001
1000
0100
0010
0000
0001
0100
0000
0100
0010
1000
,  // measure 48
0100
0000
0010
0001
0000
0001
1000
0100
0010
0000
0100
1000
0000
1000
0010
0100
,  // measure 49
0001
0010
1000
0010
0001
1000
0010
1000
,  // measure 50
0001
0010
0100
1000
0100
0010
0001
1000
,  // measure 51
0010
0000
0100
0001
0000
0001
1000
0100
0010
0000
0100
1000
0000
1000
0001
0100
,  // measure 52
0010
0000
1000
0001
0000
0001
0010
0100
1000
0001
1000
0001
0100
0000
0000
0000
,  // measure 53
0001
1000
0100
1000
0001
1000
0100
1000
0001
0000
0100
0000
0010
1000
0000
0002
,  // measure 54
0000
0000
1003
0000
0001
0010
0100
1000
0001
0000
0100
0000
1000
0000
0100
0000
,  // measure 55
0001
0100
0010
0100
0001
0100
0010
0100
0001
0000
1000
0000
0100
0000
1000
0000
,  // measure 56
0001
0010
0100
0010
0001
0010
0100
0010
0001
0000
1000
0000
0010
0000
1000
0000
,  // measure 57
0100
0010
0001
0010
0100
0010
0001
0010
0100
0000
1000
0000
0010
0100
0000
0002
,  // measure 58
0000
0000
1003
0000
0001
0100
0010
1000
0001
0000
0010
0000
1000
0000
0010
0000
,  // measure 59
0001
0100
0010
0100
0001
0100
0010
0100
0001
0000
1000
0000
0010
0000
1000
0000
,  // measure 60
0001
0010
0100
0010
0001
0010
0100
0010
0001
1000
0001
1000
0001
1000
0001
1000
,  // measure 61
0001
0000
0000
0000
0100
0001
0000
1000
0000
1000
0000
0000
0100
0000
0010
0000
,  // measure 62
0001
0000
0000
0100
0010
1000
0000
1000
0100
0010
0100
0010
0001
0000
0000
0000
;
