#TITLE:Homesick Pt.2&3;
#SUBTITLE:;
#ARTIST:ORANGENOISE SHORTCUT;
#TITLETRANSLIT:;
#SUBTITLETRANSLIT:;
#ARTISTTRANSLIT:;
#GENRE:;
#CREDIT:DigiMindAxel;
#BANNER:Homesick Pt.2&3.png;
#BACKGROUND:Homesick Pt.2&3-bg.png;
#LYRICSPATH:Homesick Pt.2&3.lrc;
#CDTITLE:pop'n music.png;
#MUSIC:Homesick Pt.2&3.ogg;
#OFFSET:-6.400000;
#SAMPLESTART:45.467987;
#SAMPLELENGTH:12.000000;
#SELECTABLE:YES;
#DISPLAYBPM:178.000000;
#BPMS:0.000000=178.000000
;
#STOPS:
;
#BGCHANGES:;
#KEYSOUNDS:;
#ATTACKS:;

//---------------dance-single - ----------------
#NOTES:
     dance-single:
     :
     Easy:
     7:
     0.285169,0.482522,0.213638,0.146876,0.000000,299.000000,267.000000,32.000000,22.000000,0.000000,0.000000,0.285169,0.482522,0.213638,0.146876,0.000000,299.000000,267.000000,32.000000,22.000000,0.000000,0.000000:
// measure 0
0000
0000
0000
0000
,  // measure 1
0002
0000
0000
0000
,  // measure 2
0000
0000
0000
0000
,  // measure 3
1003
0000
0010
0000
1000
0000
0000
0002
,  // measure 4
0000
0000
0000
0000
,  // measure 5
1003
1000
1000
0000
,  // measure 6
0001
0001
0001
0000
,  // measure 7
1000
1000
1000
0000
,  // measure 8
0010
0100
0010
0000
,  // measure 9
1000
0000
0100
0000
1000
0000
0000
2002
,  // measure 10
0000
0000
0000
3003
0000
0000
0000
0000
,  // measure 11
0001
0000
0010
0000
0001
0000
0000
1000
,  // measure 12
0000
0000
0000
0000
0000
0001
0000
1001
,  // measure 13
0000
0001
0000
1000
,  // measure 14
0000
0001
0000
1000
,  // measure 15
0000
0010
0000
1000
,  // measure 16
0000
0001
0000
1000
,  // measure 17
0000
0001
0000
0010
,  // measure 18
0000
0001
0000
0010
,  // measure 19
0100
1000
0100
0000
,  // measure 20
1000
0001
1000
0000
,  // measure 21
0001
0010
0001
1000
,  // measure 22
0100
0010
0000
0000
,  // measure 23
0001
1000
0001
1000
,  // measure 24
0010
0100
0001
0000
,  // measure 25
1000
0010
1000
0010
,  // measure 26
0100
0001
1000
0100
,  // measure 27
1000
0000
0000
0000
0001
0000
0000
2002
,  // measure 28
0000
0000
0000
3003
,  // measure 29
1001
0000
0000
0000
,  // measure 30
0000
0000
1000
0010
,  // measure 31
1000
0000
0001
1000
,  // measure 32
0001
0000
1000
0000
,  // measure 33
0010
0000
1000
0000
0010
0000
0000
2002
,  // measure 34
0000
0000
0000
3003
0000
0000
0000
0000
,  // measure 35
1000
0100
0010
0100
,  // measure 36
1000
0001
1000
0000
,  // measure 37
1001
1001
1001
0000
,  // measure 38
0110
0110
0110
0000
,  // measure 39
1001
1001
1001
0000
,  // measure 40
0110
0110
0110
0000
,  // measure 41
1001
0000
0000
0000
0000
0000
0000
0001
,  // measure 42
0000
0100
0000
0001
0000
0000
0000
0000
,  // measure 43
1000
0000
0001
0000
1000
0000
0000
0010
,  // measure 44
0000
0000
0000
0000
0000
1000
0000
1001
,  // measure 45
0000
0010
0000
0001
,  // measure 46
0000
0010
0000
0001
,  // measure 47
0000
1000
0000
0010
,  // measure 48
0000
1000
0000
0010
,  // measure 49
0100
0010
0000
1000
,  // measure 50
0000
0001
0000
1000
,  // measure 51
0000
0100
0000
1000
,  // measure 52
0000
0100
0000
1000
,  // measure 53
0010
0010
1000
1000
,  // measure 54
0001
0001
0010
0000
,  // measure 55
0001
1000
0001
1000
,  // measure 56
0001
0010
0100
0000
,  // measure 57
1000
0001
1000
0100
,  // measure 58
0010
0000
0001
0000
0000
1000
0000
2002
,  // measure 59
0000
0000
0000
3003
,  // measure 60
0000
0001
0000
0001
,  // measure 61
0000
0100
0000
0001
,  // measure 62
0001
1000
0010
0010
,  // measure 63
0100
0001
0000
1000
,  // measure 64
0000
0100
0000
1000
,  // measure 65
0001
1000
0100
0010
,  // measure 66
0001
1000
0002
0000
,  // measure 67
1003
0000
0000
0000
,  // measure 68
1000
0010
1000
0010
,  // measure 69
0200
0000
0000
0300
,  // measure 70
0001
0010
0001
0010
,  // measure 71
0100
0000
0000
0000
1000
0000
0000
2002
,  // measure 72
0000
0000
0000
3003
,  // measure 73
1001
0001
0001
0001
,  // measure 74
1000
1000
1000
0000
,  // measure 75
0110
0010
0100
0110
,  // measure 76
0000
0000
0000
0000
,  // measure 77
0001
0100
0001
1000
,  // measure 78
0010
1000
0001
1000
,  // measure 79
1000
1000
0001
0100
,  // measure 80
0010
1000
0100
1000
,  // measure 81
0001
0000
0010
0000
0100
0000
0000
2002
,  // measure 82
0000
0000
0000
3003
0000
0000
0000
0000
,  // measure 83
0001
0010
0100
0010
,  // measure 84
0001
0000
0000
0000
,  // measure 85
1000
0001
1000
0100
,  // measure 86
0010
0001
1000
0000
,  // measure 87
0001
0100
0010
0100
,  // measure 88
0001
0010
0100
0000
,  // measure 89
1000
0000
0001
0000
0100
0000
0000
2002
,  // measure 90
0000
0000
0000
3003
0000
0000
0000
0000
,  // measure 91
1000
0100
1000
0001
,  // measure 92
0010
0100
1000
0000
,  // measure 93
1001
0001
0001
0000
,  // measure 94
1001
1000
1000
0000
,  // measure 95
0110
0100
0100
0000
,  // measure 96
0110
0010
0010
0000
,  // measure 97
1000
0000
0100
0000
1000
0000
0000
2002
,  // measure 98
0000
0000
0000
3003
0000
0000
0000
0000
,  // measure 99
0001
0100
0010
0100
,  // measure 100
0001
0000
0010
0000
0100
0000
0000
2002
,  // measure 101
0000
0000
0000
0000
,  // measure 102
0000
0000
0000
0000
,  // measure 103
0000
3003
0000
0000
;

//---------------dance-single - ----------------
#NOTES:
     dance-single:
     :
     Hard:
     13:
     0.554124,0.620385,0.587505,0.146876,0.000000,581.000000,493.000000,88.000000,22.000000,0.000000,0.000000,0.554124,0.620385,0.587505,0.146876,0.000000,581.000000,493.000000,88.000000,22.000000,0.000000,0.000000:
// measure 0
0000
0000
0000
0000
,  // measure 1
0001
0000
0010
0000
0100
0010
0000
0101
,  // measure 2
0000
0101
0000
1001
0000
0000
0000
0000
,  // measure 3
0001
0010
0001
1000
0100
1000
0000
2002
,  // measure 4
0000
0000
0000
3003
,  // measure 5
0101
0000
0101
0000
1001
0000
1000
0001
,  // measure 6
0000
0011
0011
1001
,  // measure 7
1010
0000
1010
0000
1001
0000
0001
1000
,  // measure 8
0000
1010
0000
1010
0000
1000
0001
0020
,  // measure 9
0000
0000
0031
0000
0010
0100
0000
1100
,  // measure 10
0000
1100
0000
1001
0000
0001
0010
0100
,  // measure 11
1000
0001
0100
0001
1000
0001
0000
0001
,  // measure 12
0000
0010
0100
1000
0000
1100
0000
1001
,  // measure 13
0000
0001
0100
0001
,  // measure 14
1000
0100
0010
0001
,  // measure 15
1000
0001
0100
0001
1000
0000
0100
0000
,  // measure 16
0010
0100
1000
0001
,  // measure 17
1000
0100
1000
0100
,  // measure 18
0001
0100
1000
0001
,  // measure 19
1000
0010
0100
0010
1000
0000
0001
0000
,  // measure 20
0010
0100
1000
0100
0010
0000
0001
0000
,  // measure 21
1000
0010
1000
0000
0001
1000
0001
0000
,  // measure 22
0010
0100
1000
0001
0000
1000
0000
0000
,  // measure 23
1001
0000
0001
0100
0001
0000
1000
0001
,  // measure 24
0000
0001
0000
0100
0010
0000
1000
0000
,  // measure 25
0001
0010
0001
1000
0001
0010
0001
1000
,  // measure 26
0001
0010
0001
1000
0010
0100
0001
0000
,  // measure 27
1001
1001
0110
0110
,  // measure 28
1001
1100
0110
0011
,  // measure 29
1001
0000
1000
0001
0010
1000
0010
0001
,  // measure 30
0000
1000
0000
0001
0000
1000
0100
0000
,  // measure 31
1001
0000
1000
0000
0001
0100
0010
0100
,  // measure 32
0000
0001
0000
0001
0000
0000
0000
0000
,  // measure 33
1000
0001
1000
0000
0001
0100
0000
1010
,  // measure 34
0000
1010
0000
1001
0000
0000
0000
0000
,  // measure 35
0001
0100
0001
1000
0100
0010
0000
0001
,  // measure 36
0000
0100
0010
0100
0000
0000
0000
0000
,  // measure 37
1001
0000
0011
0000
0011
0000
0001
1000
,  // measure 38
0000
1010
1010
1001
,  // measure 39
1001
0000
0011
0000
0011
0000
0001
1000
,  // measure 40
0000
1010
0000
1001
0000
0001
1000
0020
,  // measure 41
0000
0000
1030
0000
0001
0010
0000
1100
,  // measure 42
0000
1100
0000
1001
0000
0000
0000
0000
,  // measure 43
1000
0001
0010
0001
1000
0010
1000
0001
,  // measure 44
0000
0011
0000
0011
0000
1001
0000
1001
,  // measure 45
0000
0001
0100
0001
,  // measure 46
1000
0100
0001
0100
,  // measure 47
1000
0001
0100
0001
1000
0001
0000
0001
,  // measure 48
0000
0100
0020
0000
0000
0000
0030
0000
,  // measure 49
1000
0100
1000
0001
,  // measure 50
1000
0010
0001
0010
,  // measure 51
1000
0100
1000
0002
0000
0013
0100
2000
,  // measure 52
0000
3010
0100
0002
0000
0003
0000
0000
,  // measure 53
1000
0001
1000
0001
0100
0010
0100
0001
,  // measure 54
1000
0100
0010
0001
0000
1000
0000
0020
,  // measure 55
0000
0000
1030
0010
1000
0010
0100
0002
,  // measure 56
0000
2000
0000
0000
0000
3003
0000
0000
,  // measure 57
0001
0100
0001
1000
0001
0100
0001
1000
,  // measure 58
0100
0010
0001
0010
0100
1000
0000
1002
,  // measure 59
0000
0100
0100
0100
,  // measure 60
1000
1000
0100
1003
,  // measure 61
0001
0000
0010
0100
0000
1000
0000
0001
,  // measure 62
0100
0000
0001
0010
0100
1000
0000
1002
,  // measure 63
0000
1000
1000
1000
,  // measure 64
0100
0100
1000
0103
,  // measure 65
0001
1000
1010
0010
,  // measure 66
0101
0100
1001
1001
,  // measure 67
2100
0000
0000
3001
0010
0100
0010
0001
,  // measure 68
0000
1000
0001
0200
0000
0301
0010
0100
,  // measure 69
1000
0000
1001
0000
0001
0100
0010
1000
,  // measure 70
0000
0001
0010
0200
0000
0310
0001
1000
,  // measure 71
0010
0000
1001
0000
1000
0001
0100
0101
,  // measure 72
0000
0010
0100
1010
,  // measure 73
1001
0000
0001
1000
0001
1000
0010
1000
,  // measure 74
0010
1000
0001
0010
0001
0010
0100
0000
,  // measure 75
1100
0000
1100
0000
1000
0010
0100
0002
,  // measure 76
0000
0000
0000
0000
,  // measure 77
1003
0000
0001
0010
0001
1000
0001
0010
,  // measure 78
0001
1000
0001
0010
0000
0100
1000
0000
,  // measure 79
0001
0100
0001
1000
0001
0100
0001
1000
,  // measure 80
0001
0100
0001
1000
0000
0100
0010
0001
,  // measure 81
2000
0000
3010
0000
0100
0001
0000
1001
,  // measure 82
0000
1001
0000
1100
0000
0000
0000
0000
,  // measure 83
1000
0010
0001
0010
1000
0100
0000
0011
,  // measure 84
0000
1000
0000
0000
1000
0000
1000
0001
,  // measure 85
0100
0010
0100
0001
0100
0010
0100
0001
,  // measure 86
0100
0010
0100
0001
0000
1000
0010
0000
,  // measure 87
1000
0100
1000
0001
1000
0100
1000
0001
,  // measure 88
1000
0100
1000
0001
0000
0010
0100
2000
,  // measure 89
0000
0000
3001
0000
0100
0010
0000
1010
,  // measure 90
0000
1010
0000
1001
0000
0000
0000
0000
,  // measure 91
0001
0010
1000
0010
0001
0100
0000
0010
,  // measure 92
0000
0010
0100
0001
0000
0000
0000
0000
,  // measure 93
1001
0000
1001
0000
1100
0000
0010
0001
,  // measure 94
0000
0001
1000
0100
0001
0100
1000
0000
,  // measure 95
1100
0000
1100
0000
1001
0000
0001
0100
,  // measure 96
0000
0101
0000
1001
0000
1000
0001
0020
,  // measure 97
0000
0000
0031
0000
1000
0100
0000
1100
,  // measure 98
0000
1100
0000
1001
0000
0000
0000
0000
,  // measure 99
0001
1000
0100
1000
0001
0100
0001
1000
,  // measure 100
0000
1001
0000
1001
0000
0101
0000
2020
,  // measure 101
0000
0000
0000
0000
,  // measure 102
0000
0000
0000
0000
,  // measure 103
0000
3030
0000
0000
;

//---------------dance-single - ----------------
#NOTES:
     dance-single:
     :
     Challenge:
     14:
     0.660943,0.689317,0.474010,0.240343,0.076776,693.000000,622.000000,71.000000,36.000000,0.000000,0.000000,0.660943,0.689317,0.474010,0.240343,0.076776,693.000000,622.000000,71.000000,36.000000,0.000000,0.000000:
// measure 0
0000
0000
0000
0000
,  // measure 1
0200
0000
0000
0000
0000
0000
0000
1000
,  // measure 2
0000
1000
0000
1000
0000
0000
0000
0000
,  // measure 3
0310
0001
1000
0001
0010
0100
0000
1001
,  // measure 4
0000
0000
0001
0000
0001
0000
0100
0010
0100
0000
0001
0000
0100
0010
0100
0000
,  // measure 5
0001
1000
0100
1000
0001
1000
0100
1100
,  // measure 6
0000
0010
0001
0100
0010
0100
0001
0000
,  // measure 7
1000
0100
0010
0100
1000
0010
0100
0101
,  // measure 8
0000
0000
0101
0000
0000
0000
1001
0000
0000
0000
0001
1000
0001
1000
0001
1000
,  // measure 9
0001
0000
0010
0000
0100
1000
0000
1010
,  // measure 10
0000
1010
0000
1001
0000
0001
0010
0100
,  // measure 11
1000
0001
0100
0001
1000
0100
0000
1100
,  // measure 12
0000
0010
0001
0100
0000
0110
0000
1001
,  // measure 13
0000
0000
1000
0100
1000
0000
0001
1000
,  // measure 14
0001
0010
1000
0010
,  // measure 15
0001
1000
0100
1000
0100
0010
0001
0100
,  // measure 16
0000
0020
0000
1000
1030
0000
0001
0000
,  // measure 17
0011
0000
0100
1000
0001
0100
0000
0001
,  // measure 18
0000
0010
0000
1000
0000
0010
0000
0001
,  // measure 19
1000
0100
1000
0001
0000
0001
1000
0100
,  // measure 20
0010
0000
0100
0000
1000
0000
0010
0000
0000
0000
0100
0000
0010
0000
1000
0001
,  // measure 21
1000
0100
1000
0100
0010
0001
0010
0001
,  // measure 22
1000
0010
1000
0001
0000
0001
0000
0100
,  // measure 23
0020
0000
1030
0100
1000
0001
0000
0101
,  // measure 24
0000
0020
0000
1000
1030
0000
0001
0000
,  // measure 25
0010
0100
1000
0100
0010
0100
1000
0010
,  // measure 26
0100
0001
0010
1000
0010
0001
0010
0100
,  // measure 27
1000
0000
0001
0100
0010
0100
0001
2000
,  // measure 28
0000
0000
0000
0000
3001
0000
0000
0000
1000
0000
0010
0100
0010
0000
1000
0001
,  // measure 29
2000
0000
3001
0010
1000
0010
0001
0100
,  // measure 30
0000
0110
0000
1000
0100
0010
0001
1000
,  // measure 31
0100
0000
1100
0000
0010
0001
0100
0010
,  // measure 32
0000
1010
0000
1001
0000
0001
0100
2000
,  // measure 33
0000
0000
3100
0000
0001
0100
0000
1010
,  // measure 34
0000
1010
0000
1001
0000
1000
0010
1000
,  // measure 35
0001
0010
0100
0010
0001
0100
0000
1001
,  // measure 36
0000
0000
1000
0000
0010
0000
0100
0000
0001
0000
1000
0100
1000
0000
0001
1000
,  // measure 37
0001
0010
0100
1000
0001
0100
0001
1100
,  // measure 38
0000
1000
0001
0010
0001
1000
0001
0000
,  // measure 39
1000
0100
0010
0001
1000
0010
1000
0011
,  // measure 40
0000
0000
0011
0000
0000
0000
1001
0000
0000
0000
1000
0100
1000
0000
0001
1000
,  // measure 41
0001
0000
0100
0000
1000
0100
0000
0101
,  // measure 42
0000
0101
0000
1001
0000
1000
0010
1000
,  // measure 43
0001
0010
1000
0010
0001
1000
0100
1100
,  // measure 44
0000
0101
0000
0101
0000
1001
0000
1001
,  // measure 45
0000
0000
1000
0010
1000
0000
0001
1000
,  // measure 46
0001
0000
1000
0010
1000
0000
0100
0000
,  // measure 47
0010
0001
0010
0001
0100
0010
0100
0001
,  // measure 48
0000
2000
0000
0100
3100
0000
0000
0000
,  // measure 49
0010
0001
0010
0000
0100
0010
0100
0000
,  // measure 50
0010
0001
0010
0000
0100
0010
0100
0000
,  // measure 51
1000
0010
1000
0002
0000
0013
0100
2000
,  // measure 52
0000
0000
3010
0000
0100
0000
0002
0000
0000
0000
0003
0000
1000
0000
0001
0010
,  // measure 53
0001
1000
0010
1000
0010
0100
0001
0100
,  // measure 54
0001
0010
0100
1000
0000
0010
0000
0102
,  // measure 55
0000
0013
0100
1000
0100
0010
0000
0101
,  // measure 56
0000
1002
0000
1000
1003
0000
0000
0000
,  // measure 57
0001
0010
0001
1000
0010
1000
0001
0010
,  // measure 58
1000
0010
0001
0010
0100
1100
0000
1001
,  // measure 59
0000
2000
3020
2030
,  // measure 60
3002
0023
2030
3020
,  // measure 61
0032
0000
0103
0020
0000
1000
0000
1030
,  // measure 62
0001
0010
0100
0010
0001
0200
0000
0302
,  // measure 63
0000
2003
3020
0230
,  // measure 64
0302
0023
2030
3020
,  // measure 65
0031
1001
1100
0010
,  // measure 66
0011
0000
0000
0000
0100
0000
0000
0000
1100
0000
0001
1000
0001
0000
0100
0001
,  // measure 67
0100
0000
0001
1000
0001
1000
0010
0100
,  // measure 68
0000
0001
1000
0020
0000
1030
0010
1000
,  // measure 69
0001
0000
1001
0000
1000
0010
1000
0001
,  // measure 70
0000
0010
0100
2000
0000
3001
0100
0010
,  // measure 71
0100
0000
1001
0000
0001
0010
0001
1100
,  // measure 72
0000
0000
0101
0000
0000
0000
1001
0000
0000
0000
0010
0001
0010
0000
0001
1000
,  // measure 73
0001
0000
1000
0010
1000
0010
0100
0001
,  // measure 74
0100
0001
1000
0100
0010
0001
1000
0000
,  // measure 75
1100
0000
1100
0000
1001
0010
0100
1000
,  // measure 76
0000
0000
0000
0000
0000
0000
0000
0000
0001
0000
0100
0001
0100
0000
0001
1000
,  // measure 77
0001
1000
1000
0010
0100
0010
1000
0100
,  // measure 78
0001
0100
1000
0001
0000
0001
1000
0100
,  // measure 79
0010
0100
1000
0001
0100
1000
0100
0001
,  // measure 80
1000
0010
1000
0001
0000
1000
0100
0010
,  // measure 81
1001
0000
0001
0100
0001
1000
0000
1010
,  // measure 82
0000
1010
0000
1001
0000
0001
0010
0001
,  // measure 83
1000
0010
0001
0010
1000
0100
0000
0011
,  // measure 84
0000
0001
0001
1000
1000
0010
0100
0000
,  // measure 85
0001
0001
0001
1000
0100
0010
0100
1000
,  // measure 86
0010
0100
0010
1000
0000
1000
0001
0010
,  // measure 87
0001
1000
0001
0100
1000
0100
0001
0010
,  // measure 88
0000
0011
0000
1001
0000
0010
0100
1000
,  // measure 89
0001
0100
0001
1000
0010
0100
0000
1010
,  // measure 90
0000
1010
0000
1001
0000
1000
0100
1000
,  // measure 91
0001
0100
1000
0100
0001
0010
0000
0011
,  // measure 92
0000
0000
0100
0000
1000
0000
0001
0000
0100
0000
0001
0100
0001
0000
1000
0001
,  // measure 93
1000
0001
1000
1000
0010
0100
0001
0011
,  // measure 94
0000
0100
1000
0010
0001
0010
1000
0001
,  // measure 95
0100
0100
0010
0010
1000
0100
0010
0011
,  // measure 96
0000
1001
0000
1001
0000
1000
0010
0200
,  // measure 97
0000
0301
0010
0100
0010
0001
0000
0101
,  // measure 98
0000
1001
0000
1001
0000
0010
0001
1000
,  // measure 99
0100
0001
0100
1000
0100
0010
0000
1100
,  // measure 100
0001
0100
0001
0000
1000
0001
1000
0000
0000
0000
1001
0000
0000
0000
2002
0000
,  // measure 101
0000
0000
0000
0000
,  // measure 102
0000
0000
0000
0000
,  // measure 103
0000
3003
0000
0000
;

//---------------dance-single - ----------------
#NOTES:
     dance-single:
     :
     Medium:
     11:
     0.473056,0.620385,0.634238,0.080114,0.000000,496.000000,401.000000,95.000000,12.000000,0.000000,0.000000,0.473056,0.620385,0.634238,0.080114,0.000000,496.000000,401.000000,95.000000,12.000000,0.000000,0.000000:
// measure 0
0000
0000
0000
0000
,  // measure 1
1000
0000
0100
0000
0010
0000
0001
1000
,  // measure 2
0000
1000
0000
0100
0000
0000
0000
0000
,  // measure 3
0010
0001
0010
0001
0100
0010
0000
2002
,  // measure 4
0000
0000
0000
3003
,  // measure 5
1000
1001
0101
1001
,  // measure 6
0000
1001
1100
1001
,  // measure 7
1001
0000
0101
0000
1001
0000
1000
0001
,  // measure 8
0000
0010
0000
0100
0000
0000
0000
0000
,  // measure 9
1001
0000
0100
0000
0010
1000
0000
0001
,  // measure 10
0000
0001
0000
0011
0000
0000
0000
0000
,  // measure 11
0001
0000
0100
0000
0001
0000
1000
0100
,  // measure 12
0000
0010
0001
0010
0000
1001
0000
1001
,  // measure 13
0000
1000
0010
1000
,  // measure 14
0001
1000
0001
1000
,  // measure 15
0001
0010
0100
1000
,  // measure 16
0001
0010
1000
0010
,  // measure 17
0001
1000
0001
1000
,  // measure 18
0001
0010
0100
0010
,  // measure 19
0001
1000
0100
1000
,  // measure 20
0001
0010
1000
0010
,  // measure 21
0001
0101
1010
0100
,  // measure 22
1000
1100
0011
0100
,  // measure 23
1000
0001
1000
0000
0001
0100
0001
1000
,  // measure 24
0000
0100
0000
0100
1000
0000
0000
0000
,  // measure 25
0001
0010
0100
0010
,  // measure 26
0001
0000
0100
0000
0010
0000
1000
0001
,  // measure 27
0010
0011
0011
1100
,  // measure 28
1100
1001
0110
1001
,  // measure 29
0110
0000
0000
0010
0100
0001
0000
1000
,  // measure 30
0000
0100
0000
0010
0000
0001
1000
0000
,  // measure 31
0001
0000
0101
0000
0010
0100
0001
0010
,  // measure 32
0000
0001
0000
1001
0000
0000
0000
0000
,  // measure 33
1000
0000
0100
0000
0010
0100
0000
1100
,  // measure 34
0000
1100
0000
1001
0000
0000
0000
0000
,  // measure 35
0011
0000
0100
0000
1000
0001
0000
1000
,  // measure 36
0000
1000
0001
0010
0000
0000
0000
0000
,  // measure 37
1001
0011
1001
0110
,  // measure 38
1001
1010
1001
1010
,  // measure 39
1001
0000
0110
0000
1001
0000
0010
0100
,  // measure 40
0000
0001
0000
1001
0000
0000
0000
0000
,  // measure 41
1001
0000
0100
0000
0010
0100
0000
1000
,  // measure 42
0000
1000
0000
1001
0000
0000
0000
0000
,  // measure 43
0100
1000
0100
1000
0001
0100
0000
0001
,  // measure 44
0000
0001
0000
1001
0000
0110
0000
0110
,  // measure 45
0000
1000
0100
0010
,  // measure 46
0100
1000
0001
1000
,  // measure 47
0100
0000
0001
0000
0100
0000
1000
0001
,  // measure 48
0000
0001
0000
0100
0010
0000
1000
0000
,  // measure 49
1001
0010
0100
1000
,  // measure 50
0001
0100
1000
0100
,  // measure 51
0001
1100
0010
0101
,  // measure 52
0010
1001
0100
0010
,  // measure 53
0001
1000
0100
0000
0010
0100
0010
0000
,  // measure 54
0101
0110
1010
0000
,  // measure 55
1000
0100
0010
0000
0001
0000
1000
0010
,  // measure 56
0000
0010
0000
1000
0001
0000
0000
0000
,  // measure 57
1000
0010
1000
0000
0001
0010
0001
0000
,  // measure 58
0100
0010
1000
0000
0000
0001
0000
1001
,  // measure 59
0000
0001
0001
0001
,  // measure 60
0001
0100
0010
0010
,  // measure 61
1000
0001
1000
0000
0001
0000
0010
0000
,  // measure 62
1100
0000
1000
0000
0100
0010
0000
0002
,  // measure 63
0000
1003
1000
1000
,  // measure 64
0100
0010
0001
1000
,  // measure 65
0000
1001
0001
0010
,  // measure 66
0100
0000
0010
0000
0001
1000
0010
0000
,  // measure 67
2002
0000
0000
3003
,  // measure 68
0001
0000
1000
0100
0000
0010
0100
0000
,  // measure 69
2002
0000
0000
3003
,  // measure 70
1000
0000
0001
0100
0000
0010
0100
0000
,  // measure 71
2002
0000
0000
0000
0000
3003
0000
1001
,  // measure 72
0000
0010
0000
0100
0000
0000
1100
0000
,  // measure 73
1001
0010
0100
0010
,  // measure 74
0001
1000
0001
1000
,  // measure 75
1010
0000
1001
0000
0001
0100
0010
2000
,  // measure 76
0000
0000
0000
0000
,  // measure 77
3001
0000
1000
0100
0010
0000
0100
1000
,  // measure 78
0100
0000
0010
0001
0000
0001
0000
0000
,  // measure 79
1010
0000
1001
0000
0001
0010
0100
0000
,  // measure 80
0010
0001
0000
0100
0000
0000
0000
0000
,  // measure 81
1001
0000
0010
0000
0100
1000
0000
1000
,  // measure 82
0000
1001
0000
1001
0000
0000
0000
0000
,  // measure 83
0001
0100
0001
0000
1000
0100
0000
1100
,  // measure 84
0000
0001
0000
0000
0001
0000
0010
0000
,  // measure 85
0100
0000
1000
0001
0010
0000
0001
0010
,  // measure 86
0001
0000
0100
0010
0000
1000
0100
0000
,  // measure 87
1000
0000
0001
0010
0100
0000
0010
0001
,  // measure 88
0010
0100
0000
1000
0000
0000
0000
0000
,  // measure 89
1001
0000
0010
0000
0100
1000
0000
1000
,  // measure 90
0000
1000
0000
1001
0000
0000
0000
0000
,  // measure 91
1010
0000
1001
0000
0001
0100
0000
0001
,  // measure 92
0000
0010
0100
1000
0000
0000
0000
0000
,  // measure 93
1001
0101
1001
1010
,  // measure 94
1001
0011
1001
1100
,  // measure 95
1001
0000
1001
0000
0110
0000
0100
0010
,  // measure 96
0000
1000
0000
1001
0000
0000
0000
0000
,  // measure 97
0011
0000
0100
0000
1000
0010
0000
0100
,  // measure 98
0000
0100
0000
0110
0000
0000
0000
0000
,  // measure 99
0001
1000
0100
0000
0010
0100
0000
1000
,  // measure 100
0000
1100
0000
1100
0000
1010
0000
2002
,  // measure 101
0000
0000
0000
0000
,  // measure 102
0000
0000
0000
0000
,  // measure 103
0000
3003
0000
0000
;

//---------------dance-single - ----------------
#NOTES:
     dance-single:
     :
     Beginner:
     3:
     0.123033,0.202038,0.026705,0.000000,0.000000,129.000000,125.000000,4.000000,0.000000,0.000000,0.000000,0.123033,0.202038,0.026705,0.000000,0.000000,129.000000,125.000000,4.000000,0.000000,0.000000,0.000000:
// measure 0
0000
0000
0000
0000
,  // measure 1
0000
0000
0000
0000
,  // measure 2
0000
0000
0000
0000
,  // measure 3
0000
0000
0000
0000
,  // measure 4
0000
0000
0000
0000
,  // measure 5
0001
0000
0001
0000
,  // measure 6
0001
0000
0000
0000
,  // measure 7
1000
0000
1000
0000
,  // measure 8
1000
0000
0000
0000
,  // measure 9
0010
0000
0000
0000
,  // measure 10
0000
0000
0000
0000
,  // measure 11
0100
0000
0100
0000
,  // measure 12
0100
0000
0000
0000
,  // measure 13
0000
0000
0000
0000
,  // measure 14
0000
0000
0000
0000
,  // measure 15
0001
0000
0000
0000
,  // measure 16
0000
0000
0000
0000
,  // measure 17
0010
0000
0000
0000
,  // measure 18
0000
0000
0000
0000
,  // measure 19
0100
0000
0000
0000
,  // measure 20
0000
0000
0000
0000
,  // measure 21
1000
0000
0001
0000
,  // measure 22
1000
0000
0000
0000
,  // measure 23
0001
0000
1000
0000
,  // measure 24
0001
0000
0000
0000
,  // measure 25
0010
0000
0001
0000
,  // measure 26
0010
0000
0000
0000
,  // measure 27
0001
0000
0001
0000
,  // measure 28
0001
0000
0000
0000
,  // measure 29
1001
0000
0000
0000
,  // measure 30
0000
0000
0000
0000
,  // measure 31
1000
0000
0100
0000
,  // measure 32
0010
0000
0000
0000
,  // measure 33
0001
0000
0100
0000
,  // measure 34
0001
0000
0000
0000
,  // measure 35
0100
0000
0100
0000
,  // measure 36
0100
0000
0000
0000
,  // measure 37
0001
0000
0001
0000
,  // measure 38
0001
0000
0001
0000
,  // measure 39
1000
0000
1000
0000
,  // measure 40
1000
0000
1000
0000
,  // measure 41
0100
0000
0010
0000
,  // measure 42
0001
0000
0000
0000
,  // measure 43
1000
0000
0010
0000
,  // measure 44
1000
0000
0000
0000
,  // measure 45
1001
0000
0000
0000
,  // measure 46
0000
0000
0000
0000
,  // measure 47
0001
0000
0000
0000
,  // measure 48
0100
0000
0000
0000
,  // measure 49
0001
0000
0000
0000
,  // measure 50
0100
0000
0000
0000
,  // measure 51
0010
0000
0000
0000
,  // measure 52
1000
0000
0000
0000
,  // measure 53
0001
0000
0001
0000
,  // measure 54
0001
0000
0000
0000
,  // measure 55
1000
0000
1000
0000
,  // measure 56
1000
0000
0000
0000
,  // measure 57
0100
0000
1000
0000
,  // measure 58
0100
0000
0010
0000
,  // measure 59
0000
0000
0000
0000
,  // measure 60
0000
0000
0000
0000
,  // measure 61
0001
0000
0000
0000
,  // measure 62
0100
0000
0100
0000
,  // measure 63
0001
0000
0000
0000
,  // measure 64
0000
0000
0000
0000
,  // measure 65
1000
0000
0100
0000
,  // measure 66
0010
0000
0001
0000
,  // measure 67
1000
0000
0000
0000
,  // measure 68
0000
0000
0000
0000
,  // measure 69
0001
0000
0000
0000
,  // measure 70
0000
0000
0000
0000
,  // measure 71
0010
0000
0000
0000
,  // measure 72
0001
0000
0000
0000
,  // measure 73
1000
0000
1000
0000
,  // measure 74
0001
0000
0001
0000
,  // measure 75
0100
0000
0010
0000
,  // measure 76
0000
0000
0000
0000
,  // measure 77
1001
0000
0001
0000
,  // measure 78
0001
0000
0010
0000
,  // measure 79
0001
0000
0001
0000
,  // measure 80
0001
0000
0000
0000
,  // measure 81
1000
0000
0100
0000
,  // measure 82
1000
0000
0000
0000
,  // measure 83
0010
0000
0100
0000
,  // measure 84
0010
0000
0000
0000
,  // measure 85
1000
0000
1000
0000
,  // measure 86
1000
0000
0000
0000
,  // measure 87
0001
0000
0001
0000
,  // measure 88
0001
0000
0000
0000
,  // measure 89
0100
0000
0010
0000
,  // measure 90
1000
0000
0000
0000
,  // measure 91
0010
0000
0010
0000
,  // measure 92
0010
0000
0100
0000
,  // measure 93
0001
0000
0001
0000
,  // measure 94
0001
0000
0000
0000
,  // measure 95
1000
0000
1000
0000
,  // measure 96
1000
0000
0000
0000
,  // measure 97
0100
0000
0010
0000
,  // measure 98
0001
0000
0100
0000
,  // measure 99
0001
0000
0001
0000
,  // measure 100
1000
0000
0000
0000
0000
0100
0000
1001
;
