#TITLE:Herring roe;
#SUBTITLE:;
#ARTIST:Jimmy Weckl;
#TITLETRANSLIT:;
#SUBTITLETRANSLIT:;
#ARTISTTRANSLIT:;
#CREDIT:DigiMindAxel;
#BANNER:Herring roe.png;
#BACKGROUND:Herring roe-bg.png;
#LYRICSPATH:;
#CDTITLE:GUITARFREAKS & drummania.png;
#MUSIC:Herring roe.ogg;
#METERTYPE:DDR X;
#OFFSET:-0.583;
#SAMPLESTART:11.220;
#SAMPLELENGTH:12.000;
#SELECTABLE:YES;
#BPMS:0.000=135.000;
#STOPS:;
#BGCHANGES:-5.000=Herring roe.avi=1.000=1=1=0,
99999=-nosongbg-=1.000=0=0=0 // don't automatically add -songbackground-
;

//---------------dance-single - ----------------
#NOTES:
     dance-single:
     :
     Easy:
     6:
     0.235,0.240,0.163,0.141,0.365: // measure 1
0000
0000
0000
0000
,  // measure 2
0000
0000
0000
0000
,  // measure 3
1000
0000
0000
0000
0000
0000
0000
0100
0000
0000
0000
0000
0000
0000
0000
0000
,  // measure 4
0000
0000
1000
0000
0000
0000
0000
0001
0000
0000
0000
0000
0000
0000
0000
0000
,  // measure 5
0000
0000
0100
0000
0000
0000
0000
0010
0000
0000
0000
0000
0000
0000
0000
0000
,  // measure 6
0000
0200
0000
0000
0000
0000
0000
0000
0000
0000
0000
0000
0300
0000
0000
0000
,  // measure 7
0002
0000
0000
0000
0000
0000
0000
1003
0000
0000
0000
0000
0000
0000
0000
0200
,  // measure 8
0000
0000
0000
0300
,  // measure 9
0000
2000
0000
0000
0000
0000
0000
3010
0000
0000
0000
0000
0000
0000
0000
0110
,  // measure 10
0000
0000
0000
0000
0000
0000
0000
1001
0000
0000
0000
0000
0000
0000
0000
0000
,  // measure 11
0000
2002
0000
0000
0000
0000
0000
0000
0000
0000
0000
0000
0000
0000
3003
0000
,  // measure 12
0000
2002
0000
0000
0000
0000
0000
0000
0000
0000
0000
0000
0000
0000
3003
0000
,  // measure 13
2000
0000
0000
0000
0000
0000
0000
0000
0000
3020
0000
0000
0000
0000
0000
0000
,  // measure 14
0230
0000
0000
0000
0000
0000
0000
0000
0000
0000
0000
0000
0000
0301
0000
0000
,  // measure 15
1000
0000
0000
0000
0000
0000
0000
0100
0000
0000
0000
0000
0000
0000
0010
0000
,  // measure 16
0000
0000
0000
0001
0000
0000
0000
0000
0000
0010
0000
0000
0000
0100
0000
0000
,  // measure 17
0000
2000
0000
0000
0000
0000
0000
3010
0000
0000
0000
0010
0000
0000
0000
0010
,  // measure 18
0000
0000
0000
0000
0000
0000
0000
0100
0000
0000
0000
0000
0000
0100
0000
0000
,  // measure 19
0000
0001
0000
0000
0000
0010
0000
0000
0000
0000
0000
0000
0100
0000
0000
0010
,  // measure 20
0000
0001
0010
0100
,  // measure 21
0010
0100
1000
0001
,  // measure 22
1000
0001
0010
0100
,  // measure 23
0000
0000
1001
0000
0000
0000
0000
0000
0000
0000
0000
1001
0000
0000
0000
0000
,  // measure 24
0000
0000
1001
0000
0000
0000
0000
0000
0000
0000
0000
1001
0000
0000
0000
0000
,  // measure 25
0000
0000
0110
0000
0000
0000
0000
0000
0000
0000
0000
1001
0000
0000
0000
0000
,  // measure 26
0000
0000
0001
0000
0000
0010
0000
0000
,  // measure 27
0100
0000
0000
1000
0000
0000
0010
0000
,  // measure 28
0100
0000
0000
0100
0000
0000
0110
0000
,  // measure 29
0000
0000
0001
0001
,  // measure 30
0000
0000
0100
0100
,  // measure 31
0000
0000
0001
0001
,  // measure 32
1000
0000
1001
0000
,  // measure 33
0001
0000
0000
0000
0100
0000
0000
0010
0000
0000
0000
0000
0000
0000
0000
0100
,  // measure 34
0000
0000
0000
0000
0000
0010
0000
0000
0000
0000
0000
0000
0000
1000
0000
0000
,  // measure 35
0000
0100
0000
0000
0000
0010
0000
0000
0000
0100
0000
0000
0000
0000
0000
1000
,  // measure 36
0000
0000
0000
1000
0000
0000
0000
0001
0000
0000
0000
0001
0000
0000
0000
0000
,  // measure 37
0000
1000
0000
0000
0000
0000
0000
1001
0000
0000
0000
0000
0000
0000
0000
0000
,  // measure 38
0000
0010
0000
0000
0000
0000
0000
0110
0000
0000
0000
0000
0000
0000
0000
0000
,  // measure 39
1000
0000
0000
0000
0000
0100
0000
0000
0000
1000
0000
0000
0010
0000
0000
0000
,  // measure 40
0000
0000
0000
0100
0000
0000
0000
0001
0000
0000
0000
0100
0000
0000
0010
0000
,  // measure 41
0000
0000
0000
0000
0000
0100
0000
0000
0000
0001
0000
0000
0010
0000
0000
0000
,  // measure 42
0100
0000
0000
1000
0000
0000
0000
0010
0000
0000
0000
1000
0000
0000
0000
0000
,  // measure 43
0100
0000
0000
0000
0000
0010
0000
0000
0000
0001
0000
0000
0000
0100
0000
0000
,  // measure 44
0000
0000
0000
0010
0000
0000
0000
1000
0000
0000
0000
0100
0000
0000
0020
0000
,  // measure 45
0000
0000
0000
0030
0000
0000
0000
0000
,  // measure 46
0001
1000
0100
1000
,  // measure 47
0100
0000
0000
0000
0000
0100
0000
0000
0000
0100
0000
0000
0000
0000
0000
0000
,  // measure 48
0010
0000
0000
0000
0000
0010
0000
0000
0000
0010
0000
0000
0000
0000
0000
0000
,  // measure 49
0001
0000
0000
0000
0000
0001
0000
0000
0000
0001
0000
0000
0000
0000
0000
0000
,  // measure 50
1001
0000
0000
0000
;

//---------------dance-single - ----------------
#NOTES:
     dance-single:
     :
     Medium:
     10:
     0.477,0.453,0.577,0.120,0.691: // measure 1
0000
0000
0000
0000
,  // measure 2
0000
0000
0000
0000
,  // measure 3
0000
0000
0001
0000
0000
0000
0000
0000
0010
0000
0000
0001
0000
1000
0000
0001
,  // measure 4
0000
0000
0010
0000
0000
0000
0000
0000
0100
0000
0000
1000
0000
0010
0000
1000
,  // measure 5
0000
0000
0001
0000
0000
0000
0000
0000
1000
0000
0000
0100
0000
1000
0000
0100
,  // measure 6
0000
1001
0000
0000
0000
1001
0000
0000
0000
1001
0000
0000
0000
1001
0000
0000
,  // measure 7
0001
0000
0100
0000
0001
0000
0000
1000
0000
0000
0000
0100
0000
0000
0000
1000
,  // measure 8
0000
0000
0000
0000
0000
1001
0000
0000
0000
0010
0000
1000
0000
0010
0000
0000
,  // measure 9
0000
1000
0000
0100
0000
0010
0000
0001
0000
0000
0000
1000
0000
0000
0000
0010
,  // measure 10
0000
0000
0000
0110
0000
0000
0000
0010
0000
0000
0000
1001
0000
0000
0000
0000
,  // measure 11
0000
1100
0000
0000
0100
0000
0000
0110
0000
0000
0000
0000
0000
0000
0000
0000
,  // measure 12
0000
0011
0000
0000
0010
0000
0000
0110
0000
0000
0000
0000
0000
0000
0000
0000
,  // measure 13
1001
0000
0000
0000
0000
1000
0000
0010
0000
1000
0000
0000
0001
0000
0000
0010
,  // measure 14
0000
0000
0000
1001
0000
0000
0000
1000
0000
0000
0000
1010
0000
0000
0110
0000
,  // measure 15
0000
0100
0000
0000
0001
0000
0000
1000
0000
0100
0000
1000
0000
0000
0010
0000
,  // measure 16
0000
0000
0000
0100
0000
0001
0000
0100
0000
0000
0010
0000
0000
0000
1000
0000
,  // measure 17
0100
0000
0010
0000
0000
0001
0000
1000
0000
0001
0000
1000
0000
0001
0000
1000
,  // measure 18
0000
0100
0000
0010
0000
0000
0000
0001
0000
0000
0000
1000
0000
0010
0000
0000
,  // measure 19
0000
0100
0000
0001
0000
0100
0000
0010
0000
1000
0001
0000
0010
0000
0100
0000
,  // measure 20
0000
1000
0010
0000
0100
0000
0010
0000
0100
0000
0001
0000
0010
0000
0100
0000
,  // measure 21
1000
0001
0100
0010
1000
0001
1000
0000
,  // measure 22
0100
0010
0100
0010
0001
1000
0100
1000
,  // measure 23
0000
0000
0202
0000
0000
0000
0000
0000
0303
0000
0000
2020
0000
0000
0000
0000
,  // measure 24
3030
0000
2002
0000
0000
0000
0000
0000
3003
0000
0000
0220
0000
0000
0000
0000
,  // measure 25
0330
0000
2002
0000
0000
0000
0000
0000
3003
0000
0000
0011
0000
0000
0001
0000
,  // measure 26
0100
0000
0001
0000
0100
0000
0000
0010
0000
0000
0100
0000
0000
0010
0000
0000
,  // measure 27
1000
0000
0000
0100
0000
0000
1000
0000
0000
0100
0000
0000
1000
0000
0001
0000
,  // measure 28
0101
0000
0000
0110
0000
0000
1010
0000
,  // measure 29
1000
0000
0001
0000
1000
0000
0000
0000
0010
0000
0000
0100
0000
0001
0000
0100
,  // measure 30
0000
0000
0001
0000
1000
0000
0000
0000
0100
0000
0000
0010
0000
0100
0000
0010
,  // measure 31
0000
0000
0001
0000
0100
0000
0000
0000
0010
0000
0000
1000
0000
0001
0000
1000
,  // measure 32
0000
1001
0000
0000
0000
1001
0000
0000
0000
1001
0000
0000
0000
1001
0000
0000
,  // measure 33
1000
0000
0100
0000
0010
0000
0100
0000
0000
1000
0100
1000
0000
0010
0000
0100
,  // measure 34
0000
0001
0000
0100
0000
0010
0000
0000
0000
1000
0000
0100
0000
0010
0000
0000
,  // measure 35
0000
0001
0100
0001
0000
0010
0000
0100
0000
1000
0001
1000
0000
0001
1000
0001
,  // measure 36
0000
0000
0000
1001
0000
0000
0000
1001
0000
0000
0000
0110
0000
0000
0000
0000
,  // measure 37
0000
0101
0000
0000
0100
0000
0000
0110
0000
0000
0000
0000
0000
0000
0000
0000
,  // measure 38
0000
1010
0000
0000
0010
0000
0000
1001
0000
0000
0000
0000
0000
0000
0000
0000
,  // measure 39
1000
0000
0100
0000
0000
0001
0000
0100
0000
0000
1000
0000
0001
0000
0010
0000
,  // measure 40
0100
0000
1000
0000
0000
0000
0000
1001
0000
0000
0000
1100
0000
0000
0011
0000
,  // measure 41
0100
0000
1000
0000
0000
0010
0000
0100
0000
0000
0001
0000
0010
0000
0100
0000
,  // measure 42
1000
0000
0001
0000
0000
0000
0000
0101
0000
0000
0000
1001
0000
0000
1010
0000
,  // measure 43
0100
0000
0001
0000
0000
1000
0000
0100
0000
0000
0010
0000
0001
0000
0010
0000
,  // measure 44
0001
0000
0100
0000
0000
0000
0000
0110
0000
0000
0000
1001
0000
0000
2010
0000
,  // measure 45
0000
0000
0000
0000
,  // measure 46
3001
0100
0001
1000
0100
0010
0100
1000
,  // measure 47
0001
0000
0000
0000
0000
0101
0000
0000
0000
0101
0000
0000
0000
0000
0000
0000
,  // measure 48
1001
0000
0000
0000
0000
1100
0000
0000
0000
1100
0000
0000
0000
0000
0000
0000
,  // measure 49
1001
0000
0000
0000
0000
0011
0000
0000
0000
0011
0000
0000
0000
0000
0000
0000
,  // measure 50
1001
0000
0000
0000
;

//---------------dance-single - ----------------
#NOTES:
     dance-single:
     :
     Hard:
     14:
     0.682,0.643,0.588,0.272,1.000: // measure 1
0000
0000
0000
0000
,  // measure 2
0000
0000
0000
0000
,  // measure 3
1001
0000
0000
0000
1000
0000
0001
0000
0200
0000
0000
0301
0000
1000
0000
1100
,  // measure 4
0000
0000
1000
0000
0100
0000
1000
0000
0002
0000
0000
0103
0000
0010
0000
1010
,  // measure 5
0000
0000
1000
0000
0001
0000
1000
0000
0200
0000
0000
0310
0000
0001
0000
1000
,  // measure 6
0000
1001
0000
0000
0000
1100
0000
0000
0000
1001
0000
0000
0000
0011
0000
0000
,  // measure 7
0010
0000
0001
0000
1000
0000
0000
0001
0000
1000
0100
1000
0000
0001
1000
0001
,  // measure 8
0000
0010
0000
0100
0000
2000
0000
0000
3010
0000
1000
0001
0000
0100
0000
0000
,  // measure 9
0000
0001
0100
0001
0000
0010
0000
0100
0000
1000
0100
1000
0000
0001
1000
0001
,  // measure 10
0000
0000
0100
0001
0000
0000
1000
0100
0000
0000
0010
0001
0000
1000
0010
0000
,  // measure 11
0000
1001
0000
0000
0110
0000
0000
2002
0000
0000
0000
0000
0000
0000
3003
0000
,  // measure 12
0000
1100
0000
0000
0011
0000
0000
2002
0000
0000
0000
0000
0000
0000
3003
0000
,  // measure 13
0001
0100
0001
0100
0000
0010
1000
0010
0000
1000
0001
1000
0000
0100
0010
0000
,  // measure 14
0100
0010
0000
1001
0000
0001
1000
0001
0000
1000
0100
1000
0000
0001
1000
0000
,  // measure 15
0000
0100
0010
0100
0010
0000
0001
1000
0000
0010
0000
1000
0001
0000
1000
0001
,  // measure 16
0000
0000
0000
0100
0000
0100
0000
0110
0000
0001
0100
0001
0000
1000
0100
1000
,  // measure 17
0100
1000
0000
0001
0000
0100
0000
0101
0000
0010
0000
0110
0000
1000
0000
1010
,  // measure 18
0000
0010
0000
0010
0100
0000
0001
0200
0000
0000
0000
0010
0000
0310
0000
0000
,  // measure 19
0000
1000
0000
0100
0000
0010
0001
0010
0000
0001
1000
0001
0000
1000
0100
0000
,  // measure 20
0000
1000
0001
0000
1000
0000
0010
0000
0001
0000
0010
0000
1000
0000
0100
0000
,  // measure 21
1000
0000
0001
1000
0000
0000
0100
0000
1000
0000
0001
0100
0000
0001
1000
0000
,  // measure 22
0001
0100
0001
0100
0000
0001
1000
0000
0001
1000
0000
0001
1000
0100
1000
0100
,  // measure 23
0000
0000
2002
0000
0000
0000
0000
0000
3003
0000
0000
2200
0000
0000
0000
0000
,  // measure 24
3300
0000
2002
0000
0000
0000
3003
0000
1000
0001
0000
2002
0000
0000
0000
0000
,  // measure 25
3003
0000
0022
0000
0000
0000
0033
0000
0001
1000
0000
1001
0000
0000
1000
0100
,  // measure 26
1000
0100
1000
0000
1001
0000
0000
0011
0000
0000
0110
0000
0000
1100
0000
0000
,  // measure 27
0110
0000
0000
0101
0000
0000
0110
0000
0000
1010
0000
0000
0110
0000
0100
0000
,  // measure 28
0001
1000
0000
0000
0100
0000
1000
0001
0000
0000
0100
0000
0001
1000
0000
0000
,  // measure 29
0100
0000
0010
0000
0001
0000
1000
0000
0010
0000
0000
1000
0000
0001
0000
0011
,  // measure 30
0000
0000
0100
0000
1000
0000
0001
0000
0100
0000
0000
0001
0000
1000
0000
1100
,  // measure 31
0000
0000
0010
0000
0001
0000
1000
0000
0100
0000
0000
0010
0000
0100
0000
1000
,  // measure 32
0000
1001
0000
0000
0000
0101
0000
0000
0000
1010
0000
0000
0000
0110
0000
0000
,  // measure 33
0100
0000
0001
0000
1000
0000
0100
1000
0000
0001
0100
0001
0000
1000
0100
1000
,  // measure 34
0000
0010
0000
0100
0000
0001
0000
0000
1000
0100
1000
0100
0000
0010
0000
0000
,  // measure 35
0000
0001
0010
0001
0000
1000
0010
1000
0000
0001
1000
0001
0000
0000
0010
0001
,  // measure 36
0000
0000
1000
0001
0000
0000
1000
0100
0000
0000
0010
0001
0000
1000
0010
0000
,  // measure 37
0000
1001
0000
0000
0110
0000
0000
0202
0000
0000
0000
0000
0000
0000
0303
0000
,  // measure 38
0000
1001
0000
0000
0110
0000
0000
2200
0000
0000
0000
0000
0000
0000
3300
0000
,  // measure 39
1000
0001
1000
0001
0000
0100
0010
0100
0000
0001
1000
0000
0010
1000
0000
0001
,  // measure 40
0010
0000
0000
1001
0000
0001
0010
0001
0000
1000
0001
1000
0000
0001
1000
0000
,  // measure 41
0001
0010
0001
0010
0000
0100
1000
0100
0000
1000
0001
0000
0100
0001
0000
1000
,  // measure 42
0100
0000
0000
1001
0000
0001
0010
0001
0000
1000
0001
1000
0000
0001
1000
0000
,  // measure 43
0001
0100
0001
0100
0000
0010
1000
0010
0000
1000
0001
0000
0010
0001
0000
1000
,  // measure 44
0010
0000
0000
1001
0000
1000
0100
1000
0000
0001
0100
0001
0000
1000
0200
0000
,  // measure 45
0000
0000
0000
0000
0000
0000
0000
0300
,  // measure 46
1000
0001
1000
0001
0000
0100
0001
0000
1000
0000
0100
0000
0010
0000
0001
0000
,  // measure 47
0100
0001
0000
0000
0000
1001
0000
0000
0000
1001
0000
0000
0000
0000
0000
0000
,  // measure 48
0010
1000
0000
0000
0000
1001
0000
0000
0000
1001
0000
0000
0000
0000
0000
0000
,  // measure 49
0100
0000
0000
0010
0000
0000
0000
0000
0000
0000
0000
0000
0000
0000
0000
1001
0000
0000
0000
0000
0000
0000
0000
0000
0000
0000
0000
1001
0000
0000
0000
0000
0000
0000
0000
0000
0000
0000
0000
0000
0010
0000
0000
0000
0100
0000
0000
0000
,  // measure 50
0002
0003
0000
0000
;

//---------------dance-single - ----------------
#NOTES:
     dance-single:
     :
     Challenge:
     16:
     0.864,0.857,0.446,0.294,1.000: // measure 1
0000
0000
0000
0000
,  // measure 2
0000
0000
0000
0000
,  // measure 3
1000
0000
0001
0100
0001
0100
0000
0001
1000
0000
0200
1000
0000
1000
0000
1300
,  // measure 4
0000
0000
0010
0001
0010
0001
0000
0100
0010
0000
0200
0001
0000
0001
0000
0301
,  // measure 5
0000
0000
1000
0100
1000
0100
0000
0010
0001
0000
0200
0010
0000
0010
0000
0310
,  // measure 6
0000
1100
0000
0000
0000
0101
0000
0000
0000
1100
0000
0000
0000
0101
0000
0000
,  // measure 7
0001
1000
0001
1000
0100
1000
0100
0010
0000
0001
0100
0010
0000
1000
0100
0001
,  // measure 8
0000
0100
0000
1000
0000
0020
0000
0000
0130
0001
0010
0100
0000
1100
0000
0000
,  // measure 9
1000
0010
1000
0010
0100
0001
0010
0100
0000
1000
0010
0100
0000
0001
1000
0100
,  // measure 10
0000
0010
0001
0010
0000
0100
1000
0100
0000
0010
0001
0010
0000
0100
1000
0000
,  // measure 11
0000
1100
0000
0000
0101
0000
0000
2002
0000
0000
0000
0000
0000
0000
3003
0000
,  // measure 12
0000
0011
0000
0000
1010
0000
0000
2002
0000
0000
0000
0000
0000
0000
3003
0000
,  // measure 13
0001
0100
0010
1000
0000
1000
0001
1000
0000
0100
0010
0001
1000
0010
0100
0001
,  // measure 14
0010
1000
0010
0001
0000
1000
0010
1000
0000
0001
0100
0001
0000
1000
0100
0000
,  // measure 15
0000
1000
0100
0010
0001
0000
1000
0001
0000
0100
0000
0001
1000
0000
0010
0100
,  // measure 16
0000
0000
0000
0101
0000
0110
0000
1010
0000
1000
0010
1000
0000
0001
0010
0001
,  // measure 17
1000
0010
0100
0001
0000
1001
0000
1001
0000
1100
0000
1100
0000
0011
0000
0011
,  // measure 18
0000
1001
0000
1000
0001
0000
0100
0010
1000
0100
0000
1000
0100
0010
0100
0000
,  // measure 19
0000
1000
0010
1000
0001
0010
0100
1000
0000
0001
0100
1000
0100
0001
0010
0100
,  // measure 20
0000
1000
0010
0100
0010
1000
0100
0001
0100
1000
0001
0100
0001
0010
0100
1000
,  // measure 21
0010
0001
0010
1000
0001
0100
0001
1000
0100
0010
0001
0100
0000
0001
0100
1000
,  // measure 22
0100
0001
0010
0100
0000
1000
0100
0010
0001
1000
0010
0100
0010
1000
0001
1000
,  // measure 23
0000
0000
2200
0000
0000
0000
0000
0000
3300
0000
0000
0022
0000
0000
0000
0000
,  // measure 24
0033
0000
2002
0000
0000
0000
3003
0000
1000
0010
0000
2020
0000
0000
0000
0000
,  // measure 25
3030
0000
2002
0000
0000
0000
3003
0000
0001
0010
0000
0011
0000
0000
0001
1000
,  // measure 26
0100
1000
0001
1000
0100
0000
0100
0010
0000
0010
0001
0000
0001
0100
0000
0100
,  // measure 27
0010
0000
0010
1000
0000
1000
0001
0000
0001
0010
0000
0010
0100
0000
1010
0000
,  // measure 28
0010
0100
0001
0100
0010
0100
0001
1000
0100
1000
0001
1000
0100
1000
0000
0000
,  // measure 29
0001
0000
0100
0001
0100
0001
0000
1000
0100
0000
0020
0100
0000
0100
0000
0130
,  // measure 30
0000
0000
1000
0100
1000
0100
0000
0010
0001
0000
0200
0010
0000
0010
0000
0310
,  // measure 31
0000
0000
1000
0010
1000
0010
0000
0100
0001
0000
0020
0100
0000
0100
0000
0130
,  // measure 32
0000
1100
0000
0000
0000
0101
0000
0000
0000
1100
0000
0000
0000
0101
0000
0000
,  // measure 33
0001
0100
0001
0100
0010
1000
0100
0010
0000
0001
0010
0100
0000
1000
0100
0001
,  // measure 34
0000
0100
0000
1000
0000
1010
0000
0000
1000
0100
0010
0001
0000
1001
0000
0000
,  // measure 35
1000
0010
0100
0010
1000
0001
0010
0100
0000
1000
0100
0010
0000
0001
0100
0001
,  // measure 36
0000
1000
0010
1000
0000
0001
0100
0001
0000
1000
0010
1000
0000
0010
0100
0000
,  // measure 37
0000
0101
0000
0000
1001
0000
0000
2200
0000
0000
0000
0000
0000
0000
3300
0000
,  // measure 38
0000
1100
0000
0000
1001
0000
0000
0202
0000
0000
0000
0000
0000
0000
0303
0000
,  // measure 39
0001
1000
0100
0010
0000
0001
0100
0010
0000
0100
0010
1000
0100
0001
0100
1000
,  // measure 40
0001
0100
0010
1000
0000
0001
0010
0100
0000
0010
0001
1000
0000
0010
0100
0000
,  // measure 41
0001
0010
0100
1000
0000
0001
0100
0001
0000
0100
0010
1000
0100
0001
0100
1000
,  // measure 42
0001
0010
0100
1000
0000
0001
0100
0001
0000
1000
0100
1000
0000
0100
0010
0000
,  // measure 43
0001
0100
0010
1000
0000
0100
0010
0001
0000
0010
0100
1000
0001
0010
1000
0010
,  // measure 44
0001
1000
0100
0010
0000
0001
0100
0001
0000
1000
0010
1000
0000
0010
0100
0000
,  // measure 45
0001
1000
0001
1000
0100
0010
0001
1000
0010
0100
0001
1000
0100
0010
0001
1000
,  // measure 46
0010
0100
0010
1000
0000
0001
0100
1000
0100
0001
0010
0100
0010
0001
1000
0010
,  // measure 47
0100
0001
0000
0000
1000
0100
0000
0000
0010
0001
1000
0100
0010
0100
1000
0000
,  // measure 48
0001
0100
0000
0000
0001
1000
0000
0000
0100
1000
0000
0100
0000
0100
0000
0100
,  // measure 49
1000
0000
0000
0001
0000
0000
0000
0000
0000
0000
0000
0000
0010
0000
0000
0100
0000
0000
0000
0000
0000
0000
0000
0000
1000
0000
0000
0010
0000
0000
0000
0000
0000
0000
0000
0000
0000
0000
0000
0000
0100
0000
0000
0000
0001
0000
0000
0000
,  // measure 50
2002
3003
0000
0000
;

//---------------dance-single - ----------------
#NOTES:
     dance-single:
     :
     Beginner:
     2:
     0.087,0.133,0.065,0.000,0.016: // measure 1
0000
0000
0000
0000
,  // measure 2
0000
0000
0000
0000
,  // measure 3
0001
0000
0000
0000
,  // measure 4
1000
0000
0000
0000
,  // measure 5
0001
0000
0000
0000
,  // measure 6
0010
0000
0000
0000
,  // measure 7
0100
0000
0000
0000
,  // measure 8
1000
0000
0000
0000
,  // measure 9
0001
0000
0000
0000
0000
0000
0000
0100
,  // measure 10
0000
0000
0000
0000
,  // measure 11
0000
0110
0000
0000
0000
0000
0000
0000
0000
0000
0000
0000
0000
0000
0000
0000
,  // measure 12
0000
0110
0000
0000
0000
0000
0000
0000
0000
0000
0000
0000
0000
0000
0000
0000
,  // measure 13
1000
0000
0000
0000
,  // measure 14
0001
0000
0000
0000
,  // measure 15
1000
0000
0000
0000
,  // measure 16
0001
0000
0000
0000
,  // measure 17
1000
0000
0000
0000
,  // measure 18
0100
0000
0000
0000
,  // measure 19
0010
0000
0000
0000
,  // measure 20
0001
0000
0000
0000
,  // measure 21
0100
0000
0000
0000
,  // measure 22
0010
0000
0000
0000
,  // measure 23
0000
1001
0000
0000
0000
0000
0000
0000
,  // measure 24
0000
1001
0000
0000
0000
0000
0000
0000
,  // measure 25
0000
1001
0000
0000
0000
0000
0000
0000
,  // measure 26
0000
0001
0000
0000
,  // measure 27
0010
0000
0000
0100
,  // measure 28
1000
0000
0000
1000
,  // measure 29
0001
0000
0000
0000
,  // measure 30
0000
1000
0000
0000
0000
0000
0000
0000
,  // measure 31
0000
0001
0000
0000
0000
0000
0000
0000
,  // measure 32
0000
0100
0000
0000
0000
0000
0000
0000
0000
0000
0000
0000
0000
0000
0000
0000
,  // measure 33
0010
0000
0000
0000
0000
0000
0000
0100
,  // measure 34
0000
0000
0000
0000
,  // measure 35
0010
0000
0000
0000
0000
0000
0000
1000
,  // measure 36
0000
0000
0000
1000
0000
0000
0000
0000
,  // measure 37
0001
0000
0000
0000
,  // measure 38
0001
0000
0000
0000
,  // measure 39
1000
0000
0000
0000
,  // measure 40
0000
0100
0000
0000
0000
0000
0000
0000
,  // measure 41
0010
0000
0000
0000
,  // measure 42
0000
0001
0000
0000
0000
0000
0000
0000
,  // measure 43
0100
0000
0000
0000
,  // measure 44
0000
0001
0000
0000
0000
0000
0000
0000
,  // measure 45
0000
0000
0000
0000
,  // measure 46
1000
0000
0000
0000
,  // measure 47
0100
0000
0000
0000
,  // measure 48
0100
0000
0000
0000
,  // measure 49
0100
0000
0000
0000
,  // measure 50
0110
0000
0000
0000
;
